osu file format v13

[General]
AudioFilename: courage.mp3
AudioLeadIn: 0
PreviewTime: 50659
Countdown: 0
SampleSet: Normal
StackLeniency: 0.7
Mode: 0
LetterboxInBreaks: 1
WidescreenStoryboard: 0

[Editor]
DistanceSpacing: 0.9
BeatDivisor: 4
GridSize: 4
TimelineZoom: 2

[Metadata]
Title:courage
TitleUnicode:courage
Artist:Tomatsu haruka
ArtistUnicode:戸松遥
Creator:Daylight-
Version:Courage-
Source:SWORD ART ONLINE II
Tags:ソードアート・オンラインⅡ sao2 opening tv size 戸松遥
BeatmapID:599327
BeatmapSetID:262653

[Difficulty]
HPDrainRate:6.6
CircleSize:4
OverallDifficulty:7.5
ApproachRate:9.1
SliderMultiplier:1.8
SliderTickRate:1

[Events]
//Background and Video events
0,0,"BG.jpg",0,0
//Break Periods
//Storyboard Layer 0 (Background)
//Storyboard Layer 1 (Fail)
//Storyboard Layer 2 (Pass)
//Storyboard Layer 3 (Foreground)
//Storyboard Sound Samples

[TimingPoints]
2445,306.122448979592,4,1,1,100,1,0
2445,-200,4,3,1,60,0,0
12087,-200,4,1,1,60,0,0
20812,-100,4,1,1,85,0,0
22036,-90.9090909090909,4,3,1,85,0,0
22342,-100,4,1,1,80,0,0
30608,-200,4,1,1,80,0,0
41628,-100,4,3,1,75,0,0
50659,-200,4,1,1,85,0,0
51271,-90.9090909090909,4,3,1,90,0,1
59919,-90.9090909090909,4,1,1,90,0,1
61143,-90.9090909090909,4,3,1,90,0,1
71016,-200,4,3,1,60,0,0
79434,-200,4,1,1,60,0,0
80812,-90.9090909090909,4,3,1,85,0,1
89613,-90.9090909090909,4,2,1,90,0,1
90608,-90.9090909090909,4,1,1,100,0,0

[HitObjects]
280,120,2445,6,0,B|312:188|312:188|284:188,1,90,0|8,0:0|0:0,0:0:0:0:
172,156,2904,2,0,B|148:84|148:84|180:84,1,90,2|2,0:0|0:0,0:0:0:0:
280,116,3363,1,0,0:0:0:0:
356,192,3516,1,2,0:0:0:0:
356,192,4281,6,0,L|336:300,1,90,8|4,0:0|0:0,0:0:0:0:
244,332,4740,1,8,0:0:0:0:
244,332,4893,2,0,L|220:272,2,45,0|2|0,0:0|0:0|0:0,0:0:0:0:
140,176,5353,2,0,L|160:224,2,45,0|2|0,0:0|0:0|0:0,0:0:0:0:
68,76,5812,1,0,0:0:0:0:
140,176,5965,1,2,0:0:0:0:
360,80,7036,6,0,L|344:140,1,45,0|8,0:0|0:0,0:0:0:0:
340,144,7266,1,0,0:0:0:0:
332,164,7342,1,4,0:0:0:0:
320,188,7955,6,0,L|300:288,1,90
116,192,8567,6,0,P|136:108|228:128,1,180,2|4,0:0|0:0,0:0:0:0:
320,316,9485,1,0,0:0:0:0:
320,316,9791,6,0,L|320:220,1,90,2|0,0:0|0:0,0:0:0:0:
276,104,10251,2,0,L|256:208,1,90,2|0,0:0|0:0,0:0:0:0:
220,280,10710,1,0,0:0:0:0:
148,328,10863,1,2,0:0:0:0:
68,304,11016,1,8,0:0:0:0:
192,64,12240,5,2,0:0:0:0:
208,80,12547,2,8,B|284:148,1,90
304,164,13312,1,0,0:0:0:0:
380,260,13465,1,0,0:0:0:0:
380,260,13618,2,0,P|352:300|300:320,2,90,0|8|8,0:0|0:0|0:0,0:0:0:0:
316,316,14536,1,8,0:0:0:0:
252,252,14689,5,4,0:0:0:0:
216,212,15149,5,0,0:0:0:0:
180,172,15608,5,4,0:0:0:0:
108,72,16526,5,4,0:0:0:0:
108,72,17138,1,0,0:0:0:0:
204,280,17598,1,0,0:0:0:0:
344,108,18057,1,0,0:0:0:0:
204,280,18669,5,4,0:0:0:0:
108,72,18975,1,8,0:0:0:0:
256,36,19587,6,0,B|240:68|240:68|264:88|264:88|244:112|244:112|264:144,1,135
280,336,20200,1,8,0:0:0:0:
332,224,20353,1,8,0:0:0:0:
200,244,20506,1,8,0:0:0:0:
200,244,20812,5,8,0:0:0:0:
192,240,20888,1,2,0:0:0:0:
184,236,20965,1,8,0:0:0:0:
68,88,21118,2,0,P|140:64|180:72,1,90,4|8,0:0|0:0,0:0:0:0:
220,140,21348,1,0,0:0:0:0:
224,144,21424,2,0,P|280:140|324:116,1,90,8|4,0:0|0:0,0:0:0:0:
392,40,21730,1,4,0:0:0:0:
168,200,22036,6,0,B|180:116|148:92|148:92|120:136,1,148.50000453186
80,208,22342,2,0,P|92:268|124:300,1,90,4|0,0:0|0:0,0:0:0:0:
164,352,22649,1,0,0:0:0:0:
264,260,22802,1,0,0:0:0:0:
184,276,22955,1,4,0:0:0:0:
340,288,23108,5,0,0:0:0:0:
380,352,23261,1,0,0:0:0:0:
384,356,23337,1,0,0:0:0:0:
388,360,23414,1,0,0:0:0:0:
412,256,23567,2,0,P|444:196|444:160,1,90,4|0,0:0|0:0,0:0:0:0:
352,128,23873,2,0,P|320:192|320:224,1,90
444,164,24179,1,4,0:0:0:0:
272,88,24332,1,0,0:0:0:0:
228,104,24409,1,0,0:0:0:0:
184,124,24485,1,0,0:0:0:0:
140,252,24638,5,0,0:0:0:0:
184,232,24715,1,0,0:0:0:0:
228,216,24791,2,0,L|316:176,1,90,4|0,0:0|0:0,0:0:0:0:
376,176,25021,1,0,0:0:0:0:
380,180,25098,2,0,P|376:240|352:272,1,90
216,332,25404,2,0,P|156:320|64:340,1,135,4|0,0:0|0:0,0:0:0:0:
8,296,25710,2,0,P|12:224|28:216,1,90
144,236,26016,6,0,B|200:268|200:268|200:228,1,90,4|0,0:0|0:0,0:0:0:0:
136,124,26322,1,0,0:0:0:0:
164,104,26399,1,0,0:0:0:0:
192,124,26475,1,0,0:0:0:0:
220,104,26552,1,0,0:0:0:0:
248,124,26628,1,4,0:0:0:0:
272,104,26705,1,0,0:0:0:0:
304,124,26781,2,0,B|360:244|400:88|400:88|456:176,1,270,0|4,0:0|0:0,0:0:0:0:
448,164,27547,6,0,B|409:252|409:252|328:300,1,180,0|4,0:0|0:0,0:0:0:0:
336,294,28006,1,0,0:0:0:0:
236,264,28159,1,0,0:0:0:0:
136,280,28312,1,0,0:0:0:0:
56,188,28465,1,4,0:0:0:0:
56,188,28618,2,0,P|84:136|120:108,1,90
196,84,28924,1,0,0:0:0:0:
280,100,29077,2,0,L|296:204,1,90,4|0,0:0|0:0,0:0:0:0:
424,92,29383,6,0,L|336:48,1,90
140,52,29689,2,0,L|236:104,2,90,4|0|0,0:0|0:0|0:0,0:0:0:0:
168,176,30149,2,0,L|184:228,1,45
200,264,30302,2,0,B|280:248|280:248|272:224,1,90,4|0,0:0|0:0,0:0:0:0:
336,40,30608,6,0,L|268:108,1,90,2|12,0:0|0:0,0:0:0:0:
256,120,30990,5,0,0:0:0:0:
244,132,31067,1,12,0:0:0:0:
232,144,31143,1,0,0:0:0:0:
220,156,31220,1,8,0:0:0:0:
204,172,31297,5,0,0:0:0:0:
184,192,31373,1,12,0:0:0:0:
160,216,31450,1,0,0:0:0:0:
128,248,31526,1,8,0:0:0:0:
108,292,31603,5,0,0:0:0:0:
128,344,31679,1,12,0:0:0:0:
184,352,31756,1,8,0:0:0:0:
232,328,31832,1,8,0:0:0:0:
392,144,32138,5,8,0:0:0:0:
104,108,32445,5,8,0:0:0:0:
356,260,32751,5,8,0:0:0:0:
192,44,33057,5,8,0:0:0:0:
112,304,33363,5,8,0:0:0:0:
424,336,33669,5,8,0:0:0:0:
296,36,33975,5,8,0:0:0:0:
260,140,34281,2,0,L|208:148,2,45,0|0|0,0:0|0:0|0:0,0:0:0:0:
104,216,34740,1,0,0:0:0:0:
52,120,34893,2,0,P|104:80|140:72,1,90
256,184,35353,2,0,L|312:176,1,45
301,178,35659,1,0,0:0:0:0:
440,112,35965,2,0,P|448:144|444:216,1,90
296,308,36577,5,0,0:0:0:0:
92,208,36730,2,0,L|144:188,2,45,8|0|8,0:0|0:0|0:0,0:0:0:0:
48,312,37189,1,0,0:0:0:0:
32,140,37342,2,0,B|48:64|48:64|64:80,1,90,8|8,0:0|0:0,0:0:0:0:
88,208,37802,1,0,0:0:0:0:
48,312,37955,1,8,0:0:0:0:
32,140,38108,1,0,0:0:0:0:
188,208,38261,2,0,L|264:224,1,67.5,8|0,0:0|0:0,0:0:0:0:
368,268,38567,2,0,L|340:216,1,45,8|0,0:0|0:0,0:0:0:0:
304,144,38873,1,8,0:0:0:0:
112,76,39179,6,0,L|128:120,2,45,0|0|0,0:0|0:0|0:0,0:0:0:0:
96,200,39638,1,0,0:0:0:0:
120,300,39791,2,0,L|160:344,1,45
248,296,40098,2,0,L|320:320,1,67.5
344,312,40404,1,0,0:0:0:0:
384,208,40557,1,0,0:0:0:0:
256,112,40710,1,0,0:0:0:0:
292,208,40863,1,0,0:0:0:0:
292,208,40939,1,0,0:0:0:0:
292,208,41016,1,0,0:0:0:0:
152,212,41169,2,0,L|64:168,1,90
28,88,41628,6,0,L|116:44,1,90
228,56,41934,1,8,0:0:0:0:
332,24,42087,1,0,0:0:0:0:
456,184,42240,1,0,0:0:0:0:
428,80,42393,1,0,0:0:0:0:
292,208,42547,1,8,0:0:0:0:
340,124,42700,1,0,0:0:0:0:
240,288,42853,2,0,L|140:328,2,90,4|0|12,0:0|0:0|0:0,0:0:0:0:
344,288,43312,1,0,0:0:0:0:
388,208,43465,2,0,L|492:168,2,90,4|0|12,0:0|0:0|0:0,0:0:0:0:
344,288,43924,1,0,0:0:0:0:
236,288,44077,6,0,P|148:248|88:188,1,180,8|0,0:0|0:0,0:0:0:0:
136,64,44536,1,0,0:0:0:0:
276,96,44689,2,0,P|352:140|440:220,1,180,8|0,0:0|0:0,0:0:0:0:
308,324,45149,1,0,0:0:0:0:
136,384,45302,5,8,0:0:0:0:
452,160,45608,1,8,0:0:0:0:
60,160,45914,1,8,0:0:0:0:
372,384,46220,1,8,0:0:0:0:
256,8,46526,1,8,0:0:0:0:
156,104,47445,6,0,L|232:232,1,135
248,320,47751,2,0,L|144:296,1,90
56,224,48057,2,0,L|80:120,1,90
256,76,48363,2,0,L|236:184,1,90
392,280,48669,2,0,L|284:256,1,90
120,112,48975,5,8,0:0:0:0:
392,280,49128,1,8,0:0:0:0:
256,44,49434,5,8,0:0:0:0:
256,340,49587,1,8,0:0:0:0:
392,112,49893,5,8,0:0:0:0:
120,276,50047,1,8,0:0:0:0:
392,280,50659,5,2,0:0:0:0:
392,280,50812,2,8,L|288:264,1,90,0|8,0:0|0:0,0:0:0:0:
48,264,51424,6,0,L|160:144,1,148.50000453186
168,68,51730,2,0,P|224:96|228:140,1,99.0000030212403,4|0,0:0|0:0,0:0:0:0:
332,296,52036,2,0,P|264:272|256:244,1,99.0000030212403,0|0,0:0|0:0,0:0:0:0:
229,133,52342,1,4,0:0:0:0:
360,76,52496,1,0,0:0:0:0:
368,80,52572,1,4,0:0:0:0:
376,84,52649,2,0,P|424:124|408:252,1,198.000006042481,0|4,0:0|0:0,0:0:0:0:
260,336,53108,1,0,0:0:0:0:
92,284,53261,2,0,P|104:220|120:176,1,99.0000030212403,0|0,0:0|0:0,0:0:0:0:
248,172,53567,2,0,P|224:88|212:72,1,99.0000030212403,4|0,0:0|0:0,0:0:0:0:
96,48,53873,5,0,0:0:0:0:
64,148,54026,1,0,0:0:0:0:
212,268,54179,1,4,0:0:0:0:
184,160,54332,1,0,0:0:0:0:
300,72,54485,1,0,0:0:0:0:
344,168,54638,1,0,0:0:0:0:
344,168,54791,2,0,P|372:224|436:296,1,148.50000453186,4|4,0:0|0:0,0:0:0:0:
464,360,55098,2,0,L|352:344,1,99.0000030212403,0|0,0:0|0:0,0:0:0:0:
284,196,55404,2,0,P|248:256|260:296,1,99.0000030212403,4|0,0:0|0:0,0:0:0:0:
344,320,55710,5,0,0:0:0:0:
352,324,55786,1,0,0:0:0:0:
360,328,55863,1,0,0:0:0:0:
196,236,56016,1,4,0:0:0:0:
188,232,56092,1,0,0:0:0:0:
180,228,56169,1,0,0:0:0:0:
284,196,56322,2,0,P|364:180|424:128,1,148.50000453186
364,68,56628,2,0,P|424:48|464:80,1,99.0000030212403,4|0,0:0|0:0,0:0:0:0:
456,196,56934,1,0,0:0:0:0:
284,196,57087,1,0,0:0:0:0:
136,84,57240,1,4,0:0:0:0:
56,168,57393,1,0,0:0:0:0:
60,176,57470,1,4,0:0:0:0:
64,184,57547,1,0,0:0:0:0:
160,292,57700,1,0,0:0:0:0:
284,296,57853,5,4,0:0:0:0:
288,292,57929,1,0,0:0:0:0:
292,288,58006,2,0,P|344:252|376:212,1,99.0000030212403,0|0,0:0|0:0,0:0:0:0:
360,108,58312,1,0,0:0:0:0:
224,160,58465,1,4,0:0:0:0:
252,40,58618,1,0,0:0:0:0:
360,108,58771,5,0,0:0:0:0:
224,160,58924,1,0,0:0:0:0:
252,40,59077,1,4,0:0:0:0:
360,108,59230,5,0,0:0:0:0:
224,160,59383,2,0,P|160:140|96:200,1,148.50000453186
112,224,59689,2,0,P|152:248|208:232,1,99.0000030212403,4|0,0:0|0:0,0:0:0:0:
236,112,59996,1,4,0:0:0:0:
196,252,60149,1,0,0:0:0:0:
344,280,60302,1,12,0:0:0:0:
372,140,60455,1,2,0:0:0:0:
164,144,60608,5,4,0:0:0:0:
240,352,60761,1,6,0:0:0:0:
468,300,60914,1,12,0:0:0:0:
404,68,61067,1,6,0:0:0:0:
232,44,61220,2,0,L|112:40,1,99.0000030212403,0|2,0:0|0:0,0:0:0:0:
40,76,61450,1,0,0:0:0:0:
44,88,61526,2,0,P|100:112|148:148,1,99.0000030212403,4|0,0:0|0:0,0:0:0:0:
200,224,61832,5,0,0:0:0:0:
60,304,61985,1,2,0:0:0:0:
236,304,62138,1,4,0:0:0:0:
84,224,62291,1,0,0:0:0:0:
144,136,62445,2,0,L|144:76,2,49.5000015106202,0|0|0,0:0|0:0|0:0,0:0:0:0:
264,64,62751,1,4,0:0:0:0:
280,60,62827,1,0,0:0:0:0:
296,56,62904,1,0,0:0:0:0:
404,104,63057,2,0,P|372:148|280:176,1,148.50000453186
216,156,63363,2,0,P|212:216|240:268,1,99.0000030212403,4|2,0:0|0:0,0:0:0:0:
356,332,63669,2,0,P|352:264|332:232,1,99.0000030212403,0|0,0:0|0:0,0:0:0:0:
280,168,63899,5,0,0:0:0:0:
272,164,63975,2,0,B|208:140|208:140|172:168,1,99.0000030212403,4|2,0:0|0:0,0:0:0:0:
96,232,64281,1,0,0:0:0:0:
96,232,64434,2,0,L|116:332,1,99.0000030212403,0|4,0:0|0:0,0:0:0:0:
136,108,64740,2,0,L|116:12,2,99.0000030212403,2|0|0,0:0|0:0|0:0,0:0:0:0:
212,312,65200,5,4,0:0:0:0:
260,68,65506,5,0,0:0:0:0:
368,284,65812,5,4,0:0:0:0:
368,284,66118,6,0,P|416:312|472:304,1,99.0000030212403,0|2,0:0|0:0,0:0:0:0:
444,152,66424,2,0,P|392:168|352:200,1,99.0000030212403,4|0,0:0|0:0,0:0:0:0:
300,280,66730,1,0,0:0:0:0:
264,356,66883,1,0,0:0:0:0:
176,352,67036,1,4,0:0:0:0:
144,268,67189,1,0,0:0:0:0:
128,120,67342,5,0,0:0:0:0:
128,120,67496,1,0,0:0:0:0:
236,196,67649,1,4,0:0:0:0:
236,196,67802,1,0,0:0:0:0:
272,56,67955,1,0,0:0:0:0:
272,56,68109,1,0,0:0:0:0:
380,132,68262,1,4,0:0:0:0:
396,232,68415,1,0,0:0:0:0:
396,244,68490,1,4,0:0:0:0:
396,252,68567,2,0,P|356:304|232:332,1,198.000006042481,0|4,0:0|0:0,0:0:0:0:
56,284,69026,1,6,0:0:0:0:
56,284,69179,6,0,B|28:216|36:84|36:84|84:72|84:72|104:120,1,297.000009063721,8|2,0:0|0:0,0:0:0:0:
140,212,69791,6,0,B|280:328|280:328|372:232|372:232|296:168,1,396.000012084961,2|8,0:0|0:0,0:0:0:0:
168,128,70710,1,2,0:0:0:0:
192,132,71016,6,0,L|256:148,1,45,2|0,0:0|0:0,0:0:0:0:
348,224,71322,2,0,L|304:212,1,45
192,132,71934,1,0,0:0:0:0:
396,76,72240,5,4,0:0:0:0:
256,352,72700,5,4,0:0:0:0:
116,76,73159,5,4,0:0:0:0:
116,76,73465,1,0,0:0:0:0:
172,160,73618,1,0,0:0:0:0:
272,192,73771,1,4,0:0:0:0:
372,184,73924,1,0,0:0:0:0:
380,192,74230,5,0,0:0:0:0:
324,280,74383,1,4,0:0:0:0:
228,328,74536,1,0,0:0:0:0:
116,320,74689,1,4,0:0:0:0:
92,296,75149,1,2,0:0:0:0:
68,272,75608,1,8,0:0:0:0:
104,88,75914,6,0,P|168:80|264:152,1,180,2|0,0:0|0:0,0:0:0:0:
228,292,76832,1,0,0:0:0:0:
104,344,77138,6,0,B|80:360|80:360|64:288|116:204,1,180,2|0,0:0|0:0,0:0:0:0:
212,68,78057,1,0,0:0:0:0:
348,184,78363,6,0,B|344:216|344:216|296:232|296:232|264:184|264:184|304:144,1,180,2|0,0:0|0:0,0:0:0:0:
356,84,79128,2,0,P|336:68|304:56,1,45,2|0,0:0|0:0,0:0:0:0:
156,128,79587,5,4,0:0:0:0:
336,180,79740,1,2,0:0:0:0:
156,128,79893,5,12,0:0:0:0:
336,180,80047,1,2,0:0:0:0:
116,196,80200,5,4,0:0:0:0:
376,112,80353,1,6,0:0:0:0:
156,264,80506,5,12,0:0:0:0:
336,44,80659,1,6,0:0:0:0:
376,244,80812,2,0,P|372:300|356:344,1,99.0000030212403,0|4,0:0|0:0,0:0:0:0:
272,360,81041,1,0,0:0:0:0:
268,356,81118,2,4,P|208:332|172:328,1,99.0000030212403,8|4,0:0|0:0,0:0:0:0:
64,348,81424,1,0,0:0:0:0:
156,264,81577,1,4,0:0:0:0:
64,348,81730,1,8,0:0:0:0:
88,196,81883,1,4,0:0:0:0:
220,296,82036,2,0,P|280:304|356:264,1,148.50000453186,0|0,0:0|0:0,0:0:0:0:
368,184,82342,2,0,P|308:184|272:216,1,99.0000030212403,8|4,0:0|0:0,0:0:0:0:
220,296,82649,5,0,0:0:0:0:
172,172,82802,1,4,0:0:0:0:
96,280,82955,1,8,0:0:0:0:
40,160,83108,2,0,P|80:108|116:100,1,99.0000030212403,4|0,0:0|0:0,0:0:0:0:
176,104,83337,1,0,0:0:0:0:
180,104,83414,2,0,P|236:128|252:160,1,99.0000030212403,4|8,0:0|0:0,0:0:0:0:
244,228,83643,1,0,0:0:0:0:
248,232,83720,2,0,P|288:280|356:308,1,99.0000030212403,4|0,0:0|0:0,0:0:0:0:
444,300,84026,6,0,P|408:256|400:212,1,99.0000030212403,4|8,0:0|0:0,0:0:0:0:
432,104,84332,1,4,0:0:0:0:
304,132,84485,2,0,L|196:112,1,99.0000030212403,0|4,0:0|0:0,0:0:0:0:
108,120,84791,1,8,0:0:0:0:
28,172,84945,1,4,0:0:0:0:
168,184,85098,5,0,0:0:0:0:
28,240,85251,1,4,0:0:0:0:
232,248,85404,5,8,0:0:0:0:
28,308,85557,1,4,0:0:0:0:
296,308,85710,6,0,L|408:272,1,99.0000030212403,0|4,0:0|0:0,0:0:0:0:
352,144,86016,2,0,L|440:212,1,99.0000030212403,8|4,0:0|0:0,0:0:0:0:
264,60,86322,2,0,L|248:172,1,99.0000030212403,0|4,0:0|0:0,0:0:0:0:
244,316,86628,1,8,0:0:0:0:
204,232,86781,1,4,0:0:0:0:
128,172,86934,1,0,0:0:0:0:
36,152,87087,1,4,0:0:0:0:
32,144,87164,1,0,0:0:0:0:
28,136,87240,1,8,0:0:0:0:
64,272,87393,5,4,0:0:0:0:
76,284,87470,1,8,0:0:0:0:
88,296,87547,1,4,0:0:0:0:
100,308,87623,1,0,0:0:0:0:
112,320,87700,2,0,P|160:352|224:352,1,99.0000030212403,4|8,0:0|0:0,0:0:0:0:
336,312,88006,2,0,P|272:284|248:260,1,99.0000030212403,4|0,0:0|0:0,0:0:0:0:
192,200,88236,1,0,0:0:0:0:
192,192,88312,2,0,L|200:88,1,99.0000030212403,4|8,0:0|0:0,0:0:0:0:
352,96,88618,2,0,L|348:196,1,99.0000030212403,4|8,0:0|0:0,0:0:0:0:
96,284,88924,6,0,L|104:180,1,99.0000030212403,4|8,0:0|0:0,0:0:0:0:
440,44,89230,2,0,L|436:144,1,99.0000030212403,4|8,0:0|0:0,0:0:0:0:
440,172,89460,2,0,L|400:212,1,49.5000015106202,0|4,0:0|0:0,0:0:0:0:
272,224,89689,2,0,P|200:232|160:208,1,99.0000030212403,8|0,0:0|0:0,0:0:0:0:
144,140,89996,5,0,0:0:0:0:
272,224,90149,1,8,0:0:0:0:
156,312,90302,2,0,L|256:340,1,99.0000030212403,8|0,0:0|0:0,0:0:0:0:
