osu file format v10

[General]
AudioFilename: HELLO!!.mp3
AudioLeadIn: 0
PreviewTime: 82108
Countdown: 0
SampleSet: Soft
StackLeniency: 0.7
Mode: 0
LetterboxInBreaks: 1

[Editor]
DistanceSpacing: 1
BeatDivisor: 4
GridSize: 4

[Metadata]
Title:"HELLO!!"
TitleUnicode:
Artist:Tomatsu Haruka, Hanazawa Kana, Sanpei Yuuko
ArtistUnicode:
Creator:mjw5150
Version:Insane
Source:THE IDOLM@STER Dearly Stars
Tags:Namco 876 Hinsvar
BeatmapID:152315
BeatmapSetID:46388

[Difficulty]
HPDrainRate:7
CircleSize:4
OverallDifficulty:7
ApproachRate:8
SliderMultiplier:1.73
SliderTickRate:1

[Events]
//Background and Video events
0,0,"BG765.jpg"
//Break Periods
2,27336,34537
2,105198,115346
2,182885,192340
//Storyboard Layer 0 (Background)
//Storyboard Layer 1 (Fail)
//Storyboard Layer 2 (Pass)
//Storyboard Layer 3 (Foreground)
//Storyboard Sound Samples
//Background Colour Transformations
3,100,163,162,255

[TimingPoints]
952,346.820566277592,4,2,1,70,1,0
82801,-100,4,2,1,70,0,1
104998,-100,4,2,1,70,0,0
116096,-133.333333333333,4,2,1,70,0,0
116963,-133.333333333333,4,2,1,60,0,0
127194,-100,4,2,1,70,0,0
152165,-100,4,2,1,70,0,1
174015,-100,4,2,1,70,0,0
193784,-100,4,2,1,60,0,0
197946,-100,4,2,1,70,0,0
199333,-100,4,2,1,70,0,1
215980,-100,4,2,1,70,0,0
229853,-100,4,2,1,70,0,1
246500,-100,4,2,1,70,0,0

[Colours]
Combo1 : 240,80,80
Combo2 : 171,252,203
Combo3 : 175,221,254
Combo4 : 249,254,186

[HitObjects]
256,192,15519,1,0,0:0:0
256,192,15865,1,0,0:0:0
108,104,16212,1,2,0:0:0
108,280,16559,1,0,0:0:0
256,192,16906,1,0,0:0:0
256,192,17079,1,0,0:0:0
256,364,17425,2,0,B|384:328|468:220,1,259.5
328,120,18293,5,0,0:0:0
176,36,18640,1,0,0:0:0
328,120,18986,2,0,B|352:208|280:288,1,173,2|0,0:0|0:0,0:0:0
184,140,19680,2,0,B|88:136|28:208,1,173
128,288,20287,1,0,0:0:0
128,288,20373,2,0,B|248:328|384:288,1,259.5,2|0,0:0|0:0,0:0:0
464,256,21067,1,0,0:0:0
136,148,21761,6,0,B|296:60,1,173,2|0,0:0|0:0,0:0:0
456,104,22454,2,0,B|336:168,1,129.75,2|0,0:0|0:0,0:0:0
341,165,22801,1,0,0:0:0
256,316,23148,6,0,B|164:292|108:220,1,173,2|0,0:0|0:0,0:0:0
256,316,23668,2,0,B|348:292|404:220,1,173
440,148,24189,1,8,0:0:0
284,76,24535,6,0,B|192:100|136:172,1,173,4|8,0:0|0:0,0:0:0
140,166,25056,1,0,0:0:0
256,192,25229,12,4,27136,0:0:0
80,160,35287,5,2,0:0:0
224,64,35634,2,0,B|304:88|368:164,1,173,4|8,0:0|0:0,0:0:0
200,212,36327,2,0,B|200:260|224:304,1,86.5
292,344,36674,1,8,0:0:0
364,296,36847,2,0,B|408:232|428:128,1,173
356,84,37368,1,8,0:0:0
280,44,37541,1,0,0:0:0
252,64,37628,1,0,0:0:0
232,92,37714,2,0,B|200:128|208:184,1,86.5
256,340,38061,1,8,0:0:0
256,340,38408,6,0,B|168:312|120:232,1,173,0|8,0:0|0:0,0:0:0
204,124,38928,1,0,0:0:0
204,124,39015,1,0,0:0:0
204,124,39102,2,0,B|224:32,1,86.5
256,260,39449,2,0,B|256:172,1,86.5,8|0,0:0|0:0,0:0:0
348,300,39795,5,6,0:0:0
440,196,39969,1,2,0:0:0
308,156,40142,1,8,0:0:0
400,260,40316,2,0,B|400:84,1,173,4|0,0:0|0:0,0:0:0
328,40,40836,1,8,0:0:0
260,160,41009,5,0,0:0:0
232,184,41096,1,0,0:0:0
200,196,41183,1,4,0:0:0
112,88,41356,1,0,0:0:0
240,36,41530,1,8,0:0:0
112,87,41703,2,0,B|112:260,1,173,0|2,0:0|0:0,0:0:0
172,324,42223,1,10,0:0:0
256,348,42397,1,2,0:0:0
256,175,42570,5,4,0:0:0
316,112,42743,1,0,0:0:0
396,76,42917,1,8,0:0:0
468,124,43090,2,0,B|468:297,1,173,0|0,0:0|0:0,0:0:0
396,344,43610,1,8,0:0:0
324,296,43784,2,0,B|236:264|176:184,1,173,4|0,0:0|0:0,0:0:0
108,156,44304,1,8,0:0:0
228,32,44651,5,0,0:0:0
304,72,44824,1,0,0:0:0
232,120,44998,1,8,0:0:0
308,160,45171,1,0,0:0:0
308,160,45258,1,0,0:0:0
308,160,45345,2,0,B|396:168|468:228,1,173,4|8,0:0|0:0,0:0:0
440,308,45865,2,0,B|352:300|280:240,1,173,4|0,0:0|0:0,0:0:0
216,188,46385,1,8,0:0:0
136,340,46732,6,0,B|60:288|32:192,1,173,4|8,0:0|0:0,0:0:0
172,96,47425,1,0,0:0:0
172,96,47600,2,0,B|348:120,1,173
396,188,48119,2,0,B|368:264|284:348,1,173,0|8,0:0|0:0,0:0:0
276,248,48639,2,0,B|172:256|108:304,1,173
32,268,49160,1,8,0:0:0
52,96,49506,6,0,B|100:152|204:184,1,173,0|8,0:0|0:0,0:0:0
368,220,50200,1,0,0:0:0
452,200,50373,1,0,0:0:0
496,124,50547,1,8,0:0:0
344,44,50894,6,0,B|304:104|196:144,1,173,0|8,0:0|0:0,0:0:0
120,164,51414,1,0,0:0:0
120,164,51501,1,0,0:0:0
120,164,51587,1,0,0:0:0
72,236,51761,5,0,0:0:0
104,316,51934,1,8,0:0:0
188,340,52108,1,0,0:0:0
388,240,52281,2,0,B|356:324|356:324|264:344,1,173,0|8,0:0|0:0,0:0:0
224,176,52975,5,0,0:0:0
272,248,53148,1,0,0:0:0
188,256,53321,2,0,B|100:236|48:152,1,173,8|0,0:0|0:0,0:0:0
132,124,53842,2,0,B|200:76|300:68,1,173
380,80,54362,1,0,0:0:0
256,200,54709,5,8,0:0:0
342,200,54882,1,0,0:0:0
428,200,55056,2,0,B|408:296|320:344,1,173,0|8,0:0|0:0,0:0:0
84,200,55749,2,0,B|104:296|181:338,1,173,0|8,0:0|0:0,0:0:0
168,64,56443,6,0,B|136:104|128:148,2,86.5,0|0|8,0:0|0:0|0:0,0:0:0
256,64,56963,1,0,0:0:0
280,100,57050,1,0,0:0:0
292,140,57136,1,0,0:0:0
212,176,57310,1,0,0:0:0
260,248,57483,1,8,0:0:0
280,276,57570,1,0,0:0:0
304,300,57657,1,0,0:0:0
336,316,57743,1,0,0:0:0
368,324,57830,2,0,B|456:276|480:188,1,173,4|8,0:0|0:0,0:0:0
304,192,58524,5,0,0:0:0
304,192,58697,2,0,B|208:216|148:272,1,173
204,104,59217,2,0,B|120:155|96:249,1,173,0|8,0:0|0:0,0:0:0
68,60,59738,2,0,B|24:140|40:236,1,173
72,308,60258,1,8,0:0:0
244,308,60605,6,0,B|176:228|184:144,1,173,0|8,0:0|0:0,0:0:0
248,92,61125,1,0,0:0:0
248,92,61212,1,0,0:0:0
248,92,61298,2,0,B|276:132|280:176,1,86.5
188,276,61645,1,8,0:0:0
324,248,61819,1,0,0:0:0
248,92,61992,2,0,B|296:20|296:20|384:40,1,173,0|8,0:0|0:0,0:0:0
416,120,62512,1,0,0:0:0
368,192,62685,1,0,0:0:0
284,176,62859,5,0,0:0:0
200,156,63032,2,0,B|160:128|100:128,1,86.5,8|0,0:0|0:0,0:0:0
96,156,63292,1,0,0:0:0
92,192,63379,2,0,B|100:276|164:356,1,173,4|8,0:0|0:0,0:0:0
328,316,64073,5,0,0:0:0
256,268,64246,1,0,0:0:0
208,196,64420,2,0,B|256:120|340:84,1,173,8|4,0:0|0:0,0:0:0
408,253,64940,2,0,B|408:80,1,173,0|0,0:0|0:0,0:0:0
408,80,65460,1,0,0:0:0
316,228,65807,5,8,0:0:0
244,276,65980,1,0,0:0:0
168,316,66154,2,0,B|168:140,1,173,4|8,0:0|0:0,0:0:0
28,40,66847,2,0,B|200:40,1,173,0|8,0:0|0:0,0:0:0
348,132,67541,5,0,0:0:0
348,132,67714,2,0,B|408:196|432:292,1,173
360,336,68235,1,0,0:0:0
288,288,68408,1,2,0:0:0
260,268,68495,1,2,0:0:0
228,256,68582,1,2,0:0:0
196,252,68668,1,0,0:0:0
160,252,68755,1,0,0:0:0
84,136,68928,5,4,0:0:0
152,84,69102,2,0,B|232:100|308:160,1,173
380,276,69622,1,0,0:0:0
500,208,69795,1,0,0:0:0
444,80,69969,1,8,0:0:0
308,72,70142,2,0,B|224:128|192:208,1,173
240,332,70662,1,8,0:0:0
276,252,70836,2,0,B|184:284|96:252,1,173
52,128,71356,5,8,0:0:0
120,180,71529,2,0,B|212:168|288:108,1,173
304,80,71963,1,0,0:0:0
348,72,72050,2,0,B|420:128|448:224,1,173,8|0,0:0|0:0,0:0:0
336,348,72743,1,8,0:0:0
252,196,73090,1,2,0:0:0
252,196,73264,2,0,B|180:252|96:268,1,173,2|0,0:0|0:0,0:0:0
140,100,73957,5,0,0:0:0
212,52,74131,1,8,0:0:0
292,84,74304,1,0,0:0:0
368,124,74477,2,0,B|368:216,1,86.5,4|0,0:0|0:0,0:0:0
368,297,74824,1,8,0:0:0
194,297,75171,2,0,B|110:249|62:165,1,173,2|8,0:0|0:0,0:0:0
188,104,75691,2,0,B|272:152|320:236,1,173
292,308,76212,1,8,0:0:0
168,188,76558,6,0,B|248:148|336:136,1,173,2|8,0:0|0:0,0:0:0
168,188,77252,2,0,B|179:272|219:352,1,173,4|8,0:0|0:0,0:0:0
392,160,77772,1,0,0:0:0
260,204,77946,1,0,0:0:0
300,336,78119,1,0,0:0:0
432,292,78293,1,8,0:0:0
232,100,78639,2,0,B|304:36|396:48,1,173,0|8,0:0|0:0,0:0:0
156,192,79333,5,0,0:0:0
400,324,79680,1,8,0:0:0
124,320,80027,2,0,B|48:272|16:172,1,173,2|8,0:0|0:0,0:0:0
280,92,80720,5,0,0:0:0
208,44,80894,1,0,0:0:0
136,92,81067,1,2,0:0:0
208,140,81240,1,0,0:0:0
340,224,81414,5,4,0:0:0
208,304,81587,1,4,0:0:0
72,224,81761,1,4,0:0:0
364,72,82108,5,2,0:0:0
364,88,82194,1,0,0:0:0
364,104,82281,1,0,0:0:0
364,120,82368,1,0,0:0:0
364,136,82454,1,2,0:0:0
364,152,82541,1,0,0:0:0
364,168,82628,1,0,0:0:0
364,184,82714,1,0,0:0:0
364,200,82801,6,0,B|336:268|284:296|220:320,1,173,4|8,0:0|0:0,0:0:0
104,204,83495,1,0,0:0:0
104,204,83668,2,0,B|156:128|252:116,1,173,0|0,0:0|0:0,0:0:0
329,145,84188,2,0,B|329:325,1,173,0|8,0:0|0:0,0:0:0
156,308,84882,6,0,B|80:232|60:140,1,173,0|8,0:0|0:0,0:0:0
180,32,85576,2,0,B|180:212,1,173,2|8,0:0|0:0,0:0:0
332,32,86269,2,0,B|332:212,1,173,0|8,0:0|0:0,0:0:0
356,308,86876,1,0,0:0:0
356,308,86963,2,0,B|432:232|452:140,1,173,2|8,0:0|0:0,0:0:0
276,132,87657,5,0,0:0:0
200,92,87830,1,0,0:0:0
115,82,88003,1,8,0:0:0
58,146,88177,1,0,0:0:0
32,228,88350,2,0,B|104:281|193:279,1,173,4|8,0:0|0:0,0:0:0
236,132,89044,5,0,0:0:0
312,92,89217,1,0,0:0:0
397,82,89390,1,8,0:0:0
454,146,89564,1,0,0:0:0
480,228,89737,2,0,B|408:281|319:279,1,173,2|8,0:0|0:0,0:0:0
344,196,90258,2,0,B|244:196|172:260,1,173,2|0,0:0|0:0,0:0:0
132,320,90778,5,8,0:0:0
64,200,90951,1,0,0:0:0
64,200,91125,2,0,B|116:136|204:100,1,173,0|8,0:0|0:0,0:0:0
316,232,91818,1,0,0:0:0
180,340,92165,2,0,B|220:168,1,173,8|4,0:0|0:0,0:0:0
240,88,92686,1,0,0:0:0
324,64,92859,1,8,0:0:0
304,148,93032,2,0,B|264:320,1,173,4|0,0:0|0:0,0:0:0
264,316,93466,1,0,0:0:0
264,316,93553,1,8,0:0:0
200,156,93899,6,0,B|100:132|44:72,1,173,4|8,0:0|0:0,0:0:0
128,232,94593,1,0,0:0:0
128,232,94766,2,0,B|228:256|284:316,1,173
360,344,95287,2,0,B|360:164,1,173,0|8,0:0|0:0,0:0:0
256,32,95980,5,0,0:0:0
256,204,96327,1,8,0:0:0
420,260,96674,2,0,B|320:284|260:352,1,173,2|8,0:0|0:0,0:0:0
140,224,97368,2,0,B|88:136|140:60,1,173,0|8,0:0|0:0,0:0:0
236,148,97975,1,0,0:0:0
236,148,98061,2,0,B|332:136|400:196,1,173,2|8,0:0|0:0,0:0:0
432,328,98581,1,0,0:0:0
400,248,98755,2,0,B|334:305|238:293,1,173,0|8,0:0|0:0,0:0:0
88,208,99449,6,0,B|172:176|232:92,1,173,2|8,0:0|0:0,0:0:0
380,28,100142,2,0,B|408:84|408:168,1,129.75,2|0,0:0|0:0,0:0:0
400,196,100489,1,8,0:0:0
276,316,100836,6,0,B|176:312|104:244,1,173,2|8,0:0|0:0,0:0:0
40,140,101356,2,0,B|96:64|192:56,1,173,2|0,0:0|0:0,0:0:0
268,84,101876,1,8,0:0:0
428,148,102223,2,0,B|380:228|276:268,1,173,4|8,0:0|0:0,0:0:0
228,208,102743,1,0,0:0:0
256,192,102917,12,4,104998,0:0:0
52,152,116096,6,0,B|84:92|148:68,1,129.749996133149,4|2,0:0|0:0,0:0:0
212,72,116616,1,0,0:0:0
336,112,116963,5,0,0:0:0
384,152,117136,1,0,0:0:0
404,216,117310,1,0,0:0:0
404,280,117483,2,0,B|328:272|280:316,1,129.749996133149,2|0,0:0|0:0,0:0:0
228,348,118003,2,0,B|156:340|100:268,1,129.749996133149,2|0,0:0|0:0,0:0:0
96,224,118524,1,0,0:0:0
96,224,118697,1,0,0:0:0
88,160,118870,6,0,B|136:112|208:104,1,129.749996133149,2|0,0:0|0:0,0:0:0
268,112,119391,1,2,0:0:0
328,136,119564,2,0,B|364:212,1,64.8749980665744,0|2,0:0|0:0,0:0:0
260,24,120258,6,0,B|156:132,1,129.749996133149,2|0,0:0|0:0,0:0:0
128,168,120778,1,2,0:0:0
104,228,120951,1,0,0:0:0
128,288,121125,5,0,0:0:0
184,320,121298,1,0,0:0:0
248,332,121472,1,0,0:0:0
312,320,121645,2,0,B|376:304|424:244,1,129.749996133149,2|0,0:0|0:0,0:0:0
418,250,122165,1,2,0:0:0
418,250,122339,1,0,0:0:0
388,124,122686,6,0,B|364:184|300:228,1,129.749996133149,0|2,0:0|0:0,0:0:0
244,240,123206,2,0,B|176:228|124:168,1,129.749996133149
132,177,123726,1,0,0:0:0
256,28,124246,5,0,0:0:0
256,92,124420,2,0,B|316:112|368:184,1,129.749996133149,2|0,0:0|0:0,0:0:0
256,252,125113,2,0,B|196:272|144:344,1,129.749996133149,2|0,0:0|0:0,0:0:0
260,256,125807,5,2,0:0:0
260,256,125980,2,0,B|320:236|372:164,1,129.749996133149
376,112,126501,2,0,B|412:120|444:104,2,64.8749980665744,0|0|8,0:0|0:0|0:0,0:0:0
212,52,127194,2,0,B|120:76|64:152,1,173,4|8,0:0|0:0,0:0:0
232,208,127888,5,0,0:0:0
280,136,128061,1,0,0:0:0
352,184,128235,1,8,0:0:0
304,256,128408,1,0,0:0:0
228,296,128581,2,0,B|140:276|92:184,1,173,0|8,0:0|0:0,0:0:0
128,112,129102,1,0,0:0:0
200,160,129275,2,0,B|236:132|260:88,1,86.5
300,20,129622,1,8,0:0:0
436,128,129969,6,0,B|384:132|356:172,1,86.5
316,240,130316,1,8,0:0:0
268,312,130489,1,0,0:0:0
236,320,130576,1,0,0:0:0
200,320,130662,2,0,B|152:300|132:260,1,86.5
220,44,131009,1,8,0:0:0
188,180,131183,1,0,0:0:0
144,48,131356,6,0,B|68:88|68:88|18:159,1,173,0|8,0:0|0:0,0:0:0
67,289,131876,1,0,0:0:0
148,176,132050,1,0,0:0:0
200,304,132223,1,0,0:0:0
88,220,132397,1,8,0:0:0
178,73,132570,5,0,0:0:0
200,47,132657,1,0,0:0:0
230,30,132743,2,0,B|310:14|401:47,1,173,4|8,0:0|0:0,0:0:0
300,268,133437,1,0,0:0:0
372,316,133610,1,0,0:0:0
424,248,133784,6,0,B|416:160|376:72,1,173,8|4,0:0|0:0,0:0:0
280,240,134304,1,0,0:0:0
244,108,134477,1,8,0:0:0
162,318,134651,2,0,B|136:236|135:148,1,173,4|0,0:0|0:0,0:0:0
168,68,135171,1,8,0:0:0
162,318,135344,5,0,0:0:0
84,80,135518,2,0,B|40:152|36:260,1,173,4|8,0:0|0:0,0:0:0
200,188,136212,2,0,B|292:192|352:272,1,173,0|8,0:0|0:0,0:0:0
372,96,136905,5,0,0:0:0
444,144,137079,2,0,B|444:248,1,86.5,0|8,0:0|0:0,0:0:0
388,296,137425,1,0,0:0:0
360,316,137512,1,0,0:0:0
328,328,137599,2,0,B|232:328,1,86.5
164,288,137946,5,8,0:0:0
132,272,138032,1,0,0:0:0
104,252,138119,1,2,0:0:0
84,224,138206,1,0,0:0:0
68,196,138292,1,4,0:0:0
144,80,138466,6,0,B|224:76|328:108,1,173,0|0,0:0|0:0,0:0:0
144,80,138986,2,0,B|116:170|120:250,1,173,0|8,0:0|0:0,0:0:0
144,80,139506,2,0,B|256:228,1,173
300,288,140027,1,8,0:0:0
300,288,140200,1,0,0:0:0
436,180,140547,5,0,0:0:0
384,108,140720,1,8,0:0:0
300,84,140894,2,0,B|220:128|160:192,1,173
144,228,141327,1,0,0:0:0
128,268,141414,1,8,0:0:0
392,352,141761,1,0,0:0:0
392,75,142107,1,8,0:0:0
280,204,142454,1,2,0:0:0
192,204,142628,2,0,B|112:204|112:204|64:120,1,173
136,72,143148,1,0,0:0:0
218,45,143321,5,0,0:0:0
268,116,143495,1,8,0:0:0
356,116,143668,2,0,B|436:116|436:116|484:200,1,173
482,196,144188,1,8,0:0:0
352,312,144535,5,2,0:0:0
220,200,144882,1,8,0:0:0
220,200,145055,2,0,B|132:200|48:240,1,173
40,324,145576,1,8,0:0:0
212,304,145922,5,0,0:0:0
244,296,146009,1,0,0:0:0
276,284,146096,1,0,0:0:0
304,268,146183,1,0,0:0:0
328,244,146269,2,0,B|360:216|376:172,1,86.5,8|0,0:0|0:0,0:0:0
280,72,146616,2,0,B|179:87|123:139,1,173,4|8,0:0|0:0,0:0:0
76,212,147136,1,0,0:0:0
152,328,147310,5,0,0:0:0
152,240,147483,1,0,0:0:0
76,212,147657,1,8,0:0:0
176,72,148003,2,0,B|244:104|352:112,1,173,0|8,0:0|0:0,0:0:0
68,72,148697,5,0,0:0:0
220,304,149044,1,8,0:0:0
448,148,149391,2,0,B|412:240|324:280,1,173,2|8,0:0|0:0,0:0:0
252,252,149911,1,0,0:0:0
180,204,150084,1,0,0:0:0
132,132,150258,1,0,0:0:0
184,64,150432,1,8,0:0:0
256,16,150605,1,0,0:0:0
324,136,150778,5,4,0:0:0
448,232,150951,1,4,0:0:0
324,328,151125,1,4,0:0:0
256,168,151472,5,2,0:0:0
168,168,151645,1,0,0:0:0
148,168,151732,1,0,0:0:0
128,168,151818,1,2,0:0:0
108,168,151905,1,0,0:0:0
88,168,151992,1,0,0:0:0
68,168,152079,1,0,0:0:0
48,168,152165,6,0,B|20:260|44:340,1,173,4|8,0:0|0:0,0:0:0
204,272,152859,1,0,0:0:0
260,336,153032,1,0,0:0:0
316,268,153206,1,8,0:0:0
372,336,153379,1,0,0:0:0
424,268,153553,2,0,B|460:192|464:92,1,173,0|8,0:0|0:0,0:0:0
304,164,154246,6,0,B|212:164|128:112,1,173,0|8,0:0|0:0,0:0:0
296,44,154940,2,0,B|236:96|192:200,1,173,2|8,0:0|0:0,0:0:0
228,356,155633,1,0,0:0:0
312,340,155807,1,0,0:0:0
388,300,155980,1,8,0:0:0
452,240,156154,1,0,0:0:0
452,240,156240,1,0,0:0:0
452,240,156327,2,0,B|400:156|320:128,1,173,2|8,0:0|0:0,0:0:0
100,70,157021,5,0,0:0:0
100,156,157194,1,0,0:0:0
100,242,157368,1,8,0:0:0
152,310,157541,1,0,0:0:0
224,358,157714,2,0,B|224:170,1,173,4|8,0:0|0:0,0:0:0
412,314,158408,5,0,0:0:0
412,228,158581,1,0,0:0:0
412,142,158755,1,8,0:0:0
360,74,158928,1,0,0:0:0
288,26,159101,2,0,B|288:214,1,173,2|8,0:0|0:0,0:0:0
192,344,159622,2,0,B|192:172,1,173,2|0,0:0|0:0,0:0:0
192,84,160142,1,8,0:0:0
336,180,160316,5,0,0:0:0
336,180,160489,2,0,B|408:232|440:324,2,173,2|8|0,0:0|0:0|0:0,0:0:0
168,136,161529,1,8,0:0:0
84,288,161876,2,0,B|160:264|232:196,1,173,4|8,0:0|0:0,0:0:0
260,116,162396,2,0,B|346:74|426:74,1,173,4|0,0:0|0:0,0:0:0
488,136,162917,1,8,0:0:0
412,292,163264,6,0,B|332:320|240:324,1,173,4|8,0:0|0:0,0:0:0
104,220,163957,1,0,0:0:0
56,292,164131,1,0,0:0:0
24,212,164304,1,8,0:0:0
76,144,164477,1,0,0:0:0
160,160,164651,2,0,B|236:192|296:280,1,173,2|8,0:0|0:0,0:0:0
444,192,165344,5,0,0:0:0
272,192,165691,1,8,0:0:0
356,40,166038,2,0,B|356:224,1,173,2|8,0:0|0:0,0:0:0
248,76,166732,5,0,0:0:0
164,96,166905,1,0,0:0:0
92,144,167079,1,8,0:0:0
60,224,167252,1,0,0:0:0
60,260,167339,1,0,0:0:0
60,296,167425,2,0,B|236:360,1,173,2|8,0:0|0:0,0:0:0
272,284,167946,1,0,0:0:0
192,252,168119,2,0,B|268:88,1,173,0|8,0:0|0:0,0:0:0
432,48,168813,6,0,B|352:84|352:84|308:180,1,173,2|8,0:0|0:0,0:0:0
432,344,169506,2,0,B|352:308|352:308|328:260,1,129.75,2|0,0:0|0:0,0:0:0
316,232,169853,1,8,0:0:0
204,100,170200,6,0,B|112:116|56:200,1,173,2|8,0:0|0:0,0:0:0
128,312,170720,2,0,B|220:296|276:212,1,173,2|0,0:0|0:0,0:0:0
288,136,171240,1,8,0:0:0
148,36,171587,6,0,B|88:112|148:200,1,173,4|8,0:0|0:0,0:0:0
232,196,172107,1,0,0:0:0
320,192,172281,2,0,B|380:268|320:356,1,173,0|8,0:0|0:0,0:0:0
152,316,172975,5,0,0:0:0
128,292,173061,1,0,0:0:0
108,264,173148,1,0,0:0:0
88,236,173235,1,0,0:0:0
76,204,173321,2,0,B|32:204,3,43.25,8|0|0|0,0:0|0:0|0:0|0:0,0:0:0
84,168,173668,1,0,0:0:0
104,140,173755,1,0,0:0:0
124,112,173842,1,0,0:0:0
148,88,173928,1,0,0:0:0
180,76,174015,1,8,0:0:0
264,56,174188,6,0,B|344:24|344:24|436:64,1,173,4|0,0:0|0:0,0:0:0
448,84,174622,1,0,0:0:0
460,116,174709,1,8,0:0:0
472,148,174795,1,0,0:0:0
460,180,174882,1,0,0:0:0
448,212,174969,1,0,0:0:0
432,240,175055,2,0,B|384:208,3,43.25
364,204,175402,1,8,0:0:0
332,216,175489,1,0,0:0:0
312,244,175576,1,0,0:0:0
292,272,175662,1,0,0:0:0
260,284,175749,6,0,B|208:284,3,43.25
184,272,176096,1,8,0:0:0
164,244,176182,1,0,0:0:0
144,216,176269,1,0,0:0:0
112,204,176356,1,0,0:0:0
80,192,176443,1,0,0:0:0
60,164,176529,1,0,0:0:0
72,132,176616,1,0,0:0:0
84,100,176703,1,0,0:0:0
100,68,176790,1,8,0:0:0
180,36,176963,6,0,B|188:132|232:204,1,173,4|0,0:0|0:0,0:0:0
244,232,177396,1,0,0:0:0
264,260,177483,1,8,0:0:0
288,284,177570,1,0,0:0:0
316,304,177657,1,0,0:0:0
348,316,177743,1,0,0:0:0
372,292,177830,2,0,B|416:276,3,43.25
412,244,178177,2,0,B|444:208,3,43.25,8|0|0|0,0:0|0:0|0:0|0:0,0:0:0
416,188,178524,6,0,B|424:140,3,43.25
416,112,178871,1,8,0:0:0
396,84,178957,1,0,0:0:0
368,64,179044,1,0,0:0:0
336,52,179131,1,0,0:0:0
304,64,179217,1,0,0:0:0
276,84,179304,1,0,0:0:0
256,112,179390,1,0,0:0:0
248,144,179477,1,0,0:0:0
256,176,179563,1,8,0:0:0
184,56,179738,6,0,B|108:96|108:96|60:176,1,173,4|0,0:0|0:0,0:0:0
64,204,180171,1,0,0:0:0
76,236,180258,1,8,0:0:0
96,264,180344,1,0,0:0:0
124,284,180431,1,0,0:0:0
156,272,180518,1,0,0:0:0
176,244,180605,1,0,0:0:0
196,216,180691,1,0,0:0:0
228,204,180778,1,0,0:0:0
260,216,180865,1,0,0:0:0
280,244,180951,1,8,0:0:0
300,272,181038,1,0,0:0:0
332,284,181125,1,0,0:0:0
404,332,181298,6,0,B|444:308|468:260,1,86.5
392,220,181645,1,8,0:0:0
440,148,181818,1,0,0:0:0
440,148,181905,2,0,B|412:80|352:48,1,129.75,0|0,0:0|0:0,0:0:0
300,116,182339,5,2,0:0:0
272,136,182425,1,2,0:0:0
240,144,182512,1,2,0:0:0
208,136,182599,1,2,0:0:0
180,116,182685,1,4,0:0:0
256,192,193090,5,0,0:0:0
256,192,193437,1,0,0:0:0
124,80,193784,5,2,0:0:0
204,48,193957,1,0,0:0:0
292,52,194131,1,0,0:0:0
364,100,194304,1,0,0:0:0
420,164,194477,1,0,0:0:0
440,248,194651,1,0,0:0:0
408,328,194824,1,0,0:0:0
324,352,194998,2,0,B|236:356|160:300,1,173,2|0,0:0|0:0,0:0:0
148,216,195518,5,0,0:0:0
196,144,195691,1,0,0:0:0
284,140,195865,1,0,0:0:0
332,212,196038,1,0,0:0:0
276,276,196211,1,0,0:0:0
228,204,196385,1,0,0:0:0
284,140,196558,5,2,0:0:0
332,212,196732,1,0,0:0:0
276,276,196905,1,0,0:0:0
192,260,197079,1,0,0:0:0
160,180,197252,1,0,0:0:0
212,112,197425,1,0,0:0:0
288,72,197599,1,0,0:0:0
356,124,197772,1,0,0:0:0
404,196,197946,5,8,0:0:0
416,228,198032,1,8,0:0:0
424,260,198119,1,0,0:0:0
384,336,198292,1,0,0:0:0
312,288,198466,1,8,0:0:0
300,256,198552,1,8,0:0:0
292,224,198639,6,0,B|288:176|320:132,1,86.5
352,64,198986,1,8,0:0:0
272,32,199159,1,0,0:0:0
188,52,199333,2,0,B|128:104|92:200,1,173,4|8,0:0|0:0,0:0:0
184,344,200027,5,0,0:0:0
164,260,200200,1,0,0:0:0
184,176,200373,1,8,0:0:0
240,108,200547,1,0,0:0:0
292,176,200720,2,0,B|312:260|312:260|292:352,1,173,0|8,0:0|0:0,0:0:0
432,340,201240,2,0,B|412:256|412:256|432:164,1,173
456,88,201761,1,8,0:0:0
328,36,201934,5,0,0:0:0
328,36,202107,2,0,B|228:40|152:88,2,173,6|4|4,0:0|0:0|0:0,0:0:0
360,224,203148,1,4,0:0:0
324,136,203321,1,0,0:0:0
252,200,203495,2,0,B|272:240|272:288,2,86.5,4|0|8,0:0|0:0|0:0,0:0:0
172,164,204015,2,0,B|112:216|80:316,1,173,4|0,0:0|0:0,0:0:0
148,364,204535,1,8,0:0:0
308,300,204882,6,0,B|396:288|468:204,1,173,4|8,0:0|0:0,0:0:0
360,72,205576,1,0,0:0:0
360,160,205749,1,0,0:0:0
288,208,205922,2,0,B|288:116,1,86.5,8|0,0:0|0:0,0:0:0
288,36,206269,2,0,B|200:12|116:44,1,173,0|8,0:0|0:0,0:0:0
44,200,206963,6,0,B|88:136|196:104,1,173,0|8,0:0|0:0,0:0:0
156,276,207657,2,0,B|224:336|320:352,1,173,2|8,0:0|0:0,0:0:0
376,188,208350,2,0,B|328:116|328:20,1,173,0|8,0:0|0:0,0:0:0
500,20,209044,2,0,B|500:111|452:183,1,173,2|8,0:0|0:0,0:0:0
412,108,209564,1,0,0:0:0
352,168,209737,2,0,B|264:216|184:168,1,173,0|8,0:0|0:0,0:0:0
92,24,210431,6,0,B|28:84|28:180,1,173,2|8,0:0|0:0,0:0:0
132,320,211125,2,0,B|192:284|228:224,1,129.75,2|0,0:0|0:0,0:0:0
240,192,211472,1,8,0:0:0
76,136,211818,2,0,B|160:120|244:72,1,173,2|8,0:0|0:0,0:0:0
308,24,212339,2,0,B|368:80|400:188,1,173,2|0,0:0|0:0,0:0:0
376,256,212859,1,8,0:0:0
224,340,213206,6,0,B|284:284|316:176,1,173,4|8,0:0|0:0,0:0:0
280,112,213726,1,0,0:0:0
260,84,213813,1,0,0:0:0
232,64,213899,1,0,0:0:0
148,44,214073,1,0,0:0:0
76,92,214246,1,8,0:0:0
96,176,214420,6,0,B|152:240|240:272,1,173,4|0,0:0|0:0,0:0:0
324,260,214940,1,8,0:0:0
400,220,215113,1,0,0:0:0
428,200,215200,1,0,0:0:0
448,172,215287,1,0,0:0:0
480,92,215460,1,0,0:0:0
432,20,215633,1,8,0:0:0
296,128,215980,5,4,0:0:0
56,88,216674,2,0,B|164:88|164:88|128:164|104:224|104:328,1,346,2|0,0:0|0:0,0:0:0
364,88,218061,5,2,0:0:0
440,244,218408,1,0,0:0:0
288,328,218755,6,0,B|176:328|176:328|196:288|188:260,1,173,4|8,0:0|0:0,0:0:0
92,128,219448,2,0,B|204:128|204:128|184:168|192:196,1,173,8|8,0:0|0:0,0:0:0
92,332,220142,2,0,B|92:220|92:220|132:240|160:232,1,173,8|8,0:0|0:0,0:0:0
292,136,220835,2,0,B|292:248|292:248|252:228|224:236,1,173,8|8,0:0|0:0,0:0:0
224,60,221529,6,0,B|136:76|64:132,1,173,8|8,0:0|0:0,0:0:0
224,60,222223,2,0,B|312:76|384:132,1,173,8|8,0:0|0:0,0:0:0
224,60,222917,2,0,B|224:240,1,173,8|8,0:0|0:0,0:0:0
356,344,223610,5,8,0:0:0
272,192,223957,1,8,0:0:0
408,296,224304,1,8,0:0:0
272,192,224651,1,8,0:0:0
440,228,224998,1,8,0:0:0
272,192,225344,1,8,0:0:0
440,156,225691,5,8,0:0:0
272,192,226038,1,8,0:0:0
408,88,226385,1,8,0:0:0
272,192,226732,1,8,0:0:0
356,40,227079,6,0,B|256:48|184:88,1,173,12|8,0:0|0:0,0:0:0
64,204,227772,2,0,B|76:284|140:360,1,173,8|8,0:0|0:0,0:0:0
308,324,228466,2,0,B|372:256|400:160,1,173,12|8,0:0|0:0,0:0:0
348,104,228986,5,0,0:0:0
268,72,229159,1,8,0:0:0
196,120,229333,1,0,0:0:0
244,192,229506,1,8,0:0:0
268,220,229593,1,0,0:0:0
284,252,229680,1,0,0:0:0
284,288,229766,1,0,0:0:0
268,320,229853,6,0,B|184:360|76:352,1,173,4|8,0:0|0:0,0:0:0
164,192,230547,1,0,0:0:0
116,264,230720,2,0,B|72:196|76:88,1,173
160,76,231240,2,0,B|244:96|332:76,1,173,0|8,0:0|0:0,0:0:0
464,188,231934,6,0,B|376:228|336:308,1,173,0|8,0:0|0:0,0:0:0
228,168,232628,2,0,B|316:128|356:48,1,173,2|8,0:0|0:0,0:0:0
180,68,233321,2,0,B|92:108|52:188,1,173,0|8,0:0|0:0,0:0:0
172,240,233928,1,0,0:0:0
172,240,234015,2,0,B|209:314|297:354,1,173,2|8,0:0|0:0,0:0:0
364,300,234535,2,0,B|424:240|448:144,1,173
396,80,235055,5,8,0:0:0
372,56,235142,1,0,0:0:0
340,44,235229,1,0,0:0:0
308,56,235315,1,0,0:0:0
284,80,235402,2,0,B|284:256,1,173,2|8,0:0|0:0,0:0:0
164,324,236096,2,0,B|100:284|72:216,1,129.75,2|0,0:0|0:0,0:0:0
64,188,236443,2,0,B|112:104|200:60,1,173,8|2,0:0|0:0,0:0:0
352,112,237136,5,8,0:0:0
264,112,237310,2,0,B|292:188|372:248,1,173,2|0,0:0|0:0,0:0:0
452,272,237830,1,8,0:0:0
296,344,238177,2,0,B|208:320|140:240,1,173,2|8,0:0|0:0,0:0:0
256,116,238870,5,0,0:0:0
248,28,239044,1,0,0:0:0
176,80,239217,1,8,0:0:0
256,116,239391,2,0,B|352:144|408:216,1,173,4|0,0:0|0:0,0:0:0
384,292,239911,1,8,0:0:0
312,340,240084,1,0,0:0:0
240,292,240258,1,0,0:0:0
312,244,240431,5,2,0:0:0
312,244,240518,1,0,0:0:0
312,244,240605,1,2,0:0:0
312,244,240691,1,0,0:0:0
312,244,240778,1,0,0:0:0
256,176,240951,6,0,B|152:136|104:76,1,173,2|0,0:0|0:0,0:0:0
64,252,241645,2,0,B|196:252,1,129.75,2|0,0:0|0:0,0:0:0
236,252,241992,1,2,0:0:0
292,88,242339,2,0,B|364:112|424:200,1,173,2|0,0:0|0:0,0:0:0
420,284,242859,2,0,B|336:328|252:348,1,173
176,320,243379,1,2,0:0:0
32,224,243726,6,0,B|152:84,1,173,4|2,0:0|0:0,0:0:0
312,48,244420,2,0,B|380:120,1,86.5,0|2,0:0|0:0,0:0:0
380,144,244680,1,0,0:0:0
380,180,244766,1,2,0:0:0
380,216,244853,1,0,0:0:0
380,252,244940,1,4,0:0:0
256,192,245113,12,0,246500,0:0:0
