osu file format v9

[General]
AudioFilename: HELLO!!.mp3
AudioLeadIn: 0
PreviewTime: 82108
Countdown: 0
SampleSet: Soft
StackLeniency: 0.7
Mode: 0
LetterboxInBreaks: 1

[Editor]
DistanceSpacing: 1.2
BeatDivisor: 4
GridSize: 4

[Metadata]
Title:"HELLO!!"
Artist:Tomatsu Haruka, Hanazawa Kana, Sanpei Yuuko
Creator:mjw5150
Version:Easy
Source:THE IDOLM@STER Dearly Stars
Tags:Namco 876 Hinsvar

[Difficulty]
HPDrainRate:1
CircleSize:3
OverallDifficulty:2
ApproachRate:3
SliderMultiplier:0.7
SliderTickRate:1

[Events]
//Background and Video events
0,0,"BG879.jpg"
//Break Periods
2,27336,33847
2,105198,114656
2,182885,192344
//Storyboard Layer 0 (Background)
//Storyboard Layer 1 (Fail)
//Storyboard Layer 2 (Pass)
//Storyboard Layer 3 (Foreground)
//Storyboard Sound Samples
//Background Colour Transformations
3,100,163,162,255

[TimingPoints]
952,346.820566277592,4,2,1,70,1,0
82801,-100,4,2,1,70,0,1
104998,-100,4,2,1,70,0,0
117483,-100,4,2,1,60,0,0
127194,-100,4,2,1,70,0,0
152165,-100,4,2,1,70,0,1
174015,-100,4,2,1,70,0,0
199333,-100,4,2,1,70,0,1
215980,-100,4,2,1,70,0,0
229853,-100,4,2,1,70,0,1
246500,-100,4,2,1,5,0,0

[Colours]
Combo1 : 240,80,80
Combo2 : 171,252,203
Combo3 : 175,221,254
Combo4 : 249,254,186

[HitObjects]
180,268,16212,5,2
332,268,17599,1,2
332,116,18986,1,2
180,116,20373,1,2
312,192,21761,6,0,B|460:192,2,140,2|2|2
144,192,23842,1,2
192,124,24188,1,8
264,80,24535,2,0,B|316:60|372:80,1,105,4|0
256,192,25229,12,4,27136
212,88,35287,5,2
296,88,35634,2,0,B|368:96|420:168,2,140,4|0|0
332,252,37714,5,0
256,288,38061,1,8
172,288,38408,2,0,B|100:280|48:208,1,140
172,96,39795,6,0,B|172:204,2,105,4|4|8
248,60,41183,2,0,B|312:68|376:132,1,140,4|0
348,292,42570,6,0,B|332:220|276:172,1,140,4|0
196,192,43610,1,8
188,276,43957,2,0,B|116:276|60:220,1,140,4|0
128,68,45345,2,0,B|268:68,1,140,4|0
332,224,46732,6,0,B|368:236|396:272,2,70,4|8|0
256,188,47772,1,8
212,260,48119,2,0,B|136:268|88:204,1,140
72,124,49160,1,8
144,84,49506,6,0,B|220:76|268:140,2,140
116,248,51587,1,0
252,348,52281,6,0,B|320:324|360:260,1,140
336,180,53321,1,8
388,112,53668,2,0,B|456:132|496:208,2,140
304,112,55402,5,8
260,40,55749,2,0,B|220:56|200:92,1,70,0|8
240,160,56443,2,0,B|228:240|176:292,2,140,0|0|4
388,240,58524,5,0
324,296,58871,1,8
248,332,59217,2,0,B|172:348|108:308,1,140
68,240,60258,1,8
124,176,60605,6,0,B|180:128|252:128,1,140
304,288,61992,2,0,B|448:288,2,140,0|0|4
256,128,64073,5,0
220,204,64420,1,8
172,136,64766,2,0,B|116:140|68:160,1,105,4|4
212,312,66154,6,0,B|280:336|356:336,1,140,4|0
408,276,67194,1,8
344,220,67541,2,0,B|344:116,1,105
184,244,68928,6,0,B|108:240|40:200,1,140,4|0
108,144,69969,1,8
132,64,70316,2,0,B|172:76|188:116,1,70,0|8
212,188,71009,2,0,B|252:180|288:160,1,70,0|8
340,108,71703,6,0,B|484:108,2,140,0|0|2
340,192,73437,2,0,B|376:208|392:240,2,70,8|0|8
312,272,74477,6,0,B|276:288|260:324,1,70,4|8
216,248,75171,2,0,B|188:224|180:184,2,70,0|8|0
180,324,76212,1,8
112,276,76558,5,0
104,192,76905,1,8
140,116,77252,2,0,B|284:116,2,140,4|0|0
212,268,79333,5,0
288,304,79680,1,8
284,220,80027,2,0,B|324:160|332:88,1,140,2|0
252,64,81067,2,0,B|212:124|204:196,1,140,8|0
300,328,82801,6,0,B|444:328,2,140,4|0|0
256,256,84535,1,8
216,328,84882,6,0,B|76:328,1,140,0|2
152,176,86269,2,0,B|80:156|36:92,2,140,0|2|0
256,44,88350,5,4
256,212,89044,2,0,B|324:240|404:208,1,140
416,132,90084,2,0,B|416:96,1,35,8|0
208,124,91125,6,0,B|140:152|60:120,2,140,2|0|4
256,56,92859,2,0,B|304:56,1,35,8|4
364,252,93899,6,0,B|364:112,2,140,4|2|0
216,332,95980,5,0
172,260,96327,1,8
96,224,96674,2,0,B|96:84,2,140,2|0|2
248,152,98755,1,0
408,200,99449,6,0,B|408:280|380:336,1,140,2|2
248,232,100836,2,0,B|312:196|336:120,1,140,2|0
288,56,101876,1,8
208,80,102223,2,0,B|164:108|144:160,1,105,4|0
256,192,102917,12,4,104998
96,116,116096,6,0,B|240:116,1,140,4|0
172,272,117483,2,0,B|312:312,1,140,0|0
388,288,118524,1,2
448,232,118870,6,0,B|468:176|472:88,1,140,0|2
328,184,120258,2,0,B|260:184|184:156,1,140,0|2
76,36,121645,6,0,B|32:92|20:168,1,140
56,240,122686,1,2
136,216,123032,2,0,B|208:224|268:284,1,140
332,124,124420,6,0,B|368:192|332:260,1,140,0|2
272,316,125460,1,0
192,344,125807,2,0,B|120:324|72:264,1,140
36,196,126847,1,8
108,152,127194,6,0,B|252:152,1,140,4|0
292,224,128235,1,8
360,272,128581,2,0,B|424:140,1,140
376,76,129622,1,8
320,140,129969,6,0,B|252:144|184:104,1,140
28,48,131356,2,0,B|28:192,1,140
160,292,132743,6,0,B|232:296|296:332,1,140,4|0
364,284,133784,1,8
328,208,134131,2,0,B|272:216|216:192,1,105,4|4
360,36,135518,6,0,B|428:72|424:164,1,140,4|0
372,216,136558,1,8
328,288,136905,2,0,B|268:292|228:328,1,105
60,208,138292,6,0,B|28:148|20:64,1,140,4|0
104,88,139333,1,8
148,160,139680,2,0,B|220:168|288:116,1,140
324,52,140720,1,8
396,96,141067,6,0,B|448:132|484:216,1,140
412,256,142107,1,8
336,220,142454,2,0,B|276:224|228:188,2,105,2|0|8
328,136,143842,6,0,B|268:80|200:80,1,140,4|0
124,108,144882,1,8
168,180,145229,2,0,B|176:256|212:313,1,140
292,336,146269,1,8
336,264,146616,6,0,B|408:256|460:200,2,140,4|0|0
256,116,148697,5,0
184,72,149044,1,8
104,92,149391,2,0,B|72:156|80:232,1,140
160,204,150431,2,0,B|208:252|288:260,1,140,8|0
428,52,152165,6,0,B|348:52|288:104,1,140,4|0
248,164,153206,1,8
332,172,153553,2,0,B|380:224|392:300,1,140
320,340,154593,5,8
260,280,154940,2,0,B|116:280,2,140,2|0|2
260,196,156674,1,8
260,112,157021,6,0,B|200:65|136:49,1,140,0|4
80,208,158408,2,0,B|140:255|204:271,1,140
284,296,159448,2,0,B|324:296,1,35,8|0
464,144,160489,6,0,B|392:148|336:208,1,140
264,168,161529,1,8
300,92,161876,2,0,B|244:72|188:96,1,105,4|4
28,216,163264,6,0,B|56:276|132:328,1,140,4|0
204,328,164304,1,8
288,316,164651,2,0,B|352:272|380:212,1,140
404,132,165691,1,8
320,144,166038,6,0,B|256:104|224:40,2,140,2|0|0
256,300,168119,1,0
112,212,168813,6,0,B|172:148|232:212,1,140,2|2
400,212,170200,2,0,B|340:148|280:212,1,140,2|0
256,132,171240,1,8
180,96,171587,6,0,B|116:84|88:40,2,105,4|0|8
136,168,172975,2,0,B|144:240|120:312,1,140
192,352,174015,6,0,B|258:329|330:337,1,140,8|8
312,256,175055,2,0,B|376:220|404:148,1,140
340,96,176096,1,8
260,72,176443,1,0
216,144,176790,6,0,B|152:180|71:183,1,140,8|8
60,264,177830,2,0,B|120:296|196:284,2,140
24,188,179564,6,0,B|44:120|108:72,1,140,8|8
172,124,180605,2,0,B|188:160|216:180,1,70,0|8
272,240,181298,2,0,B|416:240,2,140,0|0|4
376,80,193784,6,0,B|304:104|272:176,1,140
416,264,195171,2,0,B|352:312|268:300,1,140
120,268,196558,6,0,B|176:232|200:148,1,140
336,60,197946,2,0,B|384:112|408:192,2,140,8|8|4
300,224,200027,6,0,B|156:224,1,140
84,188,201067,2,0,B|60:188|40:172,1,35,8|0
248,108,202107,6,0,B|320:120|396:100,1,140,6|4
452,156,203148,1,8
416,232,203495,2,0,B|364:256|344:304,1,105,4|4
164,196,204882,6,0,B|164:44,2,140,4|0|0
256,336,206963,6,0,B|388:256,1,140
332,192,208003,1,8
260,236,208350,2,0,B|220:228|192:196,1,70,0|8
116,216,209044,2,0,B|116:64,1,140,2|0
284,76,210431,6,0,B|424:76,1,140,2|2
424,244,211818,2,0,B|280:244,1,140,2|0
230,179,212859,1,8
160,132,213206,2,0,B|100:140|68:184,1,105,4|0
256,192,213899,12,0,215980
112,152,216674,6,0,B|152:92|224:68,1,140,2|0
400,232,218755,6,0,B|360:292|288:316,1,140,4|8
268,148,220142,2,0,B|128:148,1,140,8|8
268,240,221529,6,0,B|408:240,1,140,8|8
408,71,222917,2,0,B|336:88|296:159,2,140,8|8|8
408,239,224998,6,0,B|336:256|296:327,2,140,8|8|8
244,200,227079,2,0,B|180:168|144:100,1,140,8|8
212,52,228119,1,8
284,96,228466,2,0,B|332:120|352:176,1,105,8|0
220,336,229853,6,0,B|152:320|100:248,1,140,4|0
76,180,230894,1,8
52,100,231240,2,0,B|108:52|188:48,1,140
252,92,232281,1,8
196,156,232628,6,0,B|188:224|232:296,1,140,2|0
296,340,233668,1,8
364,288,234015,2,0,B|404:222|396:154,1,140
260,56,235402,6,0,B|132:120,1,140,2|2
134,286,236789,2,0,B|259:223,1,140,2|0
332,180,237830,1,8
408,144,238177,2,0,B|440:188|436:244,1,105,4|0
256,192,238870,12,2,240951
256,100,241645,5,2
416,152,242339,1,2
336,300,243032,2,0,B|304:312|264:312,1,70,2|8
184,324,243726,2,0,B|140:292|116:244,1,105,4|0
256,192,244420,12,0,246500
