osu file format v9

[General]
AudioFilename: motto.mp3
AudioLeadIn: 1000
PreviewTime: 55374
Countdown: 0
SampleSet: Soft
StackLeniency: 0.7
Mode: 0
LetterboxInBreaks: 0
StoryFireInFront: 0
CountdownOffset: 3

[Editor]
Bookmarks: 2074,16474,29274,37074,37674,38074,38474,42074,56474,69274,88474
DistanceSpacing: 1
BeatDivisor: 8
GridSize: 4

[Metadata]
Title:motto Hade ni ne! (TV Size)
Artist:Tomatsu Haruka
Creator:KayeSara
Version:Hard
Source:Kannagi
Tags:jojo Sumisola Joshua Lost

[Difficulty]
HPDrainRate:6
CircleSize:4
OverallDifficulty:5
ApproachRate:6
SliderMultiplier:0.7
SliderTickRate:1

[Events]
//Background and Video events
0,0,"BG3.jpg"
//Break Periods
//Storyboard Layer 0 (Background)
//Storyboard Layer 1 (Fail)
//Storyboard Layer 2 (Pass)
//Storyboard Layer 3 (Foreground)
Sprite,Foreground,Centre,"SB\1.png",320,240 F,0,16874,18074,0,1 M,0,16874,19674,479,424,366,424 S,0,16874,19674,0.5,1 F,0,18074,19674,1,0
Sprite,Foreground,Centre,"SB\2.png",320,240 F,0,20074,21274,0,1 M,0,20074,22874,479,424,366,424 S,0,20074,22874,0.5,1 F,0,21274,22074,1 F,0,22074,22874,1,0
Sprite,Foreground,Centre,"SB\3.png",320,240 F,0,23274,24474,0,1 S,0,23274,24474,0.5,1 M,0,23274,25674,479,424,366,424 S,0,24474,25274,1,1.05 F,0,24474,25674,1,0 S,0,25274,25674,1,0.7
Sprite,Foreground,Centre,"SB\4.png",320,240 M,0,25674,,426,424 F,0,25674,26074,0,1 S,0,25674,27274,0.6,1 F,0,26074,26874,1 F,0,26874,27274,1,0
Sprite,Foreground,Centre,"SB\5.png",320,240 M,0,29874,,473,422 F,0,29874,30274,0,1 S,0,29874,30274,0.78496,1 F,0,30274,30874,1 S,0,30274,30874,1 S,0,30874,30974,1,1.3 F,0,30874,32474,5 S,0,30974,31074,1.3,1 S,0,31074,31274,1 S,0,31274,31374,1,1.3 S,0,31374,31474,1.3,1 S,0,31474,31674,1 S,0,31674,32474,1 F,0,32474,32674,1,0 S,0,32474,32674,1,1.5
Sprite,Foreground,Centre,"SB\6.png",320,240 M,0,33074,33174,402,397,422,394 F,0,33074,33274,0,1 M,0,33174,33274,422,394,409,404 M,0,33274,35674,409,404,410,403 F,0,33274,35674,1 M,0,35674,36074,410,403,335,406 F,0,35674,36074,1,0
Sprite,Foreground,Centre,"SB\7.png",320,240 F,0,35874,36274,0,1 M,0,35874,36305,498,401,436,400 F,0,36274,40474,1 M,0,36305,40874,436,400,314,403 F,0,40474,40874,1,0
Sprite,Foreground,Centre,"SB\8.png",320,240 M,0,38874,,501,403 F,0,38874,39674,0,1 S,0,38874,41274,1,1.4096 F,0,39674,40474,1 F,0,40474,41274,1,0
Sprite,Foreground,Centre,"SB\9.png",320,240 M,0,41274,,422,378 S,0,41274,41374,1,1.12288 F,0,41274,42074,1 S,0,41374,41474,1.12288,1 S,0,41474,41674,1 S,0,41674,41774,1,1.21504 S,0,41774,41874,1.21504,1 S,0,41874,42074,1 F,0,42074,42274,1,0 S,0,42074,42274,1,1.4608
Sprite,Foreground,Centre,"SB\9a.png",320,240 M,0,42074,,424,377 S,0,42074,42174,1,1.18432 F,0,42074,45274,1 S,0,42174,42274,1.18432,1 S,0,42274,44474,1 S,0,44474,44574,1,1.118989 S,0,44574,44674,1.118989,1 S,0,44674,44874,1 S,0,44874,44974,1,1.118989 S,0,44974,45074,1.118989,1 S,0,45074,45274,1 F,0,45274,45474,1,0 S,0,45274,45474,1,1.271565
Sprite,Foreground,Centre,"SB\11.png",320,240 M,0,45274,,424,376 S,0,45274,45374,1,1.26624 F,0,45274,47674,1 S,0,45374,45474,1.26624,1 S,0,45474,46474,1 S,0,46474,47674,1 F,0,47674,48074,1,0 S,0,47674,48074,1,1.259268
Sprite,Foreground,Centre,"SB\12.png",320,240 M,0,46674,,481,407 S,0,46674,46774,1,1.39936 R,0,46674,46774,0,0.2252808 F,0,46674,47874,1 S,0,46774,46874,1.39936,1 R,0,46774,46874,0.2252808,0 R,0,46874,,0 S,0,46874,47874,1,1.035942 F,0,47874,48274,1,0 S,0,47874,48274,1.035942,1.547942
Sprite,Foreground,Centre,"SB\13.png",320,240 M,0,47874,,439,391 F,0,47874,48474,0,0.9142857 S,0,47874,54874,1,1.36864 F,0,48474,51674,0.9142857,1 F,1,51674,54874,1,0
Sprite,Foreground,Centre,"SB\14.png",320,240 M,0,51474,,438,391 F,0,51474,53274,0,1 S,0,51474,54874,1,1.41984 F,0,53274,54874,1 F,0,54874,55074,1,0 S,0,54874,55074,1.41984,1.900009
Sprite,Foreground,Centre,"SB\15.png",320,240 M,0,55474,55574,322,336,341,340 F,0,55474,57874,1 M,0,55574,55874,341,340 M,0,55874,55974,341,340,328,345 M,0,55974,56074,328,345 M,0,56074,56174,328,345,360,355 M,0,56174,56274,360,355,323,362 M,0,56274,,323,362 S,0,56474,56574,1,1.256 S,0,56574,56674,1.256,1 S,0,56674,56874,1 S,0,56874,56974,1,1.29952 S,0,56974,57074,1.29952,1 S,0,57074,57474,1 S,0,57474,57574,1,1.303923 S,0,57574,57674,1.303923,1 S,0,57674,57874,1 F,0,57874,58074,1,0 S,0,57874,58074,1,1.631603
Sprite,Foreground,Centre,"SB\16.png",320,240 M,0,56474,,330,392 S,0,56474,56574,1,1.36864 F,0,56474,58074,1 S,0,56574,56674,1.36864,1 S,0,56674,58074,1,1.033178 F,0,58074,58274,1,0 S,0,58074,58274,1.033178,1.575898
Sprite,Foreground,Centre,"SB\17.png",320,240 M,0,56874,,360,397 S,0,56874,56974,1,1.3072 F,0,56874,58074,1 S,0,56974,57074,1.3072,1 S,0,57074,58074,1,1.027648 F,0,58074,58274,1,0 S,0,58074,58274,1.027648,1.406528
Sprite,Foreground,Centre,"SB\18.png",320,240 M,0,57474,,392,390 S,0,57474,57574,1,1.38912 F,0,57474,58074,1 S,0,57574,57674,1.38912,1 S,0,57674,58074,1 F,0,58074,58274,1,0 S,0,58074,58274,1,1.54272
Sprite,Foreground,Centre,"SB\19.png",320,240 M,0,57874,,428,398 F,0,57874,58074,1 S,0,57874,58274,1,1.31744 F,0,58074,58274,1,0
Sprite,Foreground,Centre,"SB\19a.png",320,240 M,0,58674,,382,360 S,0,58674,58774,1,1.16384 F,0,58674,61674,1 S,0,58774,58874,1.16384,1 S,0,58874,59674,1 S,0,59674,59774,1,1.17408 S,0,59774,59874,1.17408,1 S,0,59874,60074,1 S,0,60074,60174,1,1.21504 S,0,60174,60274,1.21504,1 S,0,60274,60674,1 S,0,60674,60774,1,1.22528 S,0,60774,60874,1.22528,1 S,0,60874,61074,1 S,0,61074,61174,1,1.24576 S,0,61174,61274,1.24576,1 S,0,61274,61674,1 F,0,61674,61874,1,0 S,0,61674,61874,1,1.24576
Sprite,Foreground,Centre,"SB\16.png",320,240 L,3200,1 M,0,56474,,330,392 S,0,56474,56574,1,1.36864 F,0,56474,58074,1 S,0,56574,56674,1.36864,1 S,0,56674,58074,1,1.033178 F,0,58074,58274,1,0 S,0,58074,58274,1.033178,1.575898
Sprite,Foreground,Centre,"SB\17.png",320,240 L,3200,1 M,0,56874,,360,397 S,0,56874,56974,1,1.3072 F,0,56874,58074,1 S,0,56974,57074,1.3072,1 S,0,57074,58074,1,1.027648 F,0,58074,58274,1,0 S,0,58074,58274,1.027648,1.406528
Sprite,Foreground,Centre,"SB\18.png",320,240 L,3200,1 M,0,57474,,392,390 S,0,57474,57574,1,1.38912 F,0,57474,58074,1 S,0,57574,57674,1.38912,1 S,0,57674,58074,1 F,0,58074,58274,1,0 S,0,58074,58274,1,1.54272
Sprite,Foreground,Centre,"SB\19.png",320,240 L,3200,1 M,0,57874,,428,398 F,0,57874,58074,1 S,0,57874,58274,1,1.31744 F,0,58074,58274,1,0
Sprite,Foreground,Centre,"SB\21.png",320,240 F,0,61874,62674,0,1 M,0,61874,63274,470,388,376,386 S,0,61874,63274,1,1.19456 F,0,62674,63274,1,0
Sprite,Foreground,Centre,"SB\22.png",320,240 F,0,63274,63874,0,1 M,0,63274,64874,477,406,406,407 S,0,63274,64874,1,1.28672 F,0,63874,64174,1 F,0,64174,64874,1,0
Sprite,Foreground,Centre,"SB\23.png",320,240 M,0,64874,,480,393 F,0,64874,65274,0,1 S,0,64874,66474,1,1.23552 F,0,65274,65874,1 F,0,65874,66474,1,0
Sprite,Foreground,Centre,"SB\24.png",320,240 M,0,66474,,406,359 F,0,66474,66874,0,1 S,0,66474,68274,1,1.29696 F,0,66874,68274,1 F,0,68274,68474,1,0 S,0,68274,68474,1.29696,1.725555
Sprite,Foreground,Centre,"SB\25.png",320,240 M,0,68274,,365,359 S,0,68274,68374,1,1.27648 F,0,68274,71274,1 S,0,68374,68474,1.27648,1 S,0,68474,69274,1 S,0,69274,69374,1,1.16384 S,0,69374,69474,1.16384,1 S,0,69474,69674,1 S,0,69674,69774,1,1.21504 S,0,69774,69874,1.21504,1 S,0,69874,70274,1 S,0,70274,70374,1,1.19456 S,0,70374,70474,1.19456,1 S,0,70474,70674,1 S,0,70674,70774,1,1.2048 S,0,70774,70874,1.2048,1 S,0,70874,71274,1 F,0,71274,71474,1,0 S,0,71274,71474,1,1.321563
Sprite,Foreground,Centre,"SB\16.png",320,240 L,12800,1 M,0,56474,,330,392 S,0,56474,56574,1,1.36864 F,0,56474,58074,1 S,0,56574,56674,1.36864,1 S,0,56674,58074,1,1.033178 F,0,58074,58274,1,0 S,0,58074,58274,1.033178,1.575898
Sprite,Foreground,Centre,"SB\17.png",320,240 L,12800,1 M,0,56874,,360,397 S,0,56874,56974,1,1.3072 F,0,56874,58074,1 S,0,56974,57074,1.3072,1 S,0,57074,58074,1,1.027648 F,0,58074,58274,1,0 S,0,58074,58274,1.027648,1.406528
Sprite,Foreground,Centre,"SB\18.png",320,240 L,12800,1 M,0,57474,,392,390 S,0,57474,57574,1,1.38912 F,0,57474,58074,1 S,0,57574,57674,1.38912,1 S,0,57674,58074,1 F,0,58074,58274,1,0 S,0,58074,58274,1,1.54272
Sprite,Foreground,Centre,"SB\19.png",320,240 L,12800,1 M,0,57874,,428,398 F,0,57874,58074,1 S,0,57874,58274,1,1.31744 F,0,58074,58274,1,0
Sprite,Foreground,Centre,"SB\26.png",320,240 S,0,71474,71574,1,1.18432 M,0,71474,72474,364,359 S,0,71574,71674,1.18432,1 S,0,71674,72474,1 S,0,72474,72574,1,1.17408 S,0,72574,72674,1.17408,1 S,0,72674,72874,1 S,0,72874,72974,1,1.19456 S,0,72974,73074,1.19456,1 S,0,73074,74474,1 F,0,74474,74674,1,0 S,0,74474,74674,1,1.22528
Sprite,Foreground,Centre,"SB\18.png",320,240 M,0,73474,,383,390 S,0,73474,73574,1,1.23552 S,0,73574,73674,1.23552,1 F,0,74474,74675,1,0 S,0,74474,74675,1.021197,1.31744
Sprite,Foreground,Centre,"SB\19.png",320,240 M,0,73874,,423,393 S,0,73874,73974,1,1.2048 F,0,73874,74474,1 S,0,73974,74074,1.2048,1 S,0,74074,74474,1 F,0,74474,74674,1,0 S,0,74474,74674,1,1.34816
Sprite,Foreground,Centre,"SB\27.png",320,240 M,0,74674,,363,357 S,0,74674,74774,1,1.23552 F,0,74674,75674,1 S,0,74774,74874,1.23552,1 S,0,74874,75674,1 F,0,75674,75874,1,0 S,0,75674,75874,1,1.16384
Sprite,Foreground,Centre,"SB\28.png",320,240 M,0,76074,,440,387 S,0,76074,76174,1,1.27648 F,0,76074,77274,1 S,0,76174,76274,1.27648,1 S,0,76274,77274,1 F,0,77274,77474,1,0 S,0,77274,77474,1,1.332083
Sprite,Foreground,Centre,"SB\29.png",320,240 M,0,77474,,381,424 S,0,77474,77574,1,1.24576 F,0,77474,78874,1 S,0,77574,77674,1.24576,1 S,0,77674,78074,1 S,0,78074,78174,1,1.26624 S,0,78174,78274,1.26624,1 S,0,78274,78474,1 S,0,78474,78574,1,1.23552 S,0,78574,78674,1.23552,1 S,0,78674,78874,1 F,0,78874,79074,1,0 S,0,78874,79074,1,1.3584
Sprite,Foreground,Centre,"SB\29a.png",320,240 M,0,78474,,491,437 S,0,78474,78574,1,1.17408 S,0,78574,78674,1.17408,1 S,0,78674,78874,1 F,0,78874,80074,1 S,0,78874,80074,1,1.24576 F,0,80074,80274,1,0 S,0,80074,80274,1.24576,1.5632
Sprite,Foreground,Centre,"SB\31.png",320,240 M,0,80474,,403,387 F,0,80474,81074,0,1 S,0,80474,83274,1,1.21504 F,0,81074,83274,1 F,0,83274,83474,1,0 S,0,83274,83474,1.21504,1.54272
Sprite,Foreground,Centre,"SB\32.png",320,240 M,0,83674,,525,386 F,0,83674,84274,0,1 S,0,83674,84874,1,1.39936 F,0,84274,84874,1 F,0,84874,85074,1,0 S,0,84874,85074,1.39936,1.898125
Sprite,Foreground,Centre,"SB\33.png",320,240 M,0,85274,,433,368 S,0,85274,85374,1,1.04096 F,0,85274,87274,1 S,0,85374,85474,1.04096,1 S,0,85474,85674,1 S,0,85674,85774,1,1.04096 S,0,85774,85874,1.04096,1 S,0,85874,86274,1 S,0,86274,86374,1,1.04096 S,0,86374,86474,1.04096,1 S,0,86474,86674,1 S,0,86674,86774,1,1.04096 S,0,86774,86874,1.04096,1 S,0,86874,87274,1 F,0,87274,87474,1,0 S,0,87274,87474,1,1.12288
Sprite,Foreground,Centre,"SB\34.png",320,240 M,0,87474,,420,404 F,0,87474,88074,0,1 S,0,87474,90074,1,1.31744 F,0,88074,89274,1 F,0,89274,90074,1,0
//Storyboard Sound Samples
//Background Colour Transformations
3,100,128,255,255

[TimingPoints]
474,400,4,1,1,70,1,0
2074,-50,4,2,1,70,0,0
2374,-50,4,1,1,70,0,0
2574,-50,4,2,1,70,0,0
3174,-50,4,1,1,70,0,0
3374,-50,4,2,1,70,0,0
3974,-50,4,1,1,70,0,0
4174,-50,4,2,1,70,0,0
4274,-50,4,2,0,70,0,0
4574,-50,4,2,1,70,0,0
4824,-50,4,1,1,70,0,0
4924,-50,4,2,1,70,0,0
5574,-50,4,1,1,70,0,0
5774,-50,4,2,1,70,0,0
6374,-50,4,1,1,70,0,0
6574,-50,4,2,1,70,0,0
6974,-50,4,2,0,70,0,0
7174,-50,4,1,1,70,0,0
7374,-50,4,2,1,70,0,0
8024,-50,4,1,1,70,0,0
8124,-50,4,2,1,70,0,0
8374,-50,4,2,1,70,0,0
8774,-50,4,1,1,70,0,0
8974,-50,4,2,1,70,0,0
9174,-50,4,2,1,70,0,0
9374,-50,4,2,0,70,0,0
9624,-50,4,1,1,70,0,0
9724,-50,4,2,1,70,0,0
10474,-50,4,1,1,70,0,0
10574,-50,4,2,1,70,0,0
11174,-50,4,1,1,70,0,0
11374,-50,4,2,1,70,0,0
12024,-50,4,1,1,70,0,0
12124,-50,4,2,1,70,0,0
12824,-50,4,2,1,70,0,0
12924,-50,4,2,1,70,0,0
13624,-50,4,1,1,70,0,0
13724,-50,4,2,1,70,0,0
14424,-50,4,2,1,70,0,0
14824,-50,4,1,1,70,0,0
14974,-50,4,2,1,70,0,0
15224,-50,4,1,1,70,0,0
15324,-50,4,2,1,70,0,0
55474,-50,4,1,1,70,0,0
55824,-50,4,2,1,50,0,0
55924,-50,4,2,1,70,0,0
56424,-50,4,2,1,50,0,1
56524,-50,4,2,1,80,0,1
57424,-50,4,2,1,60,0,1
57524,-50,4,2,1,80,0,1
58624,-50,4,2,1,60,0,1
58724,-50,4,2,1,80,0,1
60024,-50,4,2,1,60,0,1
60124,-50,4,2,1,80,0,1
61024,-50,4,2,1,70,0,1
61124,-50,4,2,1,80,0,1
61824,-50,4,2,1,60,0,1
61924,-50,4,2,1,80,0,1
63224,-50,4,2,1,60,0,1
63324,-50,4,2,1,80,0,1
64024,-50,4,2,1,60,0,1
64124,-50,4,2,1,80,0,1
64824,-50,4,2,1,60,0,1
64924,-50,4,2,1,80,0,1
65624,-50,4,2,1,60,0,1
65724,-50,4,2,1,80,0,1
66424,-50,4,2,1,60,0,1
66524,-50,4,2,1,80,0,1
67224,-50,4,2,1,60,0,1
67324,-50,4,2,1,80,0,1
68024,-50,4,2,1,60,0,1
68124,-50,4,2,1,80,0,1
68824,-50,4,2,1,60,0,1
68924,-50,4,2,1,80,0,1
70024,-50,4,2,1,50,0,1
70124,-50,4,2,1,80,0,1
70624,-50,4,2,1,50,0,1
70724,-50,4,2,1,80,0,1
71424,-50,4,2,1,60,0,1
71524,-50,4,2,1,80,0,1
72424,-50,4,2,1,60,0,1
72524,-50,4,2,1,80,0,1
73424,-50,4,2,1,60,0,1
73524,-50,4,2,1,80,0,1
74624,-50,4,2,1,60,0,1
74724,-50,4,2,1,80,0,1
76024,-50,4,2,1,60,0,1
76124,-50,4,2,1,80,0,1
76824,-50,4,2,1,60,0,1
76924,-50,4,2,1,80,0,1
77624,-50,4,2,1,60,0,1
77724,-50,4,2,1,80,0,1
78424,-50,4,2,1,60,0,1
78524,-50,4,2,1,80,0,1
80024,-50,4,2,1,60,0,1
80124,-50,4,2,1,80,0,1
80824,-50,4,2,1,60,0,1
80924,-50,4,2,1,80,0,1
81624,-50,4,2,1,60,0,1
81724,-50,4,2,1,80,0,1
82424,-50,4,2,1,60,0,1
83224,-50,4,2,1,60,0,1
84024,-50,4,2,1,60,0,1
84824,-50,4,2,1,60,0,1
85624,-50,4,2,1,60,0,1
86624,-50,4,2,1,60,0,1
86874,-50,4,2,1,5,0,1
88474,-50,4,2,1,60,0,0

[Colours]
Combo1 : 245,155,56
Combo2 : 83,173,255
Combo3 : 210,106,255
Combo4 : 41,186,56
Combo5 : 254,119,112

[HitObjects]
56,80,2074,2,0,B|128:56|196:80,1,140
232,136,2674,1,0
164,144,2874,2,0,B|128:204,1,70,0|0
192,236,3274,2,0,B|156:296,1,70,0|0
316,240,3874,6,0,B|360:304,2,70,0|0|0
316,240,4474,1,0
316,100,4874,1,0
196,172,5274,5,0
196,172,5674,1,0
336,168,6074,2,0,B|424:168,2,70,0|0|0
268,168,6674,1,0
268,168,7074,5,0
216,120,7274,1,0
168,168,7474,1,0
120,116,7674,2,0,B|88:88,2,35
76,172,8074,6,0,B|36:196|44:236,1,70
104,264,8474,5,4
104,264,8874,2,0,B|268:264,1,140,0|0
312,264,9474,1,0
384,264,9674,1,0
384,264,9874,1,0
384,196,10074,6,0,B|356:128|284:96,1,140,0|0
244,152,10674,1,0
180,184,10874,2,0,B|196:228|244:228,1,70,0|0
288,268,11274,2,0,B|280:308|244:332,1,70,0|0
188,300,11674,2,0,B|124:264|88:196,3,140,0|0|0|4
180,92,13274,2,0,B|256:100|308:148,3,140,0|0|0|4
256,276,14874,6,0,B|176:276,2,70,0|0|0
296,216,15474,1,0
316,148,15674,1,0
380,112,15874,2,0,B|456:156|480:236,1,140,4|0
428,268,16474,1,8
428,268,16874,5,0
360,292,17074,1,0
304,248,17274,2,0,B|260:256|248:300,1,70,8|0
184,316,17674,2,0,B|144:300|128:256,1,70,0|0
88,216,18074,2,0,B|116:152|208:140,1,140,8|0
220,208,18674,2,0,B|296:208|348:148,1,140
364,84,19274,5,8
412,136,19474,1,0
364,84,19674,2,0,B|220:84,1,140,4|0
176,136,20274,5,0
136,192,20474,2,0,B|60:192,2,70,8|0|0
132,264,21074,2,0,B|216:264,1,70,8|0
220,196,21474,1,0
220,196,21674,1,8
144,180,21874,2,0,B|184:108|260:64,2,140,0|0|0
92,228,22874,2,0,B|112:308|196:348,1,140,4|0
232,300,23474,6,0,B|264:324|284:364,2,70,8|0|0
232,232,24074,1,8
232,164,24274,2,0,B|312:144|376:164,1,140
372,232,24874,2,0,B|412:232|456:232,1,70,8|0
468,168,25274,2,0,B|500:192|508:236,2,70,0|0|8
336,116,26074,5,0
196,116,26474,1,8
200,256,26874,1,0
256,300,27074,2,0,B|224:328,2,35,8|0|0
308,256,27474,2,0,B|352:204|352:124,1,140,2|0
256,24,28274,1,2
160,124,28674,2,0,B|256:180|364:116,1,210,2|4
256,300,29874,5,8
296,244,30074,2,0,B|328:224|328:184,1,70,0|8
292,124,30474,2,0,B|212:124,1,70,0|8
180,180,30874,2,0,B|180:220|200:248,2,70
248,196,31474,1,8
264,128,31674,6,0,B|256:96|268:52,3,70,0|4|0|0
200,40,32474,1,4
144,84,32674,1,0
100,140,32874,1,0
160,176,33074,1,0
228,188,33274,6,0,B|376:188,3,140,8|0|8|0
348,120,34674,1,0
368,52,34874,5,0
436,56,35074,1,0
460,120,35274,2,0,B|508:120,2,35,4|0|0
412,168,35674,1,4
444,304,36074,5,0
384,264,36274,2,0,B|316:248|244:268,1,140,8|0
128,192,37074,2,0,B|56:160|56:160|4:192,1,140,8|0
40,252,37674,1,8
148,340,38074,1,0
256,252,38474,1,8
256,192,38874,12,0,40874
256,192,41274,5,4
256,192,41674,1,4
256,192,42074,6,0,B|332:192,3,70,4|0|0|0
396,192,42874,2,0,B|428:264|396:332,1,140,8|0
328,328,43474,1,8
328,328,43874,1,0
260,304,44074,1,0
216,248,44274,1,0
240,184,44474,2,0,B|172:156|100:184,1,140,8|0
176,64,45274,5,0
176,64,45474,2,0,B|256:64,1,70,8|0
284,124,45874,2,0,B|496:124,1,210,0|8
472,192,46674,2,0,B|400:224|336:192,1,140
268,192,47274,1,0
268,192,47474,1,8
128,192,47874,6,0,B|60:192,2,70,0|8|0
128,192,48474,1,8
216,300,48874,2,0,B|376:300,1,140,0|8
444,192,49674,1,8
352,84,50074,2,0,B|264:84,1,70,0|8
312,148,50474,2,0,B|312:224,1,70,8|0
256,260,50874,2,0,B|188:284|112:260,1,140,8|0
116,120,51674,6,0,B|184:100|256:120,3,140,0|8|0|12
288,256,53274,1,0
356,256,53474,1,8
288,256,53674,2,0,B|208:256,1,70,8|0
148,256,54074,2,0,B|148:332,2,70,8|0|8
148,188,54674,2,0,B|248:152|356:188,1,210
420,212,55474,6,0,B|456:152|424:72,1,140,0|0
356,76,56074,2,0,B|280:76,1,70,0|0
220,100,56474,5,2
116,192,56874,1,0
116,192,57474,5,2
236,264,57874,1,0
424,60,58674,6,0,B|192:60,1,210,2|0
214,60,59474,1,0
176,120,59674,5,2
256,236,60074,1,2
256,236,60674,6,0,B|412:236,1,140,4|2
136,336,61874,6,0,B|72:300|48:228,1,140,2|0
48,160,62474,1,0
48,160,62674,1,2
256,120,63274,6,0,B|256:44,1,70,2|0
328,112,63674,2,0,B|384:72,1,70,8|0
396,148,64074,2,0,B|464:152,1,70,2|0
256,264,64874,6,0,B|256:340,1,70,2|0
328,272,65274,2,0,B|384:312,1,70,8|0
396,236,65674,2,0,B|464:232,1,70,2|0
256,192,66474,6,0,B|200:140,1,70,2|8
204,144,66874,2,0,B|132:144,1,70,8|0
84,192,67274,1,2
84,192,67474,1,8
124,252,67674,2,0,B|212:252,2,70,0|8|2
84,312,68274,2,0,B|152:352|220:316,1,140,8|0
256,260,68874,2,0,B|292:280,2,35,2|0|0
256,188,69274,5,4
256,188,69674,1,4
120,188,70074,1,2
120,120,70274,6,0,B|184:80|252:116,1,140,0|8
36,292,71474,6,0,B|88:344|168:344,1,140,2|8
212,296,72074,2,0,B|240:328,2,35
212,224,72474,5,2
256,92,72874,1,0
256,92,73474,5,2
276,160,73674,1,0
300,224,73874,1,8
80,60,74674,6,0,B|224:60,1,140,2|8
256,120,75274,2,0,B|336:120,1,70,0|8
164,252,76074,6,0,B|212:308,1,70,2|0
208,304,76474,2,0,B|276:324,1,70,8|0
276,324,76874,2,0,B|352:324,1,70,2|0
392,192,77474,5,0
348,136,77674,2,0,B|280:136,1,70,2|0
278,136,78074,2,0,B|188:136,1,70,8|0
208,136,78474,2,0,B|120:136,1,70,2|8
88,88,78874,1,0
88,296,79474,2,0,B|228:296,1,140,0|8
228,296,80074,1,2
384,232,80474,6,0,B|400:164|380:92,1,140,0|2
260,20,81274,2,0,B|236:88|264:156,1,140,0|2
160,252,82074,5,0
300,252,82474,1,2
160,252,82874,1,0
120,120,83274,1,6
256,96,83674,6,0,B|400:96,1,140,0|2
296,192,84474,2,0,B|128:192,1,140,0|6
172,332,85274,5,0
296,264,85674,1,2
296,264,86274,5,0
172,196,86674,1,2
256,192,86874,12,0,88474
