osu file format v13

[General]
AudioFilename: OP.mp3
AudioLeadIn: 0
PreviewTime: 50592
Countdown: 0
SampleSet: Soft
StackLeniency: 0.3
Mode: 0
LetterboxInBreaks: 0
WidescreenStoryboard: 0

[Editor]
DistanceSpacing: 0.9
BeatDivisor: 4
GridSize: 4
TimelineZoom: 1.4

[Metadata]
Title:courage
TitleUnicode:courage
Artist:Tomatsu Haruka
ArtistUnicode:戸松遥
Creator:xxdeathx
Version:Insane
Source:SWORD ART ONLINE II
Tags:ソードアート・オンラインⅡ sao 2nd season opening tv size calibur phantom bullet saoii sao2 yuuki asuna kirigaya kazuto kirito sinon shinon skystar amamiya yuko onijam iamkwan kibbleru Mother Rosario
BeatmapID:530822
BeatmapSetID:226289

[Difficulty]
HPDrainRate:7
CircleSize:4
OverallDifficulty:7.5
ApproachRate:8.8
SliderMultiplier:1.6
SliderTickRate:2

[Events]
//Background and Video events
0,0,"bg.jpg",0,0
Video,948,"OP.avi"
//Break Periods
//Storyboard Layer 0 (Background)
//Storyboard Layer 1 (Fail)
//Storyboard Layer 2 (Pass)
//Storyboard Layer 3 (Foreground)
//Storyboard Sound Samples
//Background Colour Transformations
3,100,163,162,255

[TimingPoints]
2455,306.122448979592,4,2,3,20,1,0
2455,-142.857142857143,4,2,3,25,0,0
7352,-142.857142857143,4,2,3,35,0,0
12250,-142.857142857143,4,2,3,40,0,0
20822,-100,4,2,3,50,0,0
22046,-100,4,2,3,60,0,0
34291,-100,4,2,3,50,0,0
36740,-100,4,2,3,60,0,0
39189,-100,4,2,3,50,0,0
41638,-100,4,2,3,60,0,0
44087,-83.3333333333333,4,2,3,60,0,0
45312,-100,4,2,3,60,0,0
50669,-142.857142857143,4,2,3,40,0,0
51434,-83.3333333333333,4,2,3,70,0,1
71026,-142.857142857143,4,2,3,50,0,0
75924,-100,4,2,3,50,0,0
80822,-83.3333333333333,4,2,3,70,0,1
89393,-100,4,2,3,50,0,0

[Colours]
Combo1 : 252,228,92
Combo2 : 63,85,163
Combo3 : 22,230,235
Combo4 : 231,66,48

[HitObjects]
392,68,2455,6,0,P|416:136|336:188,1,167.999994873047,2|2,0:0|0:0,0:0:0:0:
280,144,3526,1,2,0:0:0:0:
220,60,4291,2,0,L|92:56,1,111.999996582031,2|0,0:0|0:0,0:0:0:0:
176,184,4903,6,0,P|244:216|312:152,1,167.999994873047,2|2,0:0|0:0,0:0:0:0:
396,116,5822,1,0,0:0:0:0:
396,116,5975,2,0,P|396:172|404:244,1,111.999996582031,2|0,0:0|0:0,0:0:0:0:
456,176,6434,2,0,P|496:176|536:168,1,55.9999982910157,0|0,0:0|0:0,0:0:0:0:
320,168,6740,2,0,P|320:204|328:244,1,55.9999982910157
192,296,7046,1,0,0:0:0:0:
260,260,7199,1,0,0:0:0:0:
160,224,7352,6,0,P|48:264|28:372,2,223.999993164063,2|2|2,0:0|0:0|0:0,0:0:0:0:
188,240,9189,1,2,0:0:0:0:
348,136,9801,6,0,L|464:64,1,111.999996582031,2|0,0:0|0:0,0:0:0:0:
344,152,10261,2,0,L|460:80,1,111.999996582031,2|0,0:0|0:0,0:0:0:0:
340,168,10720,2,0,L|408:128,1,55.9999982910157,2|0,0:0|0:0,0:0:0:0:
348,256,11026,1,2,0:0:0:0:
452,164,11638,1,2,0:0:0:0:
360,72,12250,6,0,P|304:92|240:56,1,111.999996582031,2|0,0:0|0:0,0:0:0:0:
248,68,12863,1,2,0:0:0:0:
128,132,13322,2,0,P|100:128|52:132,2,55.9999982910157,2|0|0,0:0|0:0|0:0,0:0:0:0:
204,192,13934,2,0,B|208:248|208:248|152:296,1,111.999996582031,2|0,0:0|0:0,0:0:0:0:
216,296,14393,2,0,P|220:336|216:360,1,55.9999982910157
312,288,14699,6,0,P|368:312|384:368,1,111.999996582031,2|0,0:0|0:0,0:0:0:0:
312,360,15159,1,0,0:0:0:0:
304,212,15312,2,0,B|296:168|300:124|300:124|336:144,1,111.999996582031,2|0,0:0|0:0,0:0:0:0:
376,192,15771,1,0,0:0:0:0:
224,136,15924,1,0,0:0:0:0:
252,56,16077,2,0,P|296:40|368:72,1,111.999996582031,2|2,0:0|0:0,0:0:0:0:
224,136,16536,1,0,0:0:0:0:
136,96,16689,2,0,P|140:160|128:232,1,111.999996582031,2|0,0:0|0:0,0:0:0:0:
56,224,17148,6,0,P|140:276|136:344,2,167.999994873047,2|2|0,0:0|0:0|0:0,0:0:0:0:
192,280,18220,1,0,0:0:0:0:
216,184,18373,1,0,0:0:0:0:
304,244,18526,2,0,B|312:320|312:320|344:352,2,111.999996582031,2|0|2,0:0|0:0|0:0,0:0:0:0:
216,184,19597,6,0,L|232:360,1,167.999994873047,2|0,0:0|0:0,0:0:0:0:
132,176,20210,2,0,P|128:156|128:116,2,55.9999982910157,2|0|0,0:0|0:0|0:0,0:0:0:0:
180,252,20669,1,0,0:0:0:0:
312,140,20822,6,0,P|352:128|396:132,1,80,6|0,0:0|0:0,0:0:0:0:
264,64,21128,2,0,P|228:36|184:16,1,80,8|0,0:0|0:0,0:0:0:0:
208,128,21434,1,8,0:0:0:0:
336,24,21587,1,8,0:0:0:0:
352,248,21740,1,2,0:0:0:0:
156,48,22046,5,4,0:0:0:0:
180,252,22352,2,0,B|168:308|168:308|152:328,1,80,8|0,0:0|0:0,0:0:0:0:
48,220,22659,2,0,B|58:163|58:163|72:144,1,80
156,48,22965,1,8,0:0:0:0:
184,160,23118,1,0,0:0:0:0:
304,100,23271,5,2,0:0:0:0:
304,100,23424,2,0,L|400:68,1,80,0|8,0:0|0:0,0:0:0:0:
272,192,23730,2,0,L|368:160,1,80,0|0,0:0|0:0,0:0:0:0:
240,284,24036,2,0,L|336:252,1,80,0|8,0:0|0:0,0:0:0:0:
468,280,24342,6,0,P|472:324|456:372,2,80,4|0|0,0:0|0:0|0:0,0:0:0:0:
392,172,24801,1,8,0:0:0:0:
392,172,24955,1,0,0:0:0:0:
340,88,25108,2,0,L|368:-4,1,80
392,172,25414,1,8,0:0:0:0:
344,252,25567,1,0,0:0:0:0:
252,272,25720,5,2,0:0:0:0:
212,176,25873,2,0,P|260:172|324:176,1,80,0|8,0:0|0:0,0:0:0:0:
120,168,26179,2,0,P|108:120|112:80,1,80
3,212,26485,2,0,L|7:300,1,80,0|8,0:0|0:0,0:0:0:0:
264,364,26791,6,0,P|204:340|104:372,1,160,4|0,0:0|0:0,0:0:0:0:
40,260,27250,2,0,P|28:224|40:160,1,80,8|0,0:0|0:0,0:0:0:0:
120,100,27557,2,0,B|120:132|128:156|128:156|188:148|248:108,1,160,0|8,0:0|0:0,0:0:0:0:
232,48,28016,1,0,0:0:0:0:
312,160,28169,5,2,0:0:0:0:
224,208,28322,2,0,P|176:224|120:232,1,80,0|8,0:0|0:0,0:0:0:0:
228,288,28628,2,0,P|209:294|176:300,2,40,0|0|0,0:0|0:0|0:0,0:0:0:0:
312,160,28934,1,0,0:0:0:0:
392,256,29087,2,0,P|400:304|388:360,1,80,8|0,0:0|0:0,0:0:0:0:
312,160,29393,6,0,P|400:128|472:84,1,160,4|8,0:0|0:0,0:0:0:0:
236,80,29852,1,0,0:0:0:0:
144,168,30006,2,0,P|132:208|216:208,1,160,0|8,0:0|0:0,0:0:0:0:
248,328,30465,1,0,0:0:0:0:
104,240,30618,6,0,L|-4:220,1,80,4|0,0:0|0:0,0:0:0:0:
232,188,30924,2,0,L|336:176,1,80,8|0,0:0|0:0,0:0:0:0:
143,158,31230,1,0,3:0:0:0:
141,143,31306,1,0,3:0:0:0:
140,128,31383,1,0,3:0:0:0:
138,113,31459,1,0,3:0:0:0:
137,98,31536,1,0,3:0:0:0:
135,83,31612,1,0,3:0:0:0:
134,68,31689,1,0,3:0:0:0:
132,53,31765,1,0,3:0:0:0:
132,40,31842,6,0,B|248:48|248:48|304:8,1,160,4|8,0:0|0:0,0:0:0:0:
364,160,32301,2,0,P|296:188|240:120,1,160
228,28,32761,1,8,0:0:0:0:
28,300,33067,6,0,L|35:220,1,80,4|0,0:0|0:0,0:0:0:0:
139,93,33373,2,0,L|131:172,1,80,8|0,0:0|0:0,0:0:0:0:
204,348,33679,2,0,L|211:268,1,80
312,88,33985,2,0,L|304:167,1,80,8|0,0:0|0:0,0:0:0:0:
384,324,34291,5,2,0:0:0:0:
376,200,34444,1,0,0:0:0:0:
384,324,34597,2,0,B|440:328|440:328|472:320,1,80,0|0,3:0|0:0,0:0:0:0:
376,200,34903,2,0,B|348:192|348:192|288:192,1,80,8|0,0:0|0:0,0:0:0:0:
188,188,35210,1,0,3:0:0:0:
80,192,35363,2,0,B|24:200|24:200|4:216,2,80,2|0|0,0:0|0:0|0:0,0:0:0:0:
304,320,35975,5,4,0:0:0:0:
496,184,36281,1,4,0:0:0:0:
316,60,36587,1,8,0:0:0:0:
188,188,36740,6,0,P|240:236|336:224,1,160,4|8,0:0|0:0,0:0:0:0:
280,136,37199,2,0,L|244:300,1,160
156,328,37659,1,8,0:0:0:0:
96,104,37965,6,0,L|204:128,1,80,4|0,0:0|0:0,0:0:0:0:
328,204,38271,2,0,L|236:216,1,80,8|0,0:0|0:0,0:0:0:0:
136,256,38577,2,0,L|80:248,2,40,0|0|0,0:0|0:0|0:0,0:0:0:0:
228,360,38883,2,0,B|256:308|256:308|256:276,1,80,8|0,0:0|0:0,0:0:0:0:
256,116,39189,5,2,0:0:0:0:
228,200,39342,1,0,0:0:0:0:
344,156,39495,2,0,L|372:52,1,80,0|0,3:0|0:0,0:0:0:0:
408,287,39801,2,0,P|332:307|260:276,1,160,8|0,0:0|3:0,0:0:0:0:
188,328,40261,2,0,B|128:328|128:328|88:344,2,80,2|0|0,0:0|0:0|0:0,0:0:0:0:
152,160,40873,6,0,L|128:268,1,80,4|0,0:0|0:0,0:0:0:0:
236,248,41179,2,0,P|300:228|352:152,1,160,12|0,0:0|0:0,0:0:0:0:
400,84,41638,6,0,L|388:256,1,160,4|8,0:0|0:0,0:0:0:0:
512,360,42097,2,0,P|424:368|380:304,1,160
468,216,42557,2,0,L|460:328,1,80,8|0,0:0|0:0,0:0:0:0:
204,272,42863,6,0,L|304:260,1,80,2|0,0:0|0:0,0:0:0:0:
124,160,43169,2,0,L|216:168,1,80,8|0,0:0|0:0,0:0:0:0:
404,156,43475,2,0,L|312:164,1,80
448,260,43781,2,0,L|356:244,1,80,8|0,0:0|0:0,0:0:0:0:
136,276,44087,6,0,P|252:232|268:160,1,191.999994140625,4|8,0:0|0:0,0:0:0:0:
164,172,44546,1,0,0:0:0:0:
368,308,44699,2,0,P|324:192|252:176,1,191.999994140625,2|8,0:0|0:0,0:0:0:0:
164,172,45159,1,0,0:0:0:0:
28,80,45312,6,0,L|56:188,1,80,2|0,0:0|0:0,0:0:0:0:
132,20,45618,2,0,L|136:116,1,80,8|0,0:0|0:0,0:0:0:0:
76,300,45924,2,0,L|104:208,1,80
180,368,46230,2,0,L|188:256,1,80,8|0,0:0|0:0,0:0:0:0:
272,156,46536,6,0,B|164:176|164:176|112:144,2,160,4|8|0,0:0|0:0|0:0,0:0:0:0:
384,348,47455,2,0,P|401:312|403:272,1,80,8|0,0:0|0:0,0:0:0:0:
252,256,47761,6,0,B|268:276|268:276|352:292,1,80,2|0,0:0|0:0,0:0:0:0:
500,176,48067,2,0,B|476:164|476:164|400:180,1,80,8|0,0:0|0:0,0:0:0:0:
184,288,48373,2,0,B|196:272|196:272|200:200,1,80
16,260,48679,2,0,B|4:276|4:276|8:348,1,80,8|0,0:0|0:0,0:0:0:0:
136,108,48985,5,8,0:0:0:0:
136,108,49138,2,0,P|184:104|228:132,1,80,8|0,0:0|0:0,0:0:0:0:
368,232,49444,1,8,0:0:0:0:
368,232,49597,2,0,P|308:240|284:264,1,80,8|0,0:0|0:0,0:0:0:0:
156,328,49903,1,8,0:0:0:0:
156,328,50057,1,10,0:0:0:0:
256,88,50669,5,0,0:0:0:0:
256,88,50822,2,0,P|212:96|176:128,1,83.9999974365235,2|0,0:0|0:0,0:0:0:0:
200,160,51128,2,0,B|208:200|208:200|196:256,1,83.9999974365235,4|0,3:0|0:0,0:0:0:0:
180,288,51434,6,0,P|248:344|296:244,1,191.999994140625,4|8,0:0|0:0,0:0:0:0:
384,160,51893,2,0,P|392:208|384:272,1,95.9999970703126
332,64,52199,2,0,P|396:52|444:68,1,95.9999970703126,0|8,0:0|0:0,0:0:0:0:
296,156,52506,1,0,0:0:0:0:
212,36,52659,6,0,P|164:136|88:148,1,191.999994140625,2|8,0:0|0:0,0:0:0:0:
328,100,53271,2,0,P|276:116|220:92,1,95.9999970703126
108,52,53577,1,8,0:0:0:0:
108,192,53730,1,0,0:0:0:0:
108,192,53883,6,0,B|108:336|108:336|58:385,2,191.999994140625,2|8|0,0:0|0:0|0:0,0:0:0:0:
4,124,54648,1,0,0:0:0:0:
40,288,54801,2,0,P|128:308|212:240,1,191.999994140625,10|0,0:0|0:0,0:0:0:0:
172,156,55261,5,0,0:0:0:0:
296,232,55414,1,8,0:0:0:0:
220,348,55567,1,0,0:0:0:0:
220,348,55720,2,0,L|320:340,1,95.9999970703126
460,284,56026,2,0,B|348:268,1,95.9999970703126,8|0,0:0|0:0,0:0:0:0:
268,80,56332,6,0,B|244:156|244:156|248:192,1,95.9999970703126,4|0,0:0|0:0,0:0:0:0:
292,308,56638,1,8,0:0:0:0:
72,252,56791,2,0,P|128:244|180:260,1,95.9999970703126
292,308,57097,1,0,0:0:0:0:
244,168,57250,1,8,0:0:0:0:
160,48,57403,6,0,B|120:92|120:92|124:228,1,191.999994140625,2|0,0:0|0:0,0:0:0:0:
244,168,57863,2,0,P|192:184|152:168,1,95.9999970703126,8|0,0:0|0:0,0:0:0:0:
40,64,58169,2,0,L|44:192,1,95.9999970703126
200,340,58475,2,0,B|196:228,1,95.9999970703126,8|0,0:0|0:0,0:0:0:0:
8,224,58781,6,0,P|40:312|132:328,1,191.999994140625,2|8,0:0|0:0,0:0:0:0:
184,200,59240,2,0,B|172:224|172:224|96:236,1,95.9999970703126
228,124,59546,1,0,0:0:0:0:
268,232,59699,1,8,0:0:0:0:
312,80,59852,1,0,0:0:0:0:
356,248,60006,5,4,0:0:0:0:
356,248,60159,2,0,P|400:224|456:208,1,95.9999970703126,8|0,0:0|0:0,0:0:0:0:
404,108,60465,1,0,0:0:0:0:
404,108,60541,1,0,0:0:0:0:
404,108,60618,2,0,P|356:88|292:80,1,95.9999970703126,0|0,0:0|0:0,0:0:0:0:
164,56,60924,1,8,0:0:0:0:
80,116,61077,1,0,0:0:0:0:
172,160,61230,6,0,P|256:112|328:48,1,191.999994140625,4|8,0:0|0:0,0:0:0:0:
324,224,61689,1,0,0:0:0:0:
396,304,61842,2,0,L|500:312,1,95.9999970703126
228,260,62148,2,0,L|124:272,1,95.9999970703126,8|0,0:0|0:0,0:0:0:0:
280,360,62455,6,0,B|320:316|320:316|328:168,1,191.999994140625,2|8,0:0|0:0,0:0:0:0:
364,84,62914,1,0,0:0:0:0:
368,104,62990,1,0,0:0:0:0:
372,123,63067,2,0,P|328:136|264:132,1,95.9999970703126
160,104,63373,1,8,0:0:0:0:
272,32,63526,1,0,0:0:0:0:
272,208,63679,6,0,P|328:212|384:200,1,95.9999970703126,4|0,0:0|0:0,0:0:0:0:
456,148,63985,1,8,0:0:0:0:
240,144,64138,2,0,B|220:168|220:168|220:248,1,95.9999970703126
128,276,64444,2,0,L|128:160,1,95.9999970703126,0|8,0:0|0:0,0:0:0:0:
16,136,64750,1,0,0:0:0:0:
16,136,64903,6,0,B|36:156|36:156|36:264,1,95.9999970703126,2|0,0:0|0:0,0:0:0:0:
196,336,65210,2,0,P|144:364|96:360,1,95.9999970703126,8|0,0:0|0:0,0:0:0:0:
360,268,65516,2,0,B|316:264|316:264|260:288,1,95.9999970703126
460,336,65822,2,0,B|484:312|484:312|484:236,1,95.9999970703126,8|0,0:0|0:0,0:0:0:0:
320,112,66128,6,0,P|296:156|296:224,1,95.9999970703126,4|0,0:0|0:0,0:0:0:0:
408,64,66434,1,8,0:0:0:0:
460,152,66587,2,0,P|464:252|420:332,1,191.999994140625
252,256,67046,1,8,0:0:0:0:
184,120,67199,1,0,0:0:0:0:
212,112,67275,1,0,0:0:0:0:
236,104,67352,5,0,0:0:0:0:
112,216,67506,2,0,P|64:236|16:244,1,95.9999970703126,0|8,0:0|0:0,0:0:0:0:
252,256,67812,2,0,P|320:208|388:272,1,191.999994140625
192,192,68271,2,0,P|180:244|180:296,1,95.9999970703126,8|0,0:0|0:0,0:0:0:0:
340,136,68577,1,4,0:0:0:0:
120,56,69189,6,0,P|60:92|128:156,1,191.999994140625
340,136,69648,1,2,0:0:0:0:
340,136,69801,1,4,0:0:0:0:
144,336,70261,5,0,0:0:0:0:
144,336,70414,2,0,B|224:268|224:268|224:176,1,191.999994140625
236,72,71026,6,0,P|192:96|136:68,1,111.999996582031,2|0,0:0|0:0,0:0:0:0:
100,140,71485,2,0,B|140:172|140:172|140:232,1,111.999996582031,2|0,0:0|0:0,0:0:0:0:
140,304,71944,1,0,0:0:0:0:
76,268,72097,1,0,0:0:0:0:
208,256,72250,6,0,B|288:256|288:256|316:288,1,111.999996582031,2|0,0:0|0:0,0:0:0:0:
364,232,72710,1,0,0:0:0:0:
364,232,72863,2,0,P|380:292|344:344,1,111.999996582031,2|0,0:0|0:0,0:0:0:0:
308,280,73322,1,2,0:0:0:0:
308,280,73475,6,0,L|232:280,1,55.9999982910157,0|0,0:0|0:0,0:0:0:0:
184,352,73781,2,0,L|240:352,1,55.9999982910157
404,164,74240,1,0,0:0:0:0:
404,164,74393,2,0,L|472:164,2,55.9999982910157,2|0|0,0:0|0:0|0:0,0:0:0:0:
204,76,75159,5,0,0:0:0:0:
204,76,75312,2,0,L|204:200,1,111.999996582031,2|0,0:0|0:0,0:0:0:0:
152,292,75924,6,0,B|88:320|44:292|44:292|64:236,1,160,2|0,0:0|0:0,0:0:0:0:
132,168,76383,2,0,B|248:168|248:168|296:128,2,160,2|2|2,0:0|0:0|0:0,0:0:0:0:
208,88,77148,6,0,P|276:52|356:92,1,160,2|0,0:0|0:0,0:0:0:0:
352,292,77761,1,2,0:0:0:0:
476,128,78067,1,0,0:0:0:0:
248,156,78373,22,0,B|288:196|288:196|428:196,1,160,2|0,0:0|0:0,0:0:0:0:
336,108,78832,2,0,L|336:24,2,80,0|0|0,0:0|0:0|0:0,0:0:0:0:
264,236,79291,1,2,0:0:0:0:
336,296,79444,2,0,L|448:296,1,80,0|2,0:0|0:0,0:0:0:0:
192,260,79750,5,8,0:0:0:0:
248,332,79903,1,0,0:0:0:0:
48,300,80057,1,8,0:0:0:0:
168,332,80210,1,8,0:0:0:0:
100,360,80363,1,8,0:0:0:0:
116,272,80516,1,8,0:0:0:0:
132,184,80669,1,8,0:0:0:0:
156,76,80822,6,0,B|168:28|168:28|268:24|276:108,1,191.999994140625,4|8,0:0|0:0,0:0:0:0:
280,204,81281,1,0,0:0:0:0:
368,88,81434,2,0,P|316:84|260:108,1,95.9999970703126
408,192,81740,2,0,P|452:192|508:172,1,95.9999970703126,8|0,0:0|0:0,0:0:0:0:
280,204,82046,6,0,P|216:276|276:336,1,191.999994140625,2|8,0:0|0:0,0:0:0:0:
148,364,82506,1,0,0:0:0:0:
268,336,82659,2,0,P|316:328|362:333,1,95.9999970703126
216,260,82965,1,8,0:0:0:0:
148,364,83118,1,0,0:0:0:0:
40,264,83271,6,0,P|88:260|148:268,1,95.9999970703126,2|0,0:0|0:0,0:0:0:0:
28,176,83577,1,8,0:0:0:0:
116,96,83730,2,0,P|128:152|128:208,1,95.9999970703126
36,80,84036,1,0,0:0:0:0:
96,20,84189,1,8,0:0:0:0:
180,36,84342,1,0,0:0:0:0:
252,124,84495,6,0,B|348:88,1,95.9999970703126,2|0,0:0|0:0,0:0:0:0:
360,164,84801,2,0,B|456:128,1,95.9999970703126,8|0,0:0|0:0,0:0:0:0:
176,256,85108,2,0,B|279:266,1,95.9999970703126
274,342,85414,2,0,B|376:352,1,95.9999970703126,8|0,0:0|0:0,0:0:0:0:
64,324,85720,6,0,P|128:288|116:172,1,191.999994140625,4|8,0:0|0:0,0:0:0:0:
40,88,86179,1,0,0:0:0:0:
40,88,86332,2,0,B|88:96|88:96|160:84,1,95.9999970703126
256,40,86638,1,8,0:0:0:0:
256,40,86791,2,0,P|264:92|264:144,1,95.9999970703126
224,232,87097,5,0,0:0:0:0:
292,284,87250,1,8,0:0:0:0:
360,336,87403,1,0,0:0:0:0:
472,212,87557,2,0,P|416:208|356:216,1,95.9999970703126
152,192,87863,2,0,P|152:240|120:292,1,95.9999970703126,8|0,0:0|0:0,0:0:0:0:
28,352,88169,5,2,0:0:0:0:
92,40,88475,2,0,B|220:60,1,95.9999970703126,8|0,0:0|0:0,0:0:0:0:
308,36,88781,1,8,0:0:0:0:
232,304,89087,2,0,B|264:284|264:284|288:196,1,95.9999970703126,8|0,0:0|0:0,0:0:0:0:
308,36,89393,5,2,0:0:0:0:
308,36,89546,1,2,0:0:0:0:
352,304,89852,2,0,P|388:328|456:316,1,80,8|0,0:0|0:0,0:0:0:0:
413,163,90159,2,0,B|425:191|425:191|413:251,1,80,8|0,0:0|0:0,0:0:0:0:
