osu file format v14

[General]
AudioFilename: Sword_Art_Online_II-Courage_[2_OP_full_version].mp3
AudioLeadIn: 2000
PreviewTime: 128033
Countdown: 0
SampleSet: Normal
StackLeniency: 0.7
Mode: 0
LetterboxInBreaks: 1
WidescreenStoryboard: 0

[Editor]
Bookmarks: 68279
DistanceSpacing: 1
BeatDivisor: 2
GridSize: 4
TimelineZoom: 1.200006

[Metadata]
Title:courage
TitleUnicode:courage
Artist:Tomatsu Haruka
ArtistUnicode:戸松遥
Creator:monstrata
Version:Easy
Source:SWORD ART ONLINE II
Tags:ソードアート・オンラインⅡ SAO mothers rosario opening konno yuuki asuna
BeatmapID:581753
BeatmapSetID:251059

[Difficulty]
HPDrainRate:3
CircleSize:2
OverallDifficulty:2
ApproachRate:3
SliderMultiplier:0.6
SliderTickRate:1

[Events]
//Background and Video events
0,0,"sao234.png",0,0
//Break Periods
2,70164,78473
2,148513,151775
//Storyboard Layer 0 (Background)
//Storyboard Layer 1 (Fail)
//Storyboard Layer 2 (Pass)
//Storyboard Layer 3 (Foreground)
//Storyboard Sound Samples

[TimingPoints]
322,306.122448979592,4,1,1,100,1,0
1546,-100,4,2,1,60,0,0
3383,-100,4,2,1,60,0,0
19913,-100,4,1,1,35,0,0
21138,-100,4,1,0,60,0,0
21291,-100,4,1,1,50,0,0
28485,-100,4,2,0,80,0,0
28638,-100,4,1,1,50,0,0
29709,-100,4,2,0,80,0,0
30322,-100,4,1,1,50,0,0
30934,-100,4,2,0,80,0,0
31087,-100,4,1,1,50,0,0
43179,-100,4,2,1,80,0,0
43332,-100,4,1,1,50,0,0
44403,-100,4,2,1,80,0,0
44480,-100,4,1,1,50,0,0
48077,-100,4,1,1,50,0,0
50526,-100,4,1,0,80,0,1
50602,-100,4,1,1,50,0,1
69964,-100,4,1,1,35,0,0
79913,-100,4,2,1,60,0,0
80219,-100,4,1,1,40,0,0
82209,-100,4,1,1,50,0,0
87260,-100,4,1,1,50,0,0
89693,306.325137895812,4,1,1,50,1,0
99495,306.045137895812,4,1,1,63,1,0
117857,-100,4,1,1,40,0,0
119081,-100,4,2,1,75,0,0
123978,-100,4,1,1,50,0,0
126426,-100,4,1,1,50,0,0
128875,306.122448979592,4,1,1,50,1,1
148313,-100,4,1,1,50,0,0
148466,306.435137895812,4,1,1,50,1,0
158138,306.122448979592,4,1,0,60,1,0
159338,306.122448979592,4,1,0,60,1,0
159338,-99.403578528827,4,1,0,60,0,0
159491,306.122448979592,4,1,1,50,1,0
159491,-100,4,1,1,50,0,0
160562,-99.601593625498,4,1,0,60,0,0
160715,-100,4,1,1,50,0,0
161787,-100,4,1,0,60,0,0
161940,-100,4,1,1,50,0,0
168369,-100,4,1,1,50,0,0
172960,-100,4,1,0,50,0,0
173113,-100,4,1,1,50,0,0
174185,-100,4,1,0,50,0,0
174338,-100,4,1,1,50,0,0
175409,-100,4,1,0,50,0,0
175562,-100,4,1,1,50,0,0
176634,-100,4,1,0,50,0,0
176787,-100,4,1,1,50,0,0
185205,-100,4,1,1,50,0,0
187654,-100,4,2,1,50,0,0
195001,-100,4,1,1,50,0,0
195307,-100,4,1,1,50,0,0
195613,-100,4,1,1,50,0,0
197450,-100,4,1,0,60,0,0
197603,-100,4,1,1,50,0,0
206022,-100,4,1,0,60,0,0
207246,-100,4,1,0,50,0,1
207399,-100,4,1,1,50,0,1
209083,-100,4,1,1,50,0,1
209695,-100,4,1,1,35,0,1
209848,-100,4,1,1,50,0,1
210920,-100,4,1,1,50,0,1
211073,-100,4,1,1,50,0,1
211379,-100,4,1,1,50,0,1
224389,305.810397553517,4,1,1,50,1,1
227752,-100,4,1,1,50,0,1
229134,306.122448979592,4,1,1,50,1,0
229177,306.122448979592,4,1,1,50,1,0
230401,-102.040816326531,4,1,1,50,0,0
230554,279.06976744186,4,1,1,50,1,0
230833,270.27027027027,4,1,1,50,1,0
231103,315.789473684211,4,1,1,50,1,0
231576,-98.0392156862745,4,1,1,50,0,0
231891,306.122448979592,4,1,1,50,1,0
238931,344.827586206897,4,1,1,50,1,0
239275,-100,4,1,1,35,0,0
239965,306.122448979592,4,1,1,35,1,0
240424,295.566502463054,4,1,1,35,1,0
241015,285.714285714286,4,1,1,35,1,0
241586,306.122448979592,4,1,1,35,1,0
242351,315.789473684211,4,1,1,35,1,0
242824,375,4,1,1,35,1,0
243574,292.682926829268,4,1,1,35,1,0
243793,292.682926829268,4,1,1,35,1,0
244524,333.240766453763,4,1,1,70,1,0
245523,-100,4,1,0,30,0,0

[Colours]
Combo1 : 214,84,252
Combo2 : 106,220,253
Combo3 : 81,146,253
Combo4 : 253,57,116

[HitObjects]
335,191,1546,6,0,P|278:95|159:95,1,240,0|0,0:0|0:0,0:0:0:0:
220,194,3383,1,8,0:0:0:0:
165,296,3995,2,0,P|108:196|160:94,1,240
220,194,5832,1,8,0:0:0:0:
335,191,6444,6,0,P|275:295|159:295,2,240,0|0|0,0:0|0:0|0:0,0:0:0:0:
220,194,9505,1,8,0:0:0:0:
277,94,10117,2,0,P|310:120|335:198,2,120,2|8|0,0:0|0:0|0:0,0:0:0:0:
157,79,11954,5,0,0:0:0:0:
103,186,12566,2,0,P|127:242|183:266,1,120,0|0,0:0|0:0,0:0:0:0:
215,154,13791,2,0,P|266:182|295:238,1,120
411,214,15015,2,0,P|399:310|295:354,1,180,0|8,0:0|0:0,0:0:0:0:
274,355,16240,6,0,L|130:319,1,120,0|0,0:0|0:0,0:0:0:0:
38,331,17464,2,0,P|66:247|110:219,1,120,0|0,0:0|0:0,0:0:0:0:
131,120,18689,2,0,L|187:12,2,120,8|8|12,0:0|0:0|0:0,0:0:0:0:
144,238,20526,1,8,0:0:0:0:
240,166,21138,6,0,P|278:250|338:282,1,120,4|8,0:0|0:0,0:0:0:0:
418,266,22362,2,0,P|406:322|342:374,2,120,0|8|0,0:0|0:0|0:0,0:0:0:0:
372,154,24199,1,8,0:0:0:0:
252,156,24811,1,0,0:0:0:0:
132,158,25424,1,8,0:0:0:0:
44,76,26036,6,0,P|17:125|20:199,2,120,0|8|0,0:0|0:0|0:0,0:0:0:0:
148,16,27873,1,8,0:0:0:0:
224,110,28485,2,0,L|328:242,1,120,4|8,0:0|0:0,0:0:0:0:
376,294,29709,2,0,L|209:318,1,120,4|8,0:0|0:0,0:0:0:0:
140,333,30934,6,0,L|184:221,1,120,4|8,0:0|0:0,0:0:0:0:
160,98,32158,2,0,P|212:100|276:138,2,120,0|8|0,0:0|0:0|0:0,0:0:0:0:
184,222,33995,1,8,0:0:0:0:
104,314,34607,2,0,P|69:271|66:194,1,120,0|8,0:0|0:0,0:0:0:0:
134,112,35832,5,0,0:0:0:0:
184,222,36444,2,0,P|216:266|225:341,2,120,8|0|8,0:0|0:0|0:0,0:0:0:0:
92,145,38281,2,0,P|139:110|199:104,1,120,0|8,0:0|0:0,0:0:0:0:
305,154,39505,1,0,0:0:0:0:
411,204,40117,1,0,0:0:0:0:
371,317,40730,6,0,B|320:381|266:372,1,120,4|8,2:0|0:0,0:0:0:0:
172,303,41954,2,0,B|147:234|193:183,1,120,0|8,0:0|0:0,0:0:0:0:
296,139,43179,2,0,P|354:154|423:132,2,120,4|4|4,0:0|2:0|0:0,0:0:0:0:
197,70,45015,1,8,0:0:0:0:
77,74,45628,6,0,P|101:146|157:182,1,120,4|8,2:0|0:0,0:0:0:0:
189,194,46546,1,0,0:0:0:0:
245,214,46852,2,0,P|241:282|137:326,1,180,8|8,0:0|0:0,0:0:0:0:
93,306,48077,6,0,P|65:262|69:210,2,90,8|8|8,3:0|3:0|3:0,0:0:0:0:
328,127,50526,6,0,P|248:98|124:198,2,240,4|0|0,2:0|0:0|0:0,0:0:0:0:
248,226,53587,1,8,0:0:0:0:
168,322,54199,2,0,P|228:350|288:342,1,120,0|8,0:0|0:0,0:0:0:0:
367,257,55424,5,0,0:0:0:0:
248,226,56036,1,8,0:0:0:0:
133,188,56648,1,0,0:0:0:0:
133,68,57260,1,8,0:0:0:0:
248,30,57873,2,0,P|244:134|132:188,1,240,0|4,0:0|2:0,0:0:0:0:
28,248,59709,1,8,0:0:0:0:
144,276,60322,6,0,L|273:302,1,120,4|8,2:0|0:0,0:0:0:0:
328,194,61546,2,0,L|210:168,1,120,0|8,0:0|0:0,0:0:0:0:
97,144,62770,1,0,0:0:0:0:
20,234,63383,1,8,0:0:0:0:
104,318,63995,2,0,P|159:354|239:355,1,120,0|4,0:0|2:0,0:0:0:0:
306,277,65219,6,0,P|257:243|199:235,2,120,0|4|0,0:0|2:0|0:0,0:0:0:0:
211,360,67056,1,8,0:0:0:0:
96,307,67668,2,0,P|74:252|84:194,1,120,4|8,2:0|1:0,0:0:0:0:
109,78,68893,2,0,P|187:138|187:250,1,210,4|4,2:0|2:0,2:0:0:0:
388,315,79913,6,0,P|331:330|274:315,1,120,4|0,2:0|0:0,0:0:0:0:
158,284,81138,2,0,B|117:274|117:274|84:242|72:170|140:131,1,210,0|4,0:0|2:0,0:0:0:0:
216,178,82668,6,0,P|264:191|321:131,1,120,8|8,0:0|0:0,0:0:0:0:
300,93,83587,2,0,P|208:62|108:118,2,210,0|0|8,0:0|0:0|0:0,0:0:0:0:
285,151,86036,2,0,P|257:204|246:285,1,120,0|8,0:0|0:0,0:0:0:0:
338,338,87260,6,0,P|263:381|209:377,1,120,4|8,2:0|1:0,0:0:0:0:
137,300,88485,2,0,P|185:267|245:262,1,120,0|8,1:0|0:0,0:0:0:0:
338,338,89693,5,4,2:0:0:0:
370,222,90305,1,8,0:0:0:0:
398,106,90918,2,0,P|286:134|254:246,1,240
371,220,92756,1,8,0:0:0:0:
486,201,93368,2,0,P|449:310|338:338,1,240,0|4,0:0|2:0,0:0:0:0:
231,280,95206,5,8,0:0:0:0:
115,248,95819,2,0,P|150:188|219:160,1,120,0|8,0:0|0:0,0:0:0:0:
271,72,97044,2,0,P|308:128|309:196,1,120,0|8,0:0|0:0,0:0:0:0:
345,295,98270,2,0,P|276:295|216:248,1,120,8|8,0:0|0:0,0:0:0:0:
117,243,99495,6,0,P|193:158|312:180,2,240,8|0|4,0:0|0:0|2:0,0:0:0:0:
235,276,102555,1,8,0:0:0:0:
308,176,103167,1,0,0:0:0:0:
239,76,103779,1,8,0:0:0:0:
125,115,104391,6,0,B|77:231|169:231|121:351,2,240,0|0|4,0:0|0:0|2:0,0:0:0:0:
243,96,107452,1,8,0:0:0:0:
328,181,108064,1,0,0:0:0:0:
296,296,108676,1,8,0:0:0:0:
181,328,109288,6,0,L|83:227,1,120,4|8,2:0|0:0,0:0:0:0:
15,155,110512,2,0,L|151:120,1,120,0|8,0:0|0:0,0:0:0:0:
248,98,111736,2,0,L|209:233,1,120,4|8,2:0|0:0,0:0:0:0:
303,294,112960,2,0,P|192:329|100:256,1,240
151,149,114797,5,8,0:0:0:0:
40,100,115409,2,0,P|128:29|244:70,2,240,4|4|4,2:0|2:0|0:0,0:0:0:0:
155,309,119081,6,0,P|270:307|331:201,1,240,4|0,2:0|0:0,0:0:0:0:
209,199,120918,1,8,0:0:0:0:
184,77,121530,2,0,P|88:163|119:281,2,240,0|4|4,0:0|2:0|2:0,0:0:0:0:
209,199,124590,5,4,2:0:0:0:
305,127,125202,1,4,2:0:0:0:
413,176,125814,1,4,2:0:0:0:
316,246,126426,6,0,B|266:214|266:214|237:180,2,90,8|8|8,3:0|3:0|3:0,0:0:0:0:
316,246,128875,6,0,L|456:330,2,120,4|8|0,2:0|0:0|0:0,0:0:0:0:
216,182,130711,1,8,0:0:0:0:
112,242,131323,2,0,L|-30:321,2,120,0|8|0,0:0|0:0|0:0,0:0:0:0:
216,182,133160,1,8,0:0:0:0:
312,110,133772,6,0,P|211:57|112:120,2,240,4|0|0,2:0|0:0|0:0,0:0:0:0:
216,182,136834,1,8,0:0:0:0:
203,304,137446,2,0,P|269:294|320:245,1,120,0|8,0:0|0:0,0:0:0:0:
396,177,138670,6,0,P|405:118|388:60,1,120,4|8,2:0|0:0,0:0:0:0:
287,126,139895,2,0,P|230:141|171:132,1,120,0|8,0:0|0:0,0:0:0:0:
106,31,141119,2,0,P|166:13|245:36,2,120,0|8|4,0:0|0:0|2:0,0:0:0:0:
40,136,142956,1,8,0:0:0:0:
32,256,143568,6,0,B|83:255|135:227|151:174|151:174|297:192,1,300,4|8,2:0|0:0,0:0:0:0:
326,80,145711,2,0,L|179:63,1,120,8|0,0:0|0:0,0:0:0:0:
146,63,146630,1,4,2:0:0:0:
37,113,147242,2,0,P|110:176|222:153,1,210,0|4,0:0|2:0,0:0:0:0:
256,356,153215,6,0,B|340:352|340:352|408:376|408:376|512:368,2,240,8|8|4,0:0|0:0|2:0,0:0:0:0:
220,307,155973,2,0,B|164:310|164:310|92:279,1,120,8|0,0:0|0:0,0:0:0:0:
50,259,156892,2,0,B|43:198|43:198|80:152,1,120,4|0,2:0|0:0,0:0:0:0:
71,32,158138,6,0,P|147:56|185:125,1,150,4|0,2:0|0:0,0:0:0:0:
184,204,159338,2,0,P|224:265|295:287,1,150.750000575066,4|0,2:0|0:0,0:0:0:0:
384,288,160562,2,0,P|454:266|495:204,1,150.750000575066,4|0,2:0|0:0,0:0:0:0:
492,116,161787,2,0,B|452:94|452:94|403:94|403:94|353:69,1,150,4|8,2:0|0:0,0:0:0:0:
264,72,163011,6,0,B|216:68|189:112|189:112|121:112,1,150,4|0,2:0|0:0,0:0:0:0:
40,112,164236,2,0,B|40:148|62:177|86:191|86:191|86:245,1,150,4|0,2:0|0:0,0:0:0:0:
89,335,165460,2,0,B|125:335|154:313|168:289|168:289|222:289,1,150,4|0,2:0|0:0,0:0:0:0:
179,176,166838,2,8,L|135:51,2,120
232,220,168369,6,0,P|328:228|380:156,1,180,8|0,0:0|0:0,0:0:0:0:
420,128,169593,2,0,L|492:128,2,60,8|0|8,0:0|0:0|0:0,0:0:0:0:
364,122,170511,2,0,P|252:94|170:181,1,240
285,211,172348,1,8,0:0:0:0:
200,294,172960,6,0,L|68:278,1,120,4|8,0:0|0:0,0:0:0:0:
148,178,174185,2,0,L|227:71,1,120,4|8,0:0|0:0,0:0:0:0:
274,190,175409,2,0,L|326:312,2,120,4|8|4,1:0|0:0|0:0,0:0:0:0:
220,82,177246,1,8,0:0:0:0:
112,17,177858,6,0,P|101:132|194:206,2,240,0|0|4,0:0|0:0|2:0,0:0:0:0:
220,82,180920,1,4,2:0:0:0:
280,190,181532,2,0,P|320:230|328:310,1,120,4|4,2:0|2:0,0:0:0:0:
212,290,182756,6,0,P|157:304|84:271,1,120,4|8,2:0|0:0,0:0:0:0:
159,181,183981,2,0,P|173:126|238:79,2,120,0|0|4,0:0|0:0|2:0,0:0:0:0:
280,186,185818,1,8,0:0:0:0:
400,190,186430,1,4,2:0:0:0:
164,237,187654,6,0,P|116:209|85:152,1,120,0|0,0:0|0:0,0:0:0:0:
201,123,188879,2,0,P|229:75|286:44,1,120,0|0,0:0|0:0,0:0:0:0:
315,160,190103,2,0,P|363:188|394:245,1,120
278,274,191328,2,0,P|250:322|193:353,1,120,0|0,0:0|2:0,0:0:0:0:
164,233,192552,6,0,P|49:207|7:99,2,240,0|0|8,0:0|0:0|0:0,0:0:0:0:
272,182,195613,1,8,0:0:0:0:
284,62,196226,1,8,0:0:0:0:
176,10,196838,1,8,0:0:0:0:
86,102,197450,6,0,P|111:216|219:258,2,240,4|0|0,0:0|0:0|0:0,0:0:0:0:
208,132,200511,1,8,0:0:0:0:
322,169,201124,1,0,0:0:0:0:
322,289,201736,1,8,0:0:0:0:
204,312,202348,6,0,P|149:264|139:208,2,120,0|8|8,0:0|0:0|0:0,0:0:0:0:
323,320,204185,1,8,0:0:0:0:
364,207,204797,2,0,P|415:243|441:306,2,120,8|8|4,0:0|0:0|0:0,0:0:0:0:
364,207,207246,6,0,B|328:180|320:124|320:124|256:184|172:188,1,240,4|0,0:0|0:0,0:0:0:0:
104,264,209083,1,8,0:0:0:0:
28,171,209695,2,4,B|52:132|40:77|40:77|121:112|201:86,1,240,0|0,0:0|0:0,0:0:0:0:
292,136,211532,1,8,0:0:0:0:
395,81,212144,6,0,P|406:170|279:254,2,240,4|0|0,2:0|0:0|0:0,0:0:0:0:
292,136,215205,1,0,0:0:0:0:
204,216,215818,2,0,L|112:300,2,120,8|8|4,0:0|0:0|2:0,0:0:0:0:
292,136,217654,5,8,0:0:0:0:
320,256,218267,2,0,L|438:293,2,120,0|8|4,0:0|0:0|2:0,0:0:0:0:
204,216,220103,1,8,0:0:0:0:
293,131,220715,2,0,L|266:9,2,120,0|8|4,0:0|0:0|2:0,0:0:0:0:
408,116,222552,2,0,P|364:228|244:236,1,240,8|0,0:0|0:0,0:0:0:0:
296,132,224389,6,0,P|180:156|148:264,1,240,4|8,2:0|0:0,0:0:0:0:
264,244,226223,2,0,L|392:388,1,180,8|0,0:0|0:0,0:0:0:0:
472,298,227752,2,0,L|371:185,1,150
283,92,229177,6,0,B|237:57|237:57|194:44|147:77,1,150,4|8,2:0|1:0,0:0:0:0:
183,158,230401,2,0,B|227:208|227:208|329:207,1,165,4|0,2:0|0:0,0:0:0:0:
386,207,231576,2,0,B|423:293|354:355,1,150,4|0,2:0|0:0,0:0:0:0:
303,349,232656,2,0,L|213:349,1,90,0|8,0:0|0:0,0:0:0:0:
171,305,233421,2,0,L|107:305,2,60,8|8|8,0:0|0:0|0:0,0:0:0:0:
213,263,234339,6,0,P|309:205|287:95,1,240,4|8,2:0|0:0,0:0:0:0:
232,72,235870,2,0,L|163:47,1,60
116,41,236482,2,0,P|41:125|97:223,1,240,4|0,2:0|0:0,0:0:0:0:
153,244,238013,1,0,0:0:0:0:
209,260,238319,6,0,L|273:276,2,60,8|8|12,0:0|0:0|2:0,0:0:0:0:
256,192,239620,12,4,243793,0:0:0:0:
172,192,244524,6,0,P|255:219|339:192,1,180,4|0,2:0|0:0,0:0:0:0:
