osu file format v13

[General]
AudioFilename: courage.mp3
AudioLeadIn: 500
PreviewTime: 128953
Countdown: 0
SampleSet: Soft
StackLeniency: 0.7
Mode: 0
LetterboxInBreaks: 0
WidescreenStoryboard: 1

[Editor]
Bookmarks: 11325
DistanceSpacing: 1
BeatDivisor: 4
GridSize: 8
TimelineZoom: 0.6

[Metadata]
Title:courage
TitleUnicode:courage
Artist:Tomatsu Haruka
ArtistUnicode:戸松遥
Creator:handsome
Version:Easy
Source:SWORD ART ONLINE II
Tags:ソードアート・オンラインⅡ full version yuuki rosario asuna kirito
BeatmapID:573759
BeatmapSetID:243986

[Difficulty]
HPDrainRate:3
CircleSize:3
OverallDifficulty:3
ApproachRate:4
SliderMultiplier:0.5
SliderTickRate:1

[Events]
//Background and Video events
0,0,"bg.png",0,0
//Break Periods
2,71066,78636
2,149433,156851
2,188570,192148
//Storyboard Layer 0 (Background)
//Storyboard Layer 1 (Fail)
//Storyboard Layer 2 (Pass)
//Storyboard Layer 3 (Foreground)
//Storyboard Sound Samples

[TimingPoints]
1224,306.122448979592,4,2,0,35,1,0
12243,-100,4,2,0,40,0,0
22039,-100,4,1,0,50,0,0
31223,-100,4,1,0,55,0,0
48978,-100,4,1,0,40,0,0
51428,-100,4,1,0,75,0,1
59999,-100,4,1,0,75,0,0
61224,-100,4,1,0,75,0,1
70866,-100,4,1,0,55,0,0
80815,-100,4,1,0,40,0,0
83111,-100,4,1,0,50,0,0
90611,-100,4,1,0,40,0,0
100407,-100,4,1,0,50,0,0
110203,-100,4,1,0,55,0,0
118774,-100,4,1,0,50,0,0
119999,-100,4,2,0,30,0,0
124896,-100,4,1,0,40,0,0
125509,-100,4,1,0,45,0,0
126121,-100,4,1,0,50,0,0
127345,-100,4,1,0,40,0,0
129795,-100,4,1,0,75,0,1
138366,-100,4,1,0,75,0,0
139591,-100,4,1,0,75,0,1
149234,-100,4,2,0,40,0,0
159029,-100,4,1,0,50,0,0
193467,-100,4,2,0,40,0,0
197142,-100,4,1,0,40,0,0
200815,-100,4,1,0,50,0,0
205713,-100,4,1,0,60,0,0
208162,-100,4,1,0,50,0,0
217958,-100,4,1,0,75,0,1
230050,-100,4,1,0,50,0,0

[Colours]
Combo1 : 203,83,255
Combo2 : 255,176,89
Combo3 : 169,136,255
Combo4 : 249,134,96

[HitObjects]
194,194,2448,5,2,0:0:0:0:
194,194,4897,1,2,0:0:0:0:
208,240,7346,6,0,P|256:256|304:240,1,100,0|0,0:0|0:0,0:0:0:0:
304,144,8570,2,0,P|256:128|208:144,1,100,0|2,0:0|0:0,0:0:0:0:
136,216,9795,2,0,P|104:136|168:48,1,200,0|2,0:0|0:0,0:0:0:0:
256,80,11632,2,0,P|304:96|360:80,1,100,2|2,0:0|0:0,0:0:0:0:
400,92,12550,6,0,L|400:148,1,50,0|0,0:0|0:0,0:0:0:0:
400,244,13468,2,0,P|328:260|248:244,1,150,0|2,0:0|0:0,0:0:0:0:
208,220,14693,2,0,P|160:204|104:220,1,100,2|0,0:0|0:0,0:0:0:0:
31,272,15917,6,0,P|15:224|23:168,2,100,0|2|2,0:0|0:0|0:0,0:0:0:0:
113,329,17754,1,0,0:0:0:0:
207,295,18366,2,0,P|256:285|312:295,1,100,0|0,0:0|0:0,0:0:0:0:
399,329,19591,5,2,0:0:0:0:
481,272,20203,1,0,0:0:0:0:
492,172,20815,1,0,3:0:0:0:
438,87,21428,2,0,P|388:102|337:81,1,100,0|4,3:0|0:0,0:0:0:0:
256,38,22652,5,0,0:0:0:0:
167,86,23264,2,0,P|120:102|74:87,2,100,0|0|0,0:0|0:0|0:0,0:0:0:0:
256,132,25101,1,0,0:0:0:0:
344,177,25713,2,0,P|385:259|343:363,1,200,0|0,0:0|0:0,0:0:0:0:
256,320,27550,1,0,0:0:0:0:
160,350,28162,6,0,P|106:362|61:349,1,100,0|0,0:0|0:0,0:0:0:0:
5,269,29387,1,4,0:0:0:0:
50,180,29999,1,0,0:0:0:0:
103,264,30611,2,0,B|148:284|148:284|197:267,1,100,4|8,3:2|3:0,0:0:0:0:
285,221,31836,6,0,P|346:192|425:225,1,150,12|8,0:0|0:0,0:0:0:0:
415,269,33060,2,0,B|379:298|373:330|373:330|335:328|299:352,1,150,8|8,0:0|0:0,0:0:0:0:
252,348,34285,1,0,0:0:0:0:
171,289,34897,2,0,P|152:334|159:389,2,100,8|0|0,0:0|0:0|0:0,0:0:0:0:
245,222,36734,6,0,P|317:246|391:219,1,150,4|8,0:0|0:0,0:0:0:0:
411,181,37958,2,0,B|427:149|425:108|425:108|395:79|358:68,1,150,8|8,0:0|0:0,0:0:0:0:
311,65,39183,1,0,0:0:0:0:
224,115,39795,2,0,P|209:56|222:16,2,100,8|0|0,0:0|0:0|0:0,0:0:0:0:
146,178,41632,6,0,P|98:166|47:180,1,100,4|0,0:0|0:0,0:0:0:0:
2,266,42856,2,0,P|49:277|101:264,1,100,0|0,0:0|0:0,0:0:0:0:
197,257,44081,2,0,B|214:304|214:304|205:354,2,100,4|0|0,0:0|0:0|0:0,0:0:0:0:
170,160,45917,1,0,0:0:0:0:
258,112,46530,2,0,P|311:112|354:140,1,100,4|0,0:0|0:0,0:0:0:0:
374,179,47448,6,0,B|347:222|347:222|297:221|297:221|268:262|268:262|215:262,1,200,8|8,0:0|0:0,0:0:0:0:
173,242,48979,2,0,L|87:242,2,75,0|0|0,0:0|0:0|0:0,0:0:0:0:
272,271,51428,6,0,L|334:185,1,100,4|0,0:0|0:0,0:0:0:0:
292,97,52652,2,0,L|233:178,1,100,0|0,0:0|0:0,0:0:0:0:
176,260,53877,2,0,B|131:230|133:176|133:176|29:160,1,200,0|0,0:0|0:0,0:0:0:0:
1,65,55713,1,0,0:0:0:0:
97,40,56326,6,0,P|145:31|194:42,2,100,4|0|0,0:0|0:0|0:0,0:0:0:0:
17,100,58162,1,0,0:0:0:0:
87,171,58775,2,0,P|104:218|86:270,1,100,0|0,0:0|0:0,0:0:0:0:
1,220,59999,1,4,0:0:0:0:
1,122,60611,6,0,P|43:78|89:69,1,100,0|4,0:0|0:0,0:0:0:0:
172,105,61836,2,0,P|218:89|250:51,1,100,0|0,0:0|0:0,0:0:0:0:
338,3,63060,1,0,0:0:0:0:
419,60,63672,2,0,L|462:152,1,100,0|0,0:0|0:0,0:0:0:0:
446,248,64897,2,0,B|398:231|398:231|346:253,1,100,0|0,0:0|0:0,0:0:0:0:
269,304,66121,6,0,P|220:317|166:302,1,100,4|0,0:0|0:0,0:0:0:0:
121,219,67346,2,0,P|170:206|224:221,1,100,0|0,0:0|0:0,0:0:0:0:
297,275,68570,1,0,0:0:0:0:
391,307,69183,1,8,0:0:0:0:
476,255,69795,2,0,B|483:197|483:197|466:145|466:145|474:83,1,175,0|4,0:0|0:0,0:0:0:0:
256,192,80815,5,4,0:2:0:0:
256,192,83111,6,0,P|314:170|378:192,1,125,4|0,3:1|0:0,0:0:0:0:
397,284,84489,2,0,B|351:301|317:340|317:340|283:303|225:287,1,200,0|0,0:0|0:0,0:0:0:0:
138,251,86326,1,0,0:0:0:0:
87,164,86938,2,0,P|134:147|183:161,1,100,0|0,0:0|0:0,0:0:0:0:
268,207,88162,6,0,B|294:250|294:250|349:271,1,100,4|0,0:0|0:0,0:0:0:0:
437,242,89387,2,0,B|411:199|411:199|356:178,1,100,0|8,0:0|3:0,0:0:0:0:
270,146,90611,5,4,0:0:0:0:
204,70,91224,1,8,0:0:0:0:
123,128,91836,2,0,P|73:140|23:130,2,100,0|8|0,0:0|0:0|0:0,0:0:0:0:
204,70,93672,1,8,0:0:0:0:
298,103,94285,2,0,B|362:149|348:237|348:237|316:245|294:228,1,200,0|0,0:0|0:0,0:0:0:0:
219,174,96121,5,8,0:0:0:0:
127,132,96734,2,0,B|79:117|79:117|24:137,1,100,0|8,0:0|0:0,0:0:0:0:
85,218,97958,2,0,L|178:261,1,100,0|0,0:0|0:0,0:0:0:0:
256,318,99183,2,0,L|256:368,2,50,8|8|0,0:0|0:0|3:0,0:0:0:0:
336,259,100407,6,0,L|427:218,1,100,4|0,0:0|0:0,0:0:0:0:
480,133,101632,2,0,B|433:116|433:116|337:161,1,150,0|8,0:0|0:0,0:0:0:0:
292,153,102856,1,0,0:0:0:0:
202,108,103468,2,0,P|188:160|208:209,2,100,8|0|0,0:0|0:0|0:0,0:0:0:0:
283,49,105305,6,0,P|358:73|430:44,1,150,0|8,0:0|0:0,0:0:0:0:
468,70,106530,2,0,L|470:175,1,100,0|0,0:0|0:0,0:0:0:0:
385,222,107754,1,4,0:0:0:0:
297,270,108366,2,0,P|282:223|296:175,2,100,8|0|12,0:0|0:0|0:0,0:0:0:0:
239,351,110203,6,0,B|163:364|163:364|83:351,1,150,4|8,0:0|0:0,0:0:0:0:
53,319,111428,2,0,P|27:250|52:176,1,150,0|8,0:0|0:0,0:0:0:0:
88,149,112652,1,4,0:0:0:0:
173,200,113264,1,0,0:0:0:0:
256,144,113877,2,0,P|302:127|358:144,1,100,0|4,0:0|0:0,0:0:0:0:
309,230,115101,6,0,B|292:278|292:278|309:325,1,100,0|0,0:0|0:0,0:0:0:0:
408,325,116326,2,0,B|425:277|425:277|408:230,1,100,4|0,0:0|0:0,0:0:0:0:
358,145,117550,2,0,B|311:145|311:145|269:115|269:115|218:115|218:115|174:87,1,200,0|8,0:0|0:3,0:0:0:0:
126,282,119999,6,0,L|334:282,1,200,4|0,0:0|0:0,0:0:0:0:
504,191,122448,2,0,L|304:191,1,200,0|0,0:0|0:0,0:0:0:0:
170,42,124897,5,4,0:0:0:0:
70,34,125509,1,4,0:0:0:0:
30,122,126121,1,4,0:0:0:0:
104,189,126734,1,0,3:0:0:0:
190,139,127346,2,0,P|218:129|264:141,2,75,0|0|0,0:0|0:0|2:0,0:0:0:0:
374,309,129795,6,0,P|387:261|375:214,1,100,4|0,0:0|0:0,0:0:0:0:
305,141,131019,2,0,P|253:149|203:139,1,100,0|0,0:0|0:0,0:0:0:0:
137,214,132244,2,0,P|124:261|137:310,2,100,0|0|0,0:0|0:0|0:0,0:0:0:0:
225,262,134081,1,0,0:0:0:0:
313,214,134693,6,0,P|360:157|313:43,1,200,4|0,0:0|0:0,0:0:0:0:
262,129,136530,1,0,0:0:0:0:
185,193,137142,2,0,P|133:209|90:193,1,100,0|0,0:0|0:0,0:0:0:0:
135,106,138366,1,4,0:0:0:0:
235,106,138979,6,0,P|271:137|283:189,1,100,0|4,3:0|0:0,0:0:0:0:
339,269,140203,2,0,L|448:270,1,100,0|0,0:0|0:0,0:0:0:0:
499,190,141428,1,0,0:0:0:0:
446,105,142040,2,0,P|407:147|399:193,1,100,0|0,0:0|0:0,0:0:0:0:
367,284,143264,2,0,B|320:301|320:301|274:283,1,100,0|8,0:0|0:0,0:0:0:0:
190,227,144489,6,0,P|179:167|196:132,1,100,4|0,0:0|0:0,0:0:0:0:
285,91,145713,2,0,P|296:151|279:186,1,100,0|0,0:0|0:0,0:0:0:0:
202,247,146938,1,4,0:0:0:0:
113,200,147550,1,0,0:0:0:0:
164,114,148162,2,0,B|221:110|221:110|269:84|269:84|331:80,1,175,0|4,0:0|0:0,0:0:0:0:
91,283,159030,6,0,L|217:292,1,125,4|0,0:0|0:0,0:0:0:0:
290,289,160254,2,0,P|334:248|405:239,1,125,0|0,0:0|0:0,0:0:0:0:
470,228,161479,2,0,L|437:104,1,125,0|0,0:0|0:0,0:0:0:0:
387,52,162703,2,0,P|317:37|259:57,1,125,0|0,0:0|0:0,0:0:0:0:
204,93,163928,6,0,B|133:66|133:66|85:94,1,125,0|0,0:0|0:0,0:0:0:0:
70,163,165152,2,0,B|141:190|141:190|189:162,1,125,0|0,0:0|0:0,0:0:0:0:
243,120,166377,2,0,P|315:115|391:231,1,225,0|8,0:0|0:0,0:0:0:0:
370,303,168213,2,0,P|316:321|274:303,1,100,0|4,0:0|0:0,0:0:0:0:
233,245,169285,5,8,0:0:0:0:
169,167,169897,2,0,P|121:151|72:168,2,100,8|8|8,0:0|0:0|0:0,0:0:0:0:
209,196,171428,2,0,P|257:212|306:195,1,100,0|0,0:0|0:0,0:0:0:0:
372,126,172652,2,0,B|413:193|413:193|376:261,1,150,0|8,0:0|0:0,0:0:0:0:
304,323,174183,6,0,L|313:373,2,50,8|0|8,0:0|0:0|0:0,0:0:0:0:
239,246,175407,2,0,L|248:196,2,50,8|0|8,0:0|0:0|0:0,0:0:0:0:
202,279,176326,2,0,P|119:325|34:280,1,200,4|4,0:0|0:0,0:0:0:0:
117,225,178162,1,8,0:0:0:0:
206,180,178775,6,0,P|256:195|293:239,2,100,4|0|0,0:0|0:0|0:0,0:0:0:0:
119,129,180611,1,0,0:0:0:0:
182,51,181224,2,0,L|291:51,1,100,4|4,0:0|0:0,0:0:0:0:
372,92,182448,2,0,P|390:138|374:186,1,100,4|0,0:0|0:0,0:0:0:0:
277,207,183672,6,0,B|224:195|192:154|192:154|159:195|105:208,1,200,4|0,0:0|0:0,0:0:0:0:
191,266,185509,1,2,0:2:0:0:
284,301,186121,2,0,B|329:323|329:323|374:303|374:303|420:323|420:323|464:300,1,200,0|14,0:0|0:2,0:0:0:0:
256,192,193468,12,0,197142,0:0:0:0:
188,262,198366,6,0,L|294:281,1,100,4|0,0:2|0:0,0:0:0:0:
343,197,199591,2,0,L|237:178,1,100,0|0,0:0|0:0,0:0:0:0:
145,165,200815,2,0,P|96:175|61:215,1,100,0|0,0:0|0:0,0:0:0:0:
67,310,202040,2,0,P|116:300|151:260,1,100,0|0,0:0|0:0,0:0:0:0:
214,189,203264,6,0,P|266:177|315:189,1,100,8|8,0:0|0:0,0:0:0:0:
406,216,204489,2,0,P|450:195|468:143,1,100,8|8,0:0|0:0,0:0:0:0:
430,56,205713,5,0,0:0:0:0:
330,45,206326,2,0,P|286:66|268:118,1,100,8|6,0:3|0:2,0:0:0:0:
256,210,207550,1,0,0:0:0:0:
209,298,208162,6,0,P|257:313|306:296,2,100,4|8|0,0:0|0:0|0:0,0:0:0:0:
137,226,209999,1,8,0:0:0:0:
174,133,210611,2,0,P|257:85|340:133,1,200,0|0,0:0|0:0,0:0:0:0:
375,226,212448,1,8,0:0:0:0:
453,288,213060,6,0,L|481:392,2,100,0|8|2,0:0|0:0|0:2,0:0:0:0:
465,188,214897,1,8,0:0:0:0:
391,119,215509,2,0,P|341:106|292:121,1,100,2|10,0:2|0:2,0:0:0:0:
224,189,216734,1,8,0:0:0:0:
148,254,217346,6,0,P|100:266|52:253,1,100,0|4,3:0|0:0,0:0:0:0:
1,167,218570,2,0,B|29:125|29:125|79:115,1,100,0|0,0:0|0:0,0:0:0:0:
175,135,219795,1,0,0:0:0:0:
269,168,220407,6,0,P|346:212|442:161,1,200,4|0,0:0|0:0,0:0:0:0:
354,111,222244,1,0,0:0:0:0:
264,65,222856,2,0,P|213:77|181:117,1,100,4|0,0:0|0:0,0:0:0:0:
190,211,224081,2,0,P|241:199|273:159,1,100,0|0,0:0|0:0,0:0:0:0:
353,108,225305,5,12,0:0:0:0:
451,92,225917,1,8,0:0:0:0:
467,191,226530,1,8,0:3:0:0:
368,207,227142,1,6,0:2:0:0:
273,238,227754,2,0,L|219:258,2,50,0|0|0,0:0|0:0|0:0,0:0:0:0:
272,166,230050,6,0,P|278:229|237:277,1,125,0|8,0:0|0:0,0:0:0:0:
166,279,231275,2,0,L|65:243,1,100,8|8,0:0|0:0,0:0:0:0:
36,151,232499,2,0,P|103:118|158:129,1,125,4|8,0:0|0:0,0:0:0:0:
213,165,233724,1,0,0:0:0:0:
297,218,234336,2,0,L|297:270,2,50,0|0|0,0:0|0:0|0:0,0:0:0:0:
407,160,235713,5,12,0:0:0:0:
365,97,236172,2,0,P|305:70|225:103,1,150,0|8,0:0|0:0,0:0:0:0:
195,134,237397,2,0,P|127:162|77:138,1,125,12|8,0:0|0:0,0:0:0:0:
35,85,238621,1,0,0:0:0:0:
127,45,239234,2,0,L|186:45,2,50,0|0|4,0:0|0:0|0:0,0:0:0:0:
256,192,239922,12,0,245433,0:0:0:0:
