osu file format v13

[General]
AudioFilename: courage.mp3
AudioLeadIn: 500
PreviewTime: 50669
Countdown: 0
SampleSet: Soft
StackLeniency: 0.3
Mode: 0
LetterboxInBreaks: 0
WidescreenStoryboard: 0

[Editor]
DistanceSpacing: 1.4
BeatDivisor: 4
GridSize: 8
TimelineZoom: 1

[Metadata]
Title:courage
TitleUnicode:courage
Artist:Tomatsu Haruka
ArtistUnicode:戸松遥
Creator:No_Gu
Version:Insane
Source:SWORD ART ONLINE II
Tags:ソードアート・オンラインⅡ TV Size opening
BeatmapID:523397
BeatmapSetID:224175

[Difficulty]
HPDrainRate:8
CircleSize:4
OverallDifficulty:8
ApproachRate:9
SliderMultiplier:1.76
SliderTickRate:1

[Events]
//Background and Video events
Video,885,"video.avi"
0,0,"BG.jpg",0,0
//Break Periods
//Storyboard Layer 0 (Background)
//Storyboard Layer 1 (Fail)
//Storyboard Layer 2 (Pass)
//Storyboard Layer 3 (Foreground)
//Storyboard Sound Samples
//Background Colour Transformations
3,100,163,162,255

[TimingPoints]
2455,306.122448979592,4,2,1,50,1,0
2455,-133.333333333333,4,2,1,50,0,0
7199,-133.333333333333,4,2,1,30,0,0
7352,-133.333333333333,4,2,1,50,0,0
20516,-133.333333333333,4,2,1,30,0,0
20592,-133.333333333333,4,2,1,50,0,0
22046,-100,4,1,1,70,0,0
30924,-100,4,1,1,35,0,0
31842,-100,4,1,1,70,0,0
34291,-133.333333333333,4,2,1,70,0,0
36740,-100,4,1,1,70,0,0
39189,-133.333333333333,4,2,1,70,0,0
40873,-133.333333333333,4,2,1,50,0,0
41179,-133.333333333333,4,1,1,35,0,0
41638,-100,4,1,1,70,0,0
50210,-200,4,2,1,70,0,0
50516,-200,4,2,1,20,0,0
50592,-200,4,2,1,70,0,0
50822,-200,4,2,1,20,0,0
50898,-200,4,2,1,70,0,0
51128,-200,4,2,1,100,0,0
51434,-100,4,1,1,70,0,1
60312,-100,4,1,1,60,0,1
60618,-100,4,1,1,50,0,1
60924,-100,4,1,1,40,0,1
61153,-100,4,1,1,70,0,0
61230,-100,4,1,1,70,0,1
69801,-200,4,2,1,70,0,1
70108,-200,4,2,1,20,0,1
70184,-200,4,2,1,70,0,1
71026,-133.333333333333,4,2,1,50,0,0
79291,-133.333333333333,4,2,1,25,0,0
79597,-133.333333333333,4,2,1,50,0,0
80210,-133.333333333333,4,2,1,60,0,0
80822,-100,4,1,1,70,0,1
90312,-100,4,2,1,40,0,0

[Colours]
Combo1 : 128,255,128
Combo2 : 255,255,128
Combo3 : 255,128,128
Combo4 : 128,255,255

[HitObjects]
104,168,2455,5,2,0:0:0:0:
80,85,2608,1,0,0:0:0:0:
162,61,2761,1,0,0:0:0:0:
186,144,2914,1,2,0:0:0:0:
186,144,3220,5,0,0:0:0:0:
162,61,3373,1,0,0:0:0:0:
80,85,3526,1,2,0:0:0:0:
104,168,4291,5,0,0:0:0:0:
104,168,4597,1,2,0:0:0:0:
104,168,4903,5,2,0:0:0:0:
103,260,5057,1,0,0:0:0:0:
191,288,5210,1,0,0:0:0:0:
246,214,5363,1,2,0:0:0:0:
191,139,5669,5,0,0:0:0:0:
191,288,5822,1,2,0:0:0:0:
336,216,5975,2,0,P|360:160|336:96,1,132.000005035401,0|2,0:0|0:0,0:0:0:0:
248,48,6434,5,0,0:0:0:0:
152,64,6587,1,2,0:0:0:0:
16,184,6740,1,2,0:0:0:0:
112,200,6893,1,0,0:0:0:0:
288,296,7046,1,0,0:0:0:0:
192,312,7199,1,2,0:0:0:0:
360,360,7352,6,0,P|384:320|368:240,1,132.000005035401,2|0,0:0|0:0,0:0:0:0:
296,168,7812,2,0,L|304:96,1,66.0000025177003,2|0,0:0|0:0,0:0:0:0:
272,264,8118,2,0,L|128:256,1,132.000005035401,2|0,0:0|0:0,0:0:0:0:
48,296,8577,5,2,0:0:0:0:
8,200,8730,2,0,P|0:136|16:64,1,132.000005035401
96,24,9189,1,2,0:0:0:0:
200,232,9801,5,2,0:0:0:0:
200,232,10108,1,0,0:0:0:0:
240,128,10261,1,2,0:0:0:0:
200,232,10567,1,0,0:0:0:0:
304,216,10720,1,2,0:0:0:0:
392,272,10873,1,0,0:0:0:0:
392,376,11026,5,2,0:0:0:0:
88,312,11638,1,2,0:0:0:0:
288,72,12250,1,2,0:0:0:0:
288,72,13781,5,2,0:0:0:0:
342,146,14087,1,0,0:0:0:0:
287,221,14393,1,0,0:0:0:0:
200,192,14699,5,2,0:0:0:0:
200,100,15159,1,0,0:0:0:0:
288,72,15618,1,2,0:0:0:0:
416,336,16536,5,2,0:0:0:0:
128,312,17148,5,2,0:0:0:0:
416,336,17608,1,0,0:0:0:0:
288,72,18067,1,2,0:0:0:0:
288,224,18985,5,2,0:0:0:0:
288,224,19597,6,0,P|200:208|136:296,1,198.000007553101,2|0,0:0|0:0,0:0:0:0:
232,360,20210,2,0,P|240:328|232:288,1,66.0000025177003
360,104,20516,2,0,P|352:135|356:168,1,66.0000025177003,4|0,0:0|0:0,0:0:0:0:
440,216,20822,5,8,0:0:0:0:
440,128,20975,1,4,0:3:0:0:
368,280,21128,1,0,1:0:0:0:
393,308,21205,1,0,1:0:0:0:
432,320,21281,1,0,1:0:0:0:
472,312,21358,1,0,1:0:0:0:
504,286,21434,1,8,0:0:0:0:
440,128,21587,1,8,0:0:0:0:
440,128,22046,6,0,L|264:136,1,176,4|10,1:0|0:0,0:0:0:0:
176,192,22506,1,0,2:0:0:0:
88,136,22659,2,0,P|80:88|88:48,1,88,2|0,0:0|0:0,0:0:0:0:
80,240,22965,2,0,P|88:288|80:328,1,88,8|0,0:0|2:0,0:0:0:0:
0,280,23271,5,2,0:0:0:0:
176,296,23424,2,0,L|280:288,1,88,0|8,2:0|0:0,0:0:0:0:
440,104,23730,2,0,P|392:88|352:96,1,88,2|0,2:0|0:0,0:0:0:0:
344,256,24036,2,0,P|381:222|394:183,1,88,2|8,0:0|0:0,0:0:0:0:
256,88,24342,6,0,B|256:144|296:168|296:168|256:192|200:168,1,176,2|0,0:0|0:0,0:0:0:0:
136,128,24801,1,10,0:0:0:0:
144,32,24955,1,0,2:0:0:0:
48,168,25108,2,0,L|56:256,1,88,2|0,0:0|0:0,0:0:0:0:
208,344,25414,2,0,L|200:256,1,88,8|0,0:0|2:0,0:0:0:0:
288,176,25720,5,2,0:0:0:0:
468,234,25873,2,0,P|426:247|384:240,1,88,0|10,2:0|0:0,0:0:0:0:
432,64,26179,2,0,L|424:152,1,88,0|0,2:0|0:0,0:0:0:0:
280,264,26485,2,0,L|288:176,1,88,2|8,0:0|0:0,0:0:0:0:
128,56,26791,6,0,P|96:144|136:208,1,176
280,128,27250,2,0,P|232:120|184:128,1,88,10|0,0:0|2:0,0:0:0:0:
248,320,27557,1,0,0:0:0:0:
336,248,27710,1,2,0:0:0:0:
232,216,27863,1,8,0:0:0:0:
360,360,28016,6,0,L|456:352,1,88,2|0,2:0|0:0,0:0:0:0:
248,320,28322,2,0,L|152:312,1,88,0|8,2:0|0:0,0:0:0:0:
336,248,28628,2,0,P|344:192|336:152,1,88,2|0,2:0|0:0,0:0:0:0:
160,32,28934,2,0,P|152:88|160:128,1,88,0|8,0:0|0:0,0:0:0:0:
240,184,29240,1,0,2:0:0:0:
344,88,29393,6,0,L|256:80,1,88,2|0,0:0|2:0,0:0:0:0:
48,216,29699,2,0,L|136:224,1,88,8|0,0:0|0:0,0:0:0:0:
344,328,30006,1,2,2:0:0:0:
355,224,30159,1,0,0:0:0:0:
368,120,30312,1,8,0:0:0:0:
368,120,30618,5,2,0:0:0:0:
368,120,30924,2,0,L|360:72,3,44,0|0|0|0,0:0|0:0|0:0|0:0,0:0:0:0:
256,224,31230,2,0,L|248:272,3,44,0|0|0|0,0:0|0:0|0:0|0:0,0:0:0:0:
224,88,31536,2,0,L|216:40,3,44,0|0|0|0,0:0|0:0|0:0|0:0,0:0:0:0:
168,296,31842,6,0,P|208:344|312:320,1,176,4|8,0:0|0:0,0:0:0:0:
352,200,32301,1,2,2:0:0:0:
256,152,32455,2,0,P|248:195|256:237,1,88
424,128,32761,2,0,P|431:84|423:41,1,88,8|0,0:0|2:0,0:0:0:0:
352,200,33067,6,0,L|360:288,1,88,2|0,0:0|2:0,0:0:0:0:
216,96,33373,2,0,L|208:8,1,88,8|0,0:0|2:0,0:0:0:0:
232,216,33679,2,0,L|144:224,1,88
336,80,33985,2,0,L|424:72,1,88,8|0,0:0|2:0,0:0:0:0:
408,304,34291,5,2,1:0:0:0:
320,275,34444,1,0,0:0:0:0:
320,183,34597,1,2,1:0:0:0:
408,154,34750,1,0,1:0:0:0:
462,229,34903,2,0,L|328:224,1,132.000005035401,10|2,0:0|0:0,0:0:0:0:
256,136,35363,6,0,L|264:64,1,66.0000025177003,2|0,0:0|1:0,0:0:0:0:
224,240,35669,2,0,L|232:312,1,66.0000025177003,8|0,0:0|1:0,0:0:0:0:
160,368,35975,1,4,1:0:0:0:
160,368,36281,1,4,1:0:0:0:
160,368,36587,1,8,0:0:0:0:
16,208,36740,6,0,P|64:160|160:184,1,176,4|8,0:0|0:0,0:0:0:0:
264,224,37199,1,2,2:0:0:0:
360,176,37352,2,0,P|368:128|360:88,1,88
208,40,37659,2,0,P|200:88|208:128,1,88,8|0,0:0|2:0,0:0:0:0:
352,264,37965,6,0,L|448:256,1,88,2|0,0:0|2:0,0:0:0:0:
160,312,38271,2,0,L|64:304,1,88,10|0,0:0|2:0,0:0:0:0:
232,200,38577,1,0,0:0:0:0:
224,168,38653,1,8,0:0:0:0:
216,136,38730,1,8,0:0:0:0:
280,360,38883,1,8,0:0:0:0:
280,360,39189,5,2,1:0:0:0:
192,239,39342,1,0,0:0:0:0:
334,285,39495,1,2,1:0:0:0:
192,331,39648,1,0,1:0:0:0:
280,210,39801,2,0,L|288:352,1,132.000005035401,10|0,0:0|0:0,0:0:0:0:
376,304,40261,6,0,L|448:312,1,66.0000025177003,2|0,0:0|1:0,0:0:0:0:
192,331,40567,2,0,L|120:323,1,66.0000025177003,2|0,0:0|1:0,0:0:0:0:
40,216,40873,1,4,1:2:0:0:
40,216,41179,1,4,0:0:0:0:
42,194,41256,1,0,0:0:0:0:
45,172,41332,1,0,0:0:0:0:
47,150,41409,1,0,0:0:0:0:
50,128,41485,1,0,0:0:0:0:
52,106,41562,1,0,0:0:0:0:
56,83,41638,6,4,L|64:259,1,176,4|8,0:0|0:0,0:0:0:0:
168,320,42097,1,0,2:0:0:0:
264,256,42250,2,0,P|312:248|368:264,1,88
392,352,42557,2,0,P|344:360|288:344,1,88,10|0,0:0|2:0,0:0:0:0:
160,208,42863,6,0,L|152:112,1,88,0|0,0:0|2:0,0:0:0:0:
344,280,43169,2,0,L|352:376,1,88,8|0,0:0|2:0,0:0:0:0:
288,152,43475,2,0,L|384:144,1,88
216,336,43781,2,0,L|120:344,1,88,8|0,0:0|2:0,0:0:0:0:
64,176,44087,6,0,L|239:161,1,176,2|8,0:0|0:0,0:0:0:0:
360,200,44546,1,0,2:0:0:0:
456,128,44699,2,0,P|464:80|456:40,1,88,2|0,0:0|0:0,0:0:0:0:
472,248,45006,2,0,P|464:296|472:336,1,88,8|0,0:0|2:0,0:0:0:0:
328,304,45312,6,0,L|232:312,1,88,2|0,0:0|2:0,0:0:0:0:
224,112,45618,2,0,L|128:104,1,88,8|0,0:0|2:0,0:0:0:0:
352,328,45924,2,0,L|256:336,1,88,2|0,0:0|0:0,0:0:0:0:
248,96,46230,2,0,L|152:88,1,88,8|0,0:0|2:0,0:0:0:0:
376,344,46536,6,0,P|416:272|376:192,1,176,4|8,0:0|0:0,0:0:0:0:
256,160,46995,1,0,2:0:0:0:
216,280,47148,2,0,L|304:272,1,88
136,216,47455,1,10,0:0:0:0:
120,312,47608,1,0,2:0:0:0:
144,192,47761,5,2,0:0:0:0:
164,306,47914,1,0,2:0:0:0:
152,168,48067,1,10,0:0:0:0:
220,288,48220,1,0,2:0:0:0:
160,144,48373,1,2,0:0:0:0:
285,251,48526,1,0,0:0:0:0:
168,120,48679,1,10,0:0:0:0:
352,188,48832,1,0,2:0:0:0:
176,96,48985,5,0,0:0:0:0:
411,97,49138,1,0,0:0:0:0:
160,144,49444,5,0,0:0:0:0:
395,145,49597,1,0,0:0:0:0:
144,192,49903,5,0,0:0:0:0:
379,193,50057,1,0,0:0:0:0:
312,232,50210,6,2,P|216:224|304:192,1,264,0|4,0:0|0:3,0:0:0:0:
304,192,51434,6,0,L|296:104,1,88,4|0,1:0|2:0,0:0:0:0:
208,48,51740,1,8,1:0:0:0:
128,120,51893,2,0,L|40:112,1,88,0|0,2:0|1:0,0:0:0:0:
16,224,52199,1,2,1:0:0:0:
112,312,52352,2,0,P|120:272|112:224,1,88,8|0,1:0|2:0,0:0:0:0:
272,136,52659,6,0,P|264:176|272:224,1,88,0|0,1:0|2:0,0:0:0:0:
352,280,52965,1,10,0:0:0:0:
360,184,53118,1,0,2:0:0:0:
256,320,53271,2,0,L|160:312,1,88,2|0,0:0|0:0,0:0:0:0:
88,248,53577,1,8,0:0:0:0:
96,144,53730,1,0,2:0:0:0:
184,88,53883,6,0,P|264:56|344:88,1,176,2|8,0:0|0:0,0:0:0:0:
384,208,54342,1,0,2:0:0:0:
264,240,54495,2,0,P|256:192|264:152,1,88,0|2,0:0|0:0,0:0:0:0:
344,296,54801,2,0,P|352:344|344:384,1,88,8|2,0:0|2:0,0:0:0:0:
168,344,55108,6,0,L|264:336,1,88,0|0,0:0|2:0,0:0:0:0:
88,288,55414,2,0,L|-8:296,1,88,8|2,0:0|2:0,0:0:0:0:
160,208,55720,2,0,P|168:160|160:120,1,88
280,16,56026,2,0,P|272:64|280:104,1,88,8|0,0:0|2:0,0:0:0:0:
360,64,56332,6,0,L|184:56,1,176,4|8,0:0|0:0,0:0:0:0:
96,128,56791,2,0,P|80:168|96:224,1,88,0|0,2:0|0:0,0:0:0:0:
248,224,57097,2,0,P|221:190|164:175,1,88,2|8,0:0|0:0,0:0:0:0:
88,304,57403,2,0,P|130:297|171:256,1,88,0|2,2:0|0:0,3:0:0:0:
232,112,57710,5,0,2:0:0:0:
72,40,57863,2,0,L|88:216,1,176,8|0,0:0|0:0,0:0:0:0:
192,272,58322,1,0,0:0:0:0:
304,224,58475,2,0,L|400:232,1,88,8|0,0:0|2:0,0:0:0:0:
240,344,58781,6,0,P|192:368|104:296,1,176,0|8,0:0|0:0,0:0:0:0:
191,185,59240,2,0,P|199:228|192:272,1,88,0|0,2:0|0:0,0:0:0:0:
112,224,59546,1,0,1:0:0:0:
288,224,59699,2,0,L|376:232,1,88,8|0,0:0|2:0,0:0:0:0:
456,160,60006,5,0,0:0:0:0:
375,106,60159,1,8,0:0:0:0:
280,126,60312,1,4,0:3:0:0:
227,207,60465,1,0,0:0:0:0:
246,301,60618,1,0,0:0:0:0:
327,355,60771,1,0,0:0:0:0:
422,336,60924,1,0,0:0:0:0:
475,255,61077,1,8,0:3:0:0:
352,232,61230,6,0,L|168:248,1,176,4|8,0:0|0:0,0:0:0:0:
80,304,61689,1,0,2:0:0:0:
8,224,61842,2,0,L|0:128,1,88
136,72,62148,2,0,L|144:168,1,88,8|0,0:0|2:0,0:0:0:0:
288,200,62455,6,0,L|280:104,1,88,2|0,0:0|2:0,0:0:0:0:
416,200,62761,2,0,P|432:272|392:328,1,132,8|0,0:0|2:0,0:0:0:0:
336,352,63067,2,0,L|240:344,1,88
112,296,63373,2,0,L|16:304,1,88,8|0,0:0|2:0,0:0:0:0:
232,256,63679,6,0,P|264:184|232:96,1,176,2|8,0:0|0:0,0:0:0:0:
72,184,64138,2,0,P|120:192|160:176,1,88,0|0,2:0|0:0,0:0:0:0:
152,24,64444,2,0,P|121:61|114:104,1,88,0|8,0:0|0:0,0:0:0:0:
256,160,64750,2,0,P|238:114|205:87,1,88,2|0,2:0|0:0,0:0:0:0:
168,184,65057,5,0,2:0:0:0:
232,256,65210,2,0,L|408:248,1,176,8|0,0:0|0:0,0:0:0:0:
472,320,65669,1,0,0:0:0:0:
448,160,65822,2,0,L|440:72,1,88,8|0,0:0|2:0,0:0:0:0:
272,40,66128,6,0,P|264:128|328:184,1,176,4|8,0:0|0:0,0:0:0:0:
352,88,66587,1,0,2:0:0:0:
176,48,66740,2,0,P|128:48|88:64,1,88
120,232,67046,2,0,P|168:232|208:216,1,88,8|0,0:0|2:0,0:0:0:0:
248,128,67352,5,0,0:0:0:0:
152,136,67506,1,2,2:0:0:0:
304,208,67659,2,0,L|400:200,1,88,8|2,0:0|2:0,0:0:0:0:
224,312,67965,2,0,L|128:320,1,88,0|2,0:0|0:0,0:0:0:0:
48,224,68271,1,8,0:0:0:0:
104,104,68424,1,2,2:0:0:0:
104,104,68500,1,2,2:0:0:0:
104,104,68577,6,0,P|184:72|264:128,1,176,4|8,0:0|0:0,0:0:0:0:
344,168,69036,1,0,0:0:0:0:
432,112,69189,2,0,L|440:24,1,88,0|0,2:0|0:0,0:0:0:0:
504,192,69495,1,8,0:0:0:0:
384,328,69648,1,2,2:0:0:0:
384,328,69725,1,2,2:0:0:0:
384,328,69801,6,0,P|296:336|248:272,1,176,4|0,1:0|0:0,0:0:0:0:
392,80,71026,5,2,0:0:0:0:
336,152,71179,1,0,0:0:0:0:
256,24,71332,1,0,0:0:0:0:
192,88,71485,2,0,L|56:80,1,132.000005035401,2|0,0:0|0:0,0:0:0:0:
96,168,71944,1,2,0:0:0:0:
96,168,72250,6,0,P|120:232|88:296,1,132.000005035401,2|0,0:0|0:0,0:0:0:0:
176,344,72710,2,0,P|219:291|290:286,1,132.000005035401,2|0,0:0|0:0,0:0:0:0:
288,184,73169,2,0,P|220:172|181:113,1,132.000005035401,2|0,0:0|0:0,0:0:0:0:
200,32,73628,5,0,0:0:0:0:
272,96,73781,1,0,0:0:0:0:
112,64,73934,1,2,0:0:0:0:
112,64,74240,5,0,0:0:0:0:
272,96,74393,1,2,0:0:0:0:
200,32,74546,1,0,0:0:0:0:
183,124,74699,6,0,L|192:256,1,132.000005035401,2|0,0:0|0:0,0:0:0:0:
264,320,75159,2,0,P|320:328|384:288,1,132.000005035401,2|0,0:0|0:0,0:0:0:0:
424,208,75618,1,0,0:0:0:0:
424,208,75924,5,2,0:0:0:0:
176,72,76689,1,2,0:0:0:0:
176,72,77148,5,2,0:0:0:0:
243,149,77301,1,0,0:0:0:0:
144,168,77455,1,0,0:0:0:0:
176,72,77761,5,2,0:0:0:0:
243,149,78067,1,0,0:0:0:0:
144,168,78373,6,0,L|8:160,1,132.000005035401,2|0,0:0|0:0,0:0:0:0:
8,256,78832,1,0,0:0:0:0:
88,304,78985,2,0,P|96:272|88:216,1,66.0000025177003,0|2,0:0|0:0,0:0:0:0:
48,64,79291,1,4,0:0:0:0:
48,64,79597,5,0,1:0:0:0:
144,40,79750,1,8,0:0:0:0:
112,120,79903,1,8,0:0:0:0:
207,147,80056,1,8,0:0:0:0:
136,200,80210,1,8,1:0:0:0:
205,271,80363,1,8,1:0:0:0:
120,280,80516,1,4,0:3:0:0:
144,375,80669,1,4,0:3:0:0:
56,344,80822,6,0,P|40:264|56:160,1,176,4|8,0:0|0:0,0:0:0:0:
160,96,81281,1,0,2:0:0:0:
272,160,81434,2,0,P|312:168|360:152,1,88
352,0,81740,2,0,P|325:30|314:80,1,88,8|0,0:0|2:0,0:0:0:0:
456,136,82046,6,0,P|442:97|405:63,1,88,2|0,0:0|2:0,0:0:0:0:
328,288,82352,2,0,P|408:296|464:224,1,176,8|0,0:0|0:0,0:0:0:0:
368,144,82812,1,0,0:0:0:0:
248,192,82965,2,0,L|240:280,1,88,8|0,0:0|2:0,0:0:0:0:
112,352,83271,6,0,P|72:304|88:192,1,176,2|8,0:0|0:0,0:0:0:0:
184,144,83730,2,0,L|272:152,1,88,0|0,2:0|0:0,0:0:0:0:
408,248,84036,2,0,L|320:256,1,88,0|8,0:0|0:0,0:0:0:0:
200,328,84342,1,0,2:0:0:0:
64,288,84495,6,0,P|40:208|64:120,1,176,2|8,0:0|0:0,0:0:0:0:
160,72,84955,1,0,2:0:0:0:
264,120,85108,2,0,L|360:112,1,88,0|2,0:0|0:0,0:0:0:0:
416,248,85414,2,0,L|320:256,1,88,8|2,0:0|2:0,0:0:0:0:
200,328,85720,6,0,P|232:256|200:168,1,176,0|8,0:0|0:0,0:0:0:0:
96,152,86179,1,0,2:0:0:0:
40,264,86332,2,0,L|136:248,1,88
216,296,86638,1,8,0:0:0:0:
288,224,86791,1,2,2:0:0:0:
376,272,86944,6,0,P|384:320|376:360,1,88,0|2,0:0|2:0,0:0:0:0:
376,176,87250,2,0,P|368:128|376:88,1,88,8|2,0:0|2:0,0:0:0:0:
456,32,87557,1,0,0:0:0:0:
472,128,87710,1,2,0:0:0:0:
280,80,87863,2,0,L|192:88,1,88,8|0,0:0|2:0,0:0:0:0:
80,184,88169,6,0,P|72:232|88:280,1,88,2|0,0:0|2:0,0:0:0:0:
168,320,88475,1,8,0:0:0:0:
168,224,88628,1,2,2:0:0:0:
80,368,88781,1,2,0:0:0:0:
256,360,88934,2,0,L|360:368,1,88,0|10,0:0|0:0,0:0:0:0:
440,296,89240,1,0,2:0:0:0:
344,144,89393,6,0,P|336:192|344:232,1,88,2|0,0:0|2:0,0:0:0:0:
232,112,89699,2,0,P|240:64|232:24,1,88,0|0,2:0|0:0,0:0:0:0:
136,72,90006,1,8,0:0:0:0:
256,192,90159,1,8,0:0:0:0:
424,160,90312,1,8,2:0:0:0:
