osu file format v14

[General]
AudioFilename: courage.mp3
AudioLeadIn: 0
PreviewTime: 49734
Countdown: 0
SampleSet: Soft
StackLeniency: 0.7
Mode: 0
LetterboxInBreaks: 0
WidescreenStoryboard: 0

[Editor]
DistanceSpacing: 1.4
BeatDivisor: 4
GridSize: 4
TimelineZoom: 1.8

[Metadata]
Title:courage
TitleUnicode:courage
Artist:Tomatsu Haruka
ArtistUnicode:戸松遥
Creator:Chocox
Version:Insane
Source:SWORD ART ONLINE II
Tags:ソードアート・オンラインⅡ TV Size opening del05 nadapan
BeatmapID:523631
BeatmapSetID:224318

[Difficulty]
HPDrainRate:7
CircleSize:4
OverallDifficulty:7
ApproachRate:9
SliderMultiplier:1.8
SliderTickRate:1

[Events]
//Background and Video events
Video,0,"OP.avi"
0,0,"bgInsane.png",0,0
//Break Periods
//Storyboard Layer 0 (Background)
//Storyboard Layer 1 (Fail)
//Storyboard Layer 2 (Pass)
//Storyboard Layer 3 (Foreground)
//Storyboard Sound Samples

[TimingPoints]
1520,306.122448979592,4,2,0,60,1,0
1520,-133.333333333333,4,2,0,60,0,0
11315,-133.333333333333,4,2,0,65,0,0
18662,-133.333333333333,4,2,1,70,0,0
21111,-100,4,2,1,70,0,0
49122,-200,4,2,1,70,0,0
50499,-100,4,2,1,75,0,1
60218,-100,4,2,1,75,0,0
60295,-100,4,2,1,75,0,1
70091,-133.333333333333,4,2,0,65,0,0
78662,-100,4,2,1,70,0,0
79887,-100,4,2,1,75,0,1
88458,-100,4,2,1,75,0,0

[Colours]
Combo1 : 255,255,128
Combo2 : 63,85,163
Combo3 : 231,66,48
Combo4 : 128,255,128

[HitObjects]
128,96,1520,5,0,0:0:0:0:
160,184,1673,1,0,0:0:0:0:
232,120,1826,1,0,0:0:0:0:
264,208,1979,1,2,0:0:0:0:
160,184,2285,5,0,0:0:0:0:
232,120,2438,1,0,0:0:0:0:
264,208,2591,1,2,0:0:0:0:
264,208,3356,2,0,P|328:232|388:208,1,135.000005149842,2|2,0:0|0:0,0:0:0:0:
292,48,3968,5,0,0:0:0:0:
232,120,4122,1,0,0:0:0:0:
264,208,4275,1,0,0:0:0:0:
356,228,4428,2,0,P|332:288|268:308,1,135.000005149842,2|0,0:0|0:0,0:0:0:0:
264,208,4887,5,0,0:0:0:0:
232,120,5040,1,2,0:0:0:0:
112,211,5346,5,2,0:0:0:0:
232,120,5499,1,0,0:0:0:0:
189,265,5652,1,2,0:0:0:0:
136,120,5805,1,2,0:0:0:0:
264,208,5958,1,2,0:0:0:0:
328,136,6111,1,2,0:0:0:0:
232,120,6264,1,2,0:0:0:0:
232,120,6341,1,0,0:0:0:0:
232,120,6417,1,0,0:0:0:0:
189,265,7642,5,0,0:0:0:0:
332,140,8254,1,0,0:0:0:0:
189,265,8866,1,2,0:0:0:0:
332,140,9173,5,0,0:0:0:0:
189,265,9326,1,2,0:0:0:0:
332,140,9632,5,0,0:0:0:0:
189,265,9785,1,2,0:0:0:0:
368,324,9938,1,2,0:0:0:0:
332,140,10091,1,2,0:0:0:0:
256,192,10167,12,0,11315,0:0:0:0:
156,76,11622,5,0,0:0:0:0:
116,192,11928,1,0,0:0:0:0:
116,192,12387,2,0,L|40:172,2,67.5000025749208
176,296,12999,1,2,0:0:0:0:
292,256,13305,2,0,P|340:212|352:136,1,135.000005149842
353,145,13764,5,2,0:0:0:0:
376,48,14071,2,0,L|439:87,1,67.5000025749208,0|2,0:0|0:0,0:0:0:0:
356,148,14377,2,0,L|296:112,1,67.5000025749208
124,96,14836,5,0,0:0:0:0:
124,96,14989,1,0,0:0:0:0:
124,96,15142,2,0,L|124:180,1,67.5000025749208
64,212,15448,2,0,P|124:240|184:208,2,135.000005149842
124,96,16213,5,2,0:0:0:0:
64,212,16673,1,2,0:0:0:0:
192,200,17132,1,2,0:0:0:0:
192,200,17285,6,0,P|240:228|276:228,1,67.5000025749208
389,145,17591,2,0,P|323:132|260:152,1,135.000005149842
259,152,18203,1,0,0:0:0:0:
436,208,18662,6,0,P|465:149|432:80,1,135.000005149842
262,34,19122,1,0,0:0:0:0:
262,34,19275,2,0,P|238:95|264:156,1,135.000005149842
336,208,19734,2,0,P|312:248|292:268,1,67.5000025749208,0|2,0:0|0:0,0:0:0:0:
160,252,20040,5,2,0:0:0:0:
80,316,20193,1,8,0:0:0:0:
62,287,20269,1,8,0:0:0:0:
56,255,20346,1,8,0:0:0:0:
60,222,20422,1,8,0:0:0:0:
76,192,20499,1,8,0:0:0:0:
160,252,20652,1,2,0:0:0:0:
160,252,21111,6,0,P|232:308|320:296,1,180,4|8,0:0|0:0,0:0:0:0:
336,208,21571,1,0,0:0:0:0:
420,128,21724,1,2,0:0:0:0:
420,128,21877,2,0,P|380:88|340:80,1,90,2|8,0:0|0:0,0:0:0:0:
240,40,22183,1,0,0:0:0:0:
240,40,22336,6,0,P|200:80|192:120,1,90,2|0,0:0|0:0,0:0:0:0:
336,208,22642,1,8,0:0:0:0:
336,208,22795,2,0,L|304:304,1,90
224,308,23101,2,0,L|156:240,1,90,2|8,0:0|0:0,0:0:0:0:
288,136,23407,2,0,P|388:148|416:232,1,180,8|2,0:0|0:0,0:0:0:0:
314,308,23866,6,0,L|224:308,1,90,8|0,0:0|0:0,0:0:0:0:
128,232,24173,2,0,P|116:284|132:324,1,90,2|2,0:0|0:0,0:0:0:0:
128,232,24479,2,0,P|140:180|124:140,1,90,8|0,0:0|0:0,0:0:0:0:
196,32,24785,5,2,0:0:0:0:
288,136,24938,2,0,P|340:148|380:132,1,90,0|8,0:0|0:0,0:0:0:0:
480,92,25244,2,0,P|491:134|479:177,1,90
287,221,25550,2,0,P|275:178|287:135,1,90,2|8,0:0|0:0,0:0:0:0:
354,254,25856,2,0,P|282:299|216:248,1,180,4|2,0:0|0:0,0:0:0:0:
295,130,26315,6,0,L|288:220,1,90,8|0,0:0|0:0,0:0:0:0:
356,256,26622,1,2,0:0:0:0:
412,100,26775,1,2,0:0:0:0:
460,232,26928,1,8,0:0:0:0:
295,130,27081,2,0,L|196:128,1,90,0|2,0:0|0:0,0:0:0:0:
92,84,27387,6,0,P|76:128|96:168,1,90,0|8,0:0|0:0,0:0:0:0:
148,268,27693,2,0,L|212:344,1,90,0|2,0:0|0:0,0:0:0:0:
356,256,27999,2,0,L|292:180,1,90,2|8,0:0|0:0,0:0:0:0:
412,100,28305,1,0,0:0:0:0:
460,232,28458,6,0,P|436:324|356:360,1,180,4|8,0:0|0:0,0:0:0:0:
148,268,28917,1,0,0:0:0:0:
148,268,29071,2,0,P|172:176|252:140,1,180,4|8,0:0|0:0,0:0:0:0:
356,256,29530,5,0,0:0:0:0:
148,268,29683,1,4,0:0:0:0:
56,132,29989,6,8,L|24:80,3,45
164,92,30295,2,8,L|196:144,3,45
224,132,30601,1,8,0:0:0:0:
260,132,30678,1,8,0:0:0:0:
296,132,30754,1,8,0:0:0:0:
328,132,30831,1,8,0:0:0:0:
368,132,30907,6,0,L|372:232,1,90,6|0,0:0|0:0,0:0:0:0:
244,324,31213,2,0,L|240:224,1,90,8|0,0:0|0:0,0:0:0:0:
244,324,31520,2,0,P|168:336|136:328,1,90,8|0,0:0|0:0,0:0:0:0:
44,208,31826,2,0,P|120:196|152:204,1,90,8|0,0:0|0:0,0:0:0:0:
224,132,32132,5,8,0:0:0:0:
292,36,32285,1,0,0:0:0:0:
344,140,32438,2,0,P|392:172|412:228,1,90,8|0,0:0|0:0,0:0:0:0:
334,324,32744,1,8,0:0:0:0:
334,324,32897,1,0,0:0:0:0:
334,324,33050,2,0,L|244:324,1,90,8|0,0:0|0:0,0:0:0:0:
139,239,33356,5,0,0:0:0:0:
44,208,33509,1,0,0:0:0:0:
44,109,33662,1,0,0:0:0:0:
139,78,33815,1,0,0:0:0:0:
197,158,33968,2,0,P|280:192|348:124,1,180,4|0,0:0|0:0,0:0:0:0:
264,116,34428,2,0,L|292:300,1,180,4|0,0:0|0:0,0:0:0:0:
120,327,34887,5,0,0:0:0:0:
139,239,35040,1,4,0:0:0:0:
44,208,35346,1,4,0:0:0:0:
44,109,35652,1,0,0:0:0:0:
264,116,35805,6,0,P|336:124|380:108,1,90,6|0,0:0|0:0,0:0:0:0:
480,20,36111,2,0,P|408:12|364:28,1,90,8|0,0:0|0:0,0:0:0:0:
264,116,36417,2,0,L|232:216,1,90,8|0,0:0|0:0,0:0:0:0:
352,312,36724,2,0,L|384:212,1,90,8|0,0:0|0:0,0:0:0:0:
264,116,37030,5,8,0:0:0:0:
352,312,37336,1,8,0:0:0:0:
476,148,37642,1,8,0:0:0:0:
476,148,37718,1,8,0:0:0:0:
476,148,37795,1,8,0:0:0:0:
264,116,37948,1,8,0:0:0:0:
176,80,38254,5,0,0:0:0:0:
264,116,38407,1,0,0:0:0:0:
188,208,38560,1,0,0:0:0:0:
100,244,38713,1,0,0:0:0:0:
208,336,38866,2,0,P|304:344|356:272,1,180,4|0,0:0|0:0,0:0:0:0:
354,116,39326,2,0,L|264:116,1,90,4|0,0:0|0:0,0:0:0:0:
188,208,39632,5,0,0:0:0:0:
208,336,39785,1,0,0:0:0:0:
312,256,39938,2,0,P|416:256|472:176,1,180,4|4,0:0|0:0,0:0:0:0:
354,116,40397,1,8,0:0:0:0:
316,116,40474,1,8,0:0:0:0:
280,116,40550,1,8,0:0:0:0:
244,116,40627,1,8,0:0:0:0:
208,116,40703,6,0,P|157:120|112:162,1,90,6|0,0:0|0:0,0:0:0:0:
105,233,41009,2,0,P|156:229|201:187,1,90,8|0,0:0|0:0,0:0:0:0:
280,116,41315,1,2,0:0:0:0:
280,116,41468,2,0,L|320:208,1,90,2|8,0:0|0:0,0:0:0:0:
292,312,41775,1,0,0:0:0:0:
292,312,41928,6,0,P|232:324|192:312,1,90,2|0,0:0|0:0,0:0:0:0:
105,233,42234,2,0,P|165:221|205:233,1,90,8|0,0:0|0:0,0:0:0:0:
105,233,42540,2,0,P|93:173|105:133,1,90,2|2,0:0|0:0,0:0:0:0:
274,28,42846,2,0,P|286:88|274:128,1,90,8|0,0:0|0:0,0:0:0:0:
292,312,43152,6,0,P|404:316|432:236,1,180,6|8,0:0|0:0,0:0:0:0:
336,204,43611,1,0,0:0:0:0:
336,204,43764,2,0,P|340:92|260:64,1,180,6|8,0:0|0:0,0:0:0:0:
220,200,44224,1,0,0:0:0:0:
220,200,44377,6,0,P|108:196|80:276,2,180,6|8|2,0:0|0:0|0:0,0:0:0:0:
168,280,45142,1,2,0:0:0:0:
168,280,45295,2,0,P|280:284|308:204,2,180,8|6|8,0:0|0:0|0:0,0:0:0:0:
220,200,46060,2,0,L|192:112,1,90,0|2,0:0|0:0,0:0:0:0:
288,44,46366,1,2,0:0:0:0:
288,44,46520,2,0,P|348:56|384:92,1,90,8|0,0:0|0:0,0:0:0:0:
301,229,46826,6,0,P|241:217|205:181,1,90,2|0,0:0|0:0,0:0:0:0:
301,229,47132,2,0,P|289:289|253:325,1,90,2|0,0:0|0:0,0:0:0:0:
116,242,47438,2,0,P|128:182|164:146,1,90,2|0,0:0|0:0,0:0:0:0:
116,242,47744,2,0,P|56:230|20:194,1,90,2|0,0:0|0:0,0:0:0:0:
100,116,48050,5,2,0:0:0:0:
264,112,48203,1,2,0:0:0:0:
84,136,48509,5,2,0:0:0:0:
301,229,48662,1,2,0:0:0:0:
68,160,48968,5,2,0:0:0:0:
224,328,49122,2,2,B|292:316|297:222|297:222|364:264|404:256|444:284|408:316,1,315,2|2,0:0|0:3,0:0:0:0:
408,315,50499,6,0,P|396:280|404:212,1,90,6|0,0:0|0:0,0:0:0:0:
420,112,50805,2,0,P|385:124|317:116,1,90,8|0,0:0|0:0,0:0:0:0:
216,120,51111,1,2,0:0:0:0:
216,120,51264,2,0,P|204:85|212:17,1,90,2|8,0:0|0:0,0:0:0:0:
410,24,51571,1,0,0:0:0:0:
410,24,51724,6,0,P|422:59|414:127,1,90,2|0,0:0|0:0,0:0:0:0:
225,207,52030,2,0,P|213:172|221:104,1,90,8|0,0:0|0:0,0:0:0:0:
225,207,52336,2,0,P|180:203|137:216,1,90,2|2,0:0|0:0,0:0:0:0:
104,328,52642,2,0,P|148:331|191:318,1,90,8|0,0:0|0:0,0:0:0:0:
296,264,52948,6,0,P|312:196|232:116,1,180,2|8,0:0|0:0,0:0:0:0:
134,208,53407,1,0,0:0:0:0:
134,208,53560,2,0,L|224:208,1,90,2|2,0:0|0:0,0:0:0:0:
296,264,53866,1,8,0:0:0:0:
260,100,54020,1,0,0:0:0:0:
134,208,54173,6,0,P|120:165|124:120,1,90,2|2,0:0|0:0,0:0:0:0:
250,12,54479,2,0,P|263:54|259:99,1,90,8|0,0:0|0:0,0:0:0:0:
296,264,54785,1,2,0:0:0:0:
134,208,54938,1,2,0:0:0:0:
259,99,55091,2,0,P|301:85|346:89,1,90,8|0,0:0|0:0,0:0:0:0:
296,264,55397,6,0,P|208:292|124:272,1,180,6|8,0:0|0:0,0:0:0:0:
56,176,55856,1,0,0:0:0:0:
56,176,56009,2,0,L|152:176,1,90,2|2,0:0|0:0,0:0:0:0:
259,99,56315,2,0,P|245:56|252:12,1,90,8|0,0:0|0:0,0:0:0:0:
324,52,56622,6,0,L|136:52,1,180,2|8,0:0|0:0,0:0:0:0:
56,176,57081,1,0,0:0:0:0:
56,176,57234,2,0,P|42:218|49:263,1,90,2|2,0:0|0:0,0:0:0:0:
152,316,57540,2,0,P|165:273|159:229,1,90,8|0,0:0|0:0,0:0:0:0:
152,316,57846,6,0,P|224:344|324:312,1,180,2|8,0:0|0:0,0:0:0:0:
356,204,58305,1,0,0:0:0:0:
356,204,58458,2,0,L|444:248,1,90,2|2,0:0|0:0,0:0:0:0:
436,80,58764,2,0,L|348:36,1,90,8|0,0:0|0:0,0:0:0:0:
252,96,59071,5,0,0:0:0:0:
136,168,59224,1,0,0:0:0:0:
124,32,59377,1,0,0:0:0:0:
252,96,59530,1,0,0:0:0:0:
136,168,59683,1,0,0:0:0:0:
160,300,59836,1,0,0:0:0:0:
292,324,59989,1,0,0:0:0:0:
356,204,60142,1,0,0:0:0:0:
328,72,60295,6,0,P|256:16|176:72,1,180,6|8,0:0|0:0,0:0:0:0:
233,184,60754,1,0,0:0:0:0:
233,184,60907,2,0,L|252:96,1,90,2|2,0:0|0:0,0:0:0:0:
328,72,61213,2,0,P|372:88|416:72,1,90,8|0,0:0|0:0,0:0:0:0:
372,12,61520,6,0,L|372:208,1,180,2|8,0:0|0:0,0:0:0:0:
292,324,61979,1,0,0:0:0:0:
292,324,62132,2,0,P|247:330|205:316,1,90,2|2,0:0|0:0,0:0:0:0:
146,177,62438,2,0,P|190:170|232:184,1,90,8|0,0:0|0:0,0:0:0:0:
146,177,62744,6,0,P|139:132|153:90,1,90,2|0,0:0|0:0,0:0:0:0:
276,40,63050,1,8,0:0:0:0:
276,40,63203,2,0,P|282:84|268:126,1,90,0|2,0:0|0:0,0:0:0:0:
138,263,63509,2,0,P|132:219|146:177,1,90,2|8,0:0|0:0,0:0:0:0:
298,224,63815,1,0,0:0:0:0:
298,224,63968,6,0,L|208:224,1,90,2|0,0:0|0:0,0:0:0:0:
276,40,64275,2,0,L|184:40,1,90,8|0,0:0|0:0,0:0:0:0:
276,40,64581,2,0,P|269:84|283:126,1,90,2|2,0:0|0:0,0:0:0:0:
440,240,64887,2,0,P|446:195|432:153,1,90,8|0,0:0|0:0,0:0:0:0:
344,72,65193,6,0,P|280:116|200:56,1,180,6|8,0:0|0:0,0:0:0:0:
276,40,65652,1,0,0:0:0:0:
276,40,65805,2,0,L|264:148,1,90,2|2,0:0|0:0,0:0:0:0:
440,240,66111,2,0,L|432:336,1,90,8|0,0:0|0:0,0:0:0:0:
300,352,66417,5,2,0:0:0:0:
300,224,66571,1,0,0:0:0:0:
192,288,66724,2,0,P|128:280|96:236,1,90,8|0,0:0|0:0,0:0:0:0:
56,152,67030,1,2,0:0:0:0:
60,156,67183,1,2,0:0:0:0:
152,72,67336,1,8,0:0:0:0:
152,72,67489,1,0,0:0:0:0:
276,40,67642,6,0,P|328:88|436:72,1,180,4|2,0:0|0:0,0:0:0:0:
276,40,68101,2,0,L|244:128,1,90,2|0,0:0|0:0,0:0:0:0:
300,224,68407,1,0,0:0:0:0:
192,288,68560,1,8,0:0:0:0:
300,352,68713,1,2,0:0:0:0:
300,352,68790,1,2,0:0:0:0:
300,352,68866,1,4,0:0:0:0:
276,40,69479,5,0,0:0:0:0:
276,40,70091,6,0,P|336:88|416:80,1,135.000005149842,2|0,0:0|0:0,0:0:0:0:
391,89,70550,2,0,P|386:155|342:205,1,135.000005149842
341,205,71009,1,2,0:0:0:0:
176,296,71315,5,2,0:0:0:0:
344,208,71775,1,2,0:0:0:0:
184,108,72234,1,2,0:0:0:0:
176,296,72540,5,2,0:0:0:0:
260,252,72693,1,0,0:0:0:0:
344,208,72846,1,0,0:0:0:0:
428,164,72999,1,2,0:0:0:0:
260,252,73305,5,2,0:0:0:0:
344,208,73458,1,2,0:0:0:0:
428,164,73611,1,0,0:0:0:0:
428,164,73764,2,0,P|408:84|352:48,1,135.000005149842,2|0,0:0|0:0,0:0:0:0:
344,208,74224,2,0,P|364:288|420:324,1,135.000005149842,2|0,0:0|0:0,0:0:0:0:
344,208,74683,2,0,L|256:160,1,67.5000025749208
204,128,74989,5,0,0:0:0:0:
204,128,76213,5,0,0:0:0:0:
188,316,76826,1,0,0:0:0:0:
204,128,77438,5,0,0:0:0:0:
188,316,78050,1,0,0:0:0:0:
276,280,78203,1,0,0:3:0:0:
364,244,78356,1,0,0:3:0:0:
276,280,78662,5,2,0:0:0:0:
364,244,78815,1,8,0:0:0:0:
284,180,78968,1,8,0:0:0:0:
248,92,79121,1,8,0:0:0:0:
192,164,79275,5,2,0:0:0:0:
104,200,79428,1,2,0:0:0:0:
180,260,79581,1,4,0:3:0:0:
216,348,79734,1,4,0:3:0:0:
276,280,79887,6,0,P|364:332|460:280,1,180,4|8,0:0|0:0,0:0:0:0:
377,154,80346,1,0,0:0:0:0:
377,154,80499,2,0,L|364:244,1,90,2|2,0:0|0:0,0:0:0:0:
180,260,80805,2,0,L|193:170,1,90,8|0,0:0|0:0,0:0:0:0:
180,260,81111,6,0,P|100:260|36:180,1,180,2|8,0:0|0:0,0:0:0:0:
80,68,81571,1,0,0:0:0:0:
80,68,81724,2,0,L|184:68,1,90,2|2,0:0|0:0,0:0:0:0:
376,152,82030,2,0,P|328:176|280:176,1,90,8|0,0:0|0:0,0:0:0:0:
100,292,82336,6,0,P|164:340|252:304,1,180,2|8,0:0|0:0,0:0:0:0:
153,176,82795,2,0,P|157:220|179:259,1,90,0|2,0:0|0:0,0:0:0:0:
349,235,83101,2,0,P|371:196|376:152,1,90,2|8,0:0|0:0,0:0:0:0:
304,48,83407,1,0,0:0:0:0:
304,48,83560,6,0,P|232:104|136:80,1,180,2|8,0:0|0:0,0:0:0:0:
212,24,84020,1,0,0:0:0:0:
266,209,84173,2,0,P|305:230|349:235,1,90,2|2,0:0|0:0,0:0:0:0:
476,224,84479,2,0,P|471:268|449:307,1,90,8|0,0:0|0:0,0:0:0:0:
340,352,84785,6,0,P|228:352|172:292,1,180,6|8,0:0|0:0,0:0:0:0:
266,209,85244,1,0,0:0:0:0:
266,209,85397,2,0,L|164:208,1,90,2|2,0:0|0:0,0:0:0:0:
212,24,85703,2,0,L|110:23,1,90,8|0,0:0|0:0,0:0:0:0:
212,24,86009,5,2,0:0:0:0:
266,209,86162,1,0,0:0:0:0:
212,24,86315,1,8,0:0:0:0:
368,176,86468,1,0,0:0:0:0:
212,24,86622,1,2,0:0:0:0:
404,96,86775,2,0,P|392:148|368:176,1,90,2|8,0:0|0:0,0:0:0:0:
266,209,87081,1,0,0:0:0:0:
266,209,87234,6,0,P|328:284|408:272,1,180,6|8,0:0|0:0,0:0:0:0:
404,96,87693,1,2,0:0:0:0:
404,96,87846,2,0,P|336:64|288:60,1,90,8|0,0:0|0:0,0:0:0:0:
183,174,88152,2,0,P|251:206|299:210,1,90,2|0,0:0|0:0,0:0:0:0:
368,176,88458,5,2,0:0:0:0:
256,340,88611,2,0,P|200:336|168:308,1,90,0|8,0:0|0:3,0:0:0:0:
183,175,88917,1,0,0:0:0:0:
136,57,89071,1,2,0:0:0:0:
260,76,89224,1,2,0:0:0:0:
183,175,89377,1,8,0:0:0:0:
