osu file format v9

[General]
AudioFilename: Yume Sekai.mp3
AudioLeadIn: 2000
PreviewTime: 59271
Countdown: 0
SampleSet: Soft
StackLeniency: 0.6
Mode: 0
LetterboxInBreaks: 0

[Editor]
DistanceSpacing: 0.5
BeatDivisor: 4
GridSize: 8

[Metadata]
Title:Yume Sekai (TV Size)
Artist:Tomatsu Haruka
Creator:Netsukawa
Version:Normal
Source:SWORD ART ONLINE
Tags:Ending SAO 0OoMickeyoO0

[Difficulty]
HPDrainRate:3
CircleSize:4
OverallDifficulty:3
ApproachRate:4
SliderMultiplier:1.47
SliderTickRate:2

[Events]
//Background and Video events
0,0,"BG.jpg"
Video,0,"Yume Sekai TH.avi"
//Break Periods
//Storyboard Layer 0 (Background)
//Storyboard Layer 1 (Fail)
//Storyboard Layer 2 (Pass)
//Storyboard Layer 3 (Foreground)
//Storyboard Sound Samples
//Background Colour Transformations
3,100,163,162,255

[TimingPoints]
1123,740.740740740741,4,2,1,60,1,0
11863,-100,4,2,1,40,0,0
12234,-100,4,2,1,50,0,0
12604,-100,4,2,1,60,0,0
12974,-100,4,2,1,70,0,0
36123,-100,4,1,1,40,0,0
36678,-100,4,2,1,70,0,0
42048,-100,4,1,1,40,0,0
42234,-100,4,1,1,30,0,0
42419,-100,4,1,1,20,0,0
42604,-100,4,2,1,70,0,0
47419,-100,4,1,1,40,0,0
47604,-100,4,2,1,70,0,0
47974,-100,4,1,1,40,0,0
48530,-100,4,2,1,70,0,0
57419,-100,4,2,1,40,0,0
57789,-100,4,2,1,50,0,0
58160,-100,4,2,1,60,0,0
58530,-100,4,2,1,70,0,0
58900,-100,4,2,1,60,0,0
59271,-100,4,1,1,40,0,0
59641,-100,4,2,2,50,0,0
60197,-100,4,2,1,50,0,0
60390,740.740740740741,4,2,1,70,1,1
71686,-100,4,1,1,40,0,1
72056,-100,4,1,1,40,0,0
72241,-100,4,2,1,70,0,1
77612,-100,4,1,1,40,0,1
78168,-100,4,2,1,70,0,1
81501,-100,4,1,1,40,0,1
82612,-100,4,2,2,70,0,0
83352,-100,4,2,2,40,0,0
86315,-100,4,2,2,30,0,0
87056,-100,4,2,2,20,0,0

[Colours]
Combo1 : 192,192,192
Combo2 : 255,255,128
Combo3 : 128,255,255
Combo4 : 255,128,192
Combo5 : 128,255,128
Combo6 : 172,113,253
Combo7 : 255,55,55
Combo8 : 115,115,115
SliderBorder : 255,255,255

[HitObjects]
224,296,382,2,0,B|224:264|248:240|248:240|240:216|240:216|256:192|256:152,1,147,8|4
256,160,1863,2,0,B|208:96|128:104,1,147,8|2
112,136,2974,1,2
96,168,3345,1,8
40,304,4085,2,0,B|88:360|184:360,1,147,2|8
312,320,5567,5,2
328,288,5937,1,2
344,256,6308,2,0,B|368:208,2,36.75,8|2|2
288,208,7048,6,0,B|256:168|256:168|240:112|272:72,1,147,4|8
304,64,8160,2,0,B|456:56,1,147,4|2
488,120,9271,2,0,B|512:168,4,36.75,8|8|2|2|4
440,256,10752,5,8
440,256,11123,2,0,B|408:320|408:320|368:344|312:320,1,147,6|8
304,320,12234,1,8
272,312,12604,1,8
240,304,12974,1,4
96,256,13715,6,0,B|56:216|64:144|120:120,1,147,8|2
144,120,14826,2,0,B|224:112,1,73.5,2|8
360,104,15937,2,0,B|400:144|392:216|336:240,1,147,2|8
312,240,17048,1,0
272,248,17419,1,2
232,256,17789,1,2
192,264,18160,6,0,B|128:264|104:208|104:208|120:168,1,147,8|2
184,48,19641,2,0,B|256:16|328:64,1,147,8|2
352,88,20752,2,0,B|368:160,1,73.5,2|8
376,200,21493,1,0
384,240,21863,6,0,B|336:304|248:288,1,147,2|8
112,264,23345,2,0,B|80:320,2,36.75,2|8|2
128,232,24085,2,0,B|160:184|128:120|72:120,1,147,8|6
224,88,25567,6,0,B|304:80,1,73.5,8|0
328,96,26308,2,0,B|400:104,1,73.5,2|2
424,128,27048,2,0,B|448:160|440:200,1,73.5,8|0
432,232,27789,2,0,B|360:192|288:240,1,147,2|8
152,280,29271,5,2
120,264,29641,1,2
88,248,30011,2,0,B|56:168|96:104,1,147,8|2
224,32,31493,2,0,B|216:112|280:160,1,147,8|2
320,160,32604,2,0,B|408:152,1,73.5,2|8
256,208,33715,6,0,B|168:216,1,73.5,2|0
144,224,34456,2,0,B|96:240|88:320|136:344,1,147,8|2
168,352,35567,2,0,B|256:344,1,73.5,2|8
256,336,36123,6,0,B|320:344,3,36.75,0|0|0|4
432,296,37419,6,0,B|464:248|464:248|472:200|448:160,1,147,2|2
424,136,38530,1,0
392,112,38900,2,0,B|353:89|305:97|305:97|257:129,1,147,8|2
216,272,40382,2,0,B|216:312|192:336|192:336|152:352|112:328,1,147,2|2
88,312,41493,1,0
56,296,41863,2,0,B|0:264,4,36.75,8|0|0|0|2
136,176,43345,5,2
256,96,44085,1,2
376,176,44826,1,8
392,208,45197,1,0
408,240,45567,2,0,B|384:320|296:320,1,147,2|2
264,312,46678,1,8
232,304,47048,2,0,B|168:312,2,36.75,8|8|0
216,232,47789,2,0,B|160:240,4,36.75,8|0|0|0|4
288,208,49271,6,0,B|312:160|264:96|208:112,1,147,2|2
180,124,50382,1,0
148,140,50752,2,0,B|76:176,2,73.5,8|0|2
284,192,52234,2,0,B|360:152,2,73.5,2|8|2
256,208,53345,1,8
224,224,53715,2,0,B|168:256,2,36.75,8|8|2
200,152,54456,6,0,B|216:104|176:48|120:56,1,147,6|8
88,72,55567,1,2
56,96,55937,2,0,B|24:120|16:160|16:160|24:192|56:216,1,147,2|8
88,232,57048,1,2
120,248,57419,2,0,B|208:288,1,73.5,8|8
184,312,58160,2,0,B|272:320,1,73.5,8|8
280,296,58900,6,0,B|312:328,4,36.75,8|8|0|0|2
256,264,60011,2,0,B|240:216|264:176,1,73.5,0|6
368,88,61130,2,0,B|384:128|368:176,1,73.5,8|0
360,192,61871,2,0,B|336:240,2,36.75,2|8|2
296,152,62612,6,0,B|224:96|144:152,1,147,8|2
152,288,64093,2,0,B|224:336|304:288,1,147,8|2
304,264,65204,1,2
312,232,65575,6,0,B|352:208|400:224,2,73.5,8|0|2
176,288,67056,2,0,B|120:304|72:256|88:200,1,147,8|2
104,176,68167,1,2
128,152,68538,2,0,B|200:144,1,73.5,8|0
232,160,69278,2,0,B|280:176|336:120|312:72,1,147,6|8
168,32,70760,6,0,B|112:16|64:72|88:120,1,147,2|8
104,152,71871,1,0
120,184,72241,2,0,B|136:224|120:256|120:256|104:288|120:328,1,147,6|8
264,312,73723,2,0,B|336:304,1,73.5,2|2
368,320,74464,2,0,B|400:240,1,73.5,8|0
432,240,75204,2,0,B|448:192|408:136|352:144,1,147,2|8
320,128,76315,2,0,B|256:136,2,36.75,2|8|2
240,256,77427,6,0,B|200:264|168:248,1,73.5,8|0
136,232,78167,2,0,B|96:224|64:240,2,73.5,6|2|8
272,176,79649,2,0,B|304:152|312:112,2,73.5,2|2|8
232,168,80760,1,0
200,160,81130,6,0,B|160:152|120:176,1,73.5,6|0
104,200,81871,2,0,B|104:248,4,36.75,0|0|0|0|4
192,80,83352,5,2
192,80,83723,2,0,B|232:72|272:88,1,73.5,0|4
392,160,84834,1,2
392,160,85204,2,0,B|352:168|312:152,1,73.5,0|0
192,80,86315,1,2
256,192,87056,12,0,89278
