osu file format v12

[General]
AudioFilename: Yume Sekai.mp3
AudioLeadIn: 0
PreviewTime: 59271
Countdown: 0
SampleSet: Normal
StackLeniency: 0.7
Mode: 3
LetterboxInBreaks: 0
SpecialStyle: 0
WidescreenStoryboard: 1

[Editor]
DistanceSpacing: 1
BeatDivisor: 8
GridSize: 8
TimelineZoom: 1

[Metadata]
Title:Yume Sekai (TV Size)
TitleUnicode:ユメセカイ (TV Size)
Artist:Tomatsu Haruka
ArtistUnicode:戸松 遥
Creator:HinagikuKatsura
Version:7K HD
Source:ソードアート・オンライン
Tags:ending sao ed SWORD ART ONLINE
BeatmapID:343065
BeatmapSetID:137197

[Difficulty]
HPDrainRate:8
CircleSize:7
OverallDifficulty:8
ApproachRate:5
SliderMultiplier:1.4
SliderTickRate:1

[Events]
//Background and Video events
Video,0,"Yume Sekai TH.avi"
0,0,"BG.jpg",0,0
//Break Periods
//Storyboard Layer 0 (Background)
//Storyboard Layer 1 (Fail)
//Storyboard Layer 2 (Pass)
//Storyboard Layer 3 (Foreground)
//Storyboard Sound Samples
//Background Colour Transformations
3,100,163,162,255
3,100,163,162,255

[TimingPoints]
1123,740.740740740741,4,1,1,50,1,0
60382,-100,4,1,1,50,0,1
82604,-117.647058823529,4,1,1,50,0,0

[HitObjects]
109,192,197,5,0,0:0:0:40:snare.wav
402,192,289,1,0,0:0:0:40:snare.wav
182,192,382,1,0,0:0:0:40:snare.wav
329,192,567,1,0,0:0:0:40:tom.wav
256,192,1123,1,0,0:0:0:40:2-3.ogg
36,192,1123,128,0,2604:0:0:0:40:4-0.ogg
475,192,1123,1,4,0:0:0:40:kick.wav
329,192,1493,1,0,0:0:0:40:3-2.ogg
402,192,1863,1,0,0:0:0:40:snare.wav
182,192,1863,128,0,2234:0:0:0:40:5-1.ogg
475,192,2234,1,0,0:0:0:40:3-2.ogg
109,192,2604,1,0,0:0:0:40:2-2.ogg
256,192,2604,1,0,0:0:0:40:5-0.ogg
402,192,2604,1,0,0:0:0:40:kick.wav
329,192,2974,1,0,0:0:0:40:3-0.ogg
475,192,2974,1,0,0:0:0:40:kick.wav
402,192,3345,1,0,0:0:0:40:snare.wav
256,192,3345,1,0,0:0:0:40:3-0.ogg
182,192,3715,1,0,0:0:0:40:4-2.ogg
36,192,4085,1,0,0:0:0:40:2-0.ogg
475,192,4085,1,0,0:0:0:40:4-0.ogg
402,192,4085,1,0,0:0:0:40:kick.wav
182,192,4456,1,0,0:0:0:40:3-2.ogg
329,192,4826,1,0,0:0:0:40:5-1.ogg
475,192,4826,1,0,0:0:0:40:snare.wav
182,192,5197,1,0,0:0:0:40:3-2.ogg
36,192,5567,1,0,0:0:0:15:1-3.ogg
329,192,5567,1,0,0:0:0:40:5-3.ogg
256,192,5567,1,0,0:0:0:40:kick.wav
402,192,5937,1,0,0:0:0:40:5-1.ogg
475,192,5937,1,0,0:0:0:40:kick.wav
329,192,6308,1,0,0:0:0:40:5-0.ogg
256,192,6308,1,0,0:0:0:40:snare.wav
182,192,6493,1,0,0:0:0:40:tom.wav
475,192,6678,128,0,7048:0:0:0:40:5-1.ogg
109,192,6678,1,0,0:0:0:40:tom.wav
36,192,6863,1,0,0:0:0:40:tom01.wav
109,192,7048,1,0,0:0:0:20:1-1.ogg
256,192,7048,1,0,0:0:0:40:cymbol.wav
402,192,7048,1,0,0:0:0:40:4-2.ogg
256,192,7604,1,0,0:0:0:40:kick.wav
329,192,7604,1,0,0:0:0:40:3-3.ogg
109,192,7604,1,0,0:0:0:40:4-2.ogg
182,192,7789,1,0,0:0:0:40:snare.wav
402,192,7789,1,0,0:0:0:40:snare.wav
36,192,8160,1,0,0:0:0:20:1-1.ogg
256,192,8160,1,0,0:0:0:40:3-3.ogg
329,192,8160,1,0,0:0:0:40:4-1.ogg
475,192,8160,1,0,0:0:0:40:cymbol.wav
36,192,8715,128,0,9826:0:0:0:40:3-3.ogg
475,192,8715,1,0,0:0:0:40:snare.wav
109,192,8900,128,0,9826:0:0:0:40:4-1.ogg
402,192,8900,1,0,0:0:0:40:snare.wav
329,192,9085,1,0,0:0:0:40:5-3.ogg
182,192,9271,1,0,0:0:0:40:5-4.ogg
402,192,9271,1,0,0:0:0:40:snare.wav
256,192,9456,1,0,0:0:0:40:5-3.ogg
475,192,9456,1,0,0:0:0:40:snare.wav
329,192,9641,1,0,0:0:0:40:5-1.ogg
402,192,9641,1,0,0:0:0:40:tom.wav
182,192,10011,1,0,0:0:0:20:1-3.ogg
475,192,10011,1,0,0:0:0:40:5-1.ogg
256,192,10011,128,0,10752:0:0:0:40:4-2.ogg
402,192,10011,1,0,0:0:0:40:cymbol.wav
182,192,10382,1,0,0:0:0:40:5-0.ogg
109,192,10567,1,0,0:0:0:40:kick.wav
36,192,10752,1,0,0:0:0:40:5-1.ogg
402,192,10752,1,0,0:0:0:40:snare.wav
109,192,11123,1,0,0:0:0:20:1-3.ogg
475,192,11123,1,0,0:0:0:40:4-0.ogg
329,192,11123,1,0,0:0:0:40:5-0.ogg
182,192,11123,1,0,0:0:0:40:cymbol.wav
182,192,11493,1,0,0:0:0:40:3-0.ogg
402,192,11493,1,0,0:0:0:40:snare.wav
256,192,11863,1,0,0:0:0:40:4-2.ogg
475,192,11863,1,0,0:0:0:40:snare.wav
475,192,12234,1,0,0:0:0:40:snare.wav
109,192,12234,128,0,13345:0:0:0:40:4-0.ogg
329,192,12234,1,0,0:0:0:40:snare.wav
329,192,12604,1,0,0:0:0:40:snare.wav
182,192,12604,1,0,0:0:0:40:snare.wav
36,192,12974,1,0,0:0:0:40:2-3.ogg
475,192,12974,1,0,0:0:0:40:cymbol.wav
329,192,13345,1,0,0:0:0:40:5-1.ogg
256,192,13715,1,0,0:0:0:40:4-0.ogg
36,192,13715,1,0,0:0:0:40:5-1.ogg
475,192,13715,1,0,0:0:0:40:snare.wav
329,192,14085,1,0,0:0:0:40:5-1.ogg
182,192,14271,1,0,0:0:0:40:5-0.ogg
36,192,14456,1,0,0:0:0:40:2-3.ogg
402,192,14456,1,0,0:0:0:40:kick.wav
109,192,14826,1,0,0:0:0:40:2-3.ogg
182,192,14826,1,0,0:0:0:40:5-1.ogg
475,192,14826,1,0,0:0:0:40:kick.wav
402,192,15011,1,0,0:0:0:40:5-3.ogg
109,192,15197,128,0,15937:0:0:0:40:3-2.ogg
329,192,15197,1,0,0:0:0:40:snare.wav
182,192,15382,128,0,15937:0:0:0:40:4-0.ogg
256,192,15567,128,0,15937:0:0:0:40:5-0.ogg
329,192,15752,128,0,15937:0:0:0:40:5-1.ogg
36,192,15937,1,0,0:0:0:20:1-0.ogg
475,192,15937,1,0,0:0:0:40:kick.wav
329,192,16308,1,0,0:0:0:40:2-3.ogg
182,192,16678,1,0,0:0:0:40:3-2.ogg
402,192,16678,1,0,0:0:0:40:snare.wav
36,192,16678,1,0,0:0:0:40:snare.wav
256,192,17048,1,0,0:0:0:40:4-0.ogg
109,192,17234,1,0,0:0:0:40:kick.wav
256,192,17419,1,0,0:0:0:20:1-0.ogg
475,192,17419,1,0,0:0:0:40:kick.wav
109,192,17789,1,0,0:0:0:20:1-0.ogg
182,192,17789,1,0,0:0:0:40:5-1.ogg
402,192,17789,1,0,0:0:0:40:kick.wav
256,192,18160,1,0,0:0:0:40:5-0.ogg
475,192,18160,1,0,0:0:0:40:snare.wav
329,192,18160,1,0,0:0:0:40:snare.wav
182,192,18345,1,0,0:0:0:40:4-2.ogg
109,192,18530,1,0,0:0:0:40:4-0.ogg
36,192,18900,1,0,0:0:0:20:1-1.ogg
256,192,18900,128,0,20011:0:0:0:40:4-2.ogg
329,192,18900,1,0,0:0:0:40:kick.wav
109,192,19271,1,0,0:0:0:40:2-3.ogg
182,192,19641,1,0,0:0:0:40:3-3.ogg
475,192,19641,1,0,0:0:0:40:snare.wav
36,192,19641,1,0,0:0:0:40:snare.wav
329,192,20011,1,0,0:0:0:40:5-0.ogg
182,192,20197,1,0,0:0:0:40:kick.wav
402,192,20197,1,0,0:0:0:40:5-1.ogg
51,192,20382,1,0,0:0:0:20:1-1.ogg
475,192,20382,128,0,21123:0:0:0:40:kick.wav
329,192,20752,1,0,0:0:0:20:1-1.ogg
109,192,20752,1,0,0:0:0:40:kick.wav
182,192,20937,1,0,0:0:0:40:4-0.ogg
256,192,21123,1,0,0:0:0:40:snare.wav
36,192,21123,1,0,0:0:0:40:snare.wav
182,192,21308,1,0,0:0:0:40:3-3.ogg
402,192,21493,1,0,0:0:0:40:4-2.ogg
109,192,21863,1,0,0:0:0:20:1-1.ogg
329,192,21863,1,0,0:0:0:40:5-1.ogg
475,192,21863,1,0,0:0:0:40:kick.wav
182,192,22234,1,0,0:0:0:40:3-3.ogg
256,192,22604,1,0,0:0:0:40:4-1.ogg
402,192,22604,1,0,0:0:0:40:snare.wav
36,192,22604,1,0,0:0:0:40:snare.wav
182,192,22974,1,0,0:0:0:40:3-3.ogg
109,192,23160,1,0,0:0:0:40:kick.wav
36,192,23345,1,0,0:0:0:20:1-3.ogg
329,192,23345,1,0,0:0:0:40:4-0.ogg
475,192,23345,1,0,0:0:0:40:5-1.ogg
402,192,23345,1,0,0:0:0:40:kick.wav
109,192,23530,1,0,0:0:0:40:snare.wav
182,192,23715,1,0,0:0:0:40:3-0.ogg
329,192,23715,1,0,0:0:0:40:kick.wav
109,192,24085,1,0,0:0:0:40:3-3.ogg
256,192,24085,1,0,0:0:0:40:5-0.ogg
402,192,24085,1,0,0:0:0:40:snare.wav
256,192,24456,1,0,0:0:0:40:cymbol.wav
36,192,24826,1,0,0:0:0:40:2-3.ogg
475,192,24826,1,0,0:0:0:40:kick.wav
109,192,25197,1,0,0:0:0:40:5-1.ogg
256,192,25567,1,0,0:0:0:40:5-1.ogg
182,192,25567,1,0,0:0:0:40:4-0.ogg
402,192,25567,1,0,0:0:0:40:snare.wav
329,192,25937,1,0,0:0:0:40:5-1.ogg
402,192,26123,1,0,0:0:0:40:5-0.ogg
109,192,26308,1,0,0:0:0:40:2-3.ogg
475,192,26308,1,0,0:0:0:40:kick.wav
402,192,26493,1,0,0:0:0:40:kick.wav
329,192,26678,1,0,0:0:0:40:5-1.ogg
36,192,26678,128,0,30382:0:0:0:40:2-3.ogg
256,192,26678,1,0,0:0:0:40:kick.wav
402,192,26863,1,0,0:0:0:40:5-3.ogg
109,192,27048,128,0,27789:0:0:0:40:3-2.ogg
475,192,27048,1,0,0:0:0:40:snare.wav
256,192,27048,1,0,0:0:0:40:snare.wav
182,192,27234,128,0,27789:0:0:0:40:4-0.ogg
256,192,27419,128,0,27789:0:0:0:40:5-0.ogg
329,192,27604,1,0,0:0:0:40:snare.wav
475,192,27604,1,0,0:0:0:40:5-1.ogg
402,192,27789,1,0,0:0:0:20:1-0.ogg
256,192,28160,128,0,30382:0:0:0:40:3-2.ogg
402,192,28530,1,0,0:0:0:40:4-0.ogg
329,192,28530,1,0,0:0:0:40:snare.wav
475,192,28900,128,0,29271:0:0:0:40:5-3.ogg
109,192,29085,1,0,0:0:0:40:kick.wav
402,192,29271,1,0,0:0:0:20:1-0.ogg
182,192,29271,1,0,0:0:0:40:kick.wav
329,192,29641,1,0,0:0:0:20:1-0.ogg
402,192,29641,1,0,0:0:0:40:5-1.ogg
109,192,29641,1,0,0:0:0:40:kick.wav
182,192,30011,1,0,0:0:0:40:5-0.ogg
475,192,30011,1,0,0:0:0:40:snare.wav
402,192,30197,1,0,0:0:0:40:4-2.ogg
329,192,30382,1,0,0:0:0:40:4-0.ogg
51,192,30752,1,0,0:0:0:20:1-1.ogg
256,192,30752,128,0,31863:0:0:0:40:4-2.ogg
475,192,30752,1,0,0:0:0:40:kick.wav
109,192,31123,1,0,0:0:0:40:2-3.ogg
182,192,31493,1,0,0:0:0:40:3-3.ogg
475,192,31493,1,0,0:0:0:40:snare.wav
36,192,31493,1,0,0:0:0:40:snare.wav
329,192,31863,1,0,0:0:0:40:5-0.ogg
402,192,32048,1,0,0:0:0:40:5-1.ogg
36,192,32234,1,0,0:0:0:20:1-1.ogg
182,192,32234,1,0,0:0:0:40:kick.wav
182,192,32604,1,0,0:0:0:20:1-1.ogg
256,192,32604,1,0,0:0:0:40:4-0.ogg
329,192,32604,1,0,0:0:0:40:kick.wav
475,192,32974,1,0,1:0:0:70:snare.wav
36,192,32974,1,0,0:0:0:40:snare.wav
109,192,32974,1,0,0:0:0:40:3-3.ogg
182,192,33345,1,0,0:0:0:20:1-3.ogg
329,192,33345,1,0,0:0:0:40:4-2.ogg
36,192,33715,1,0,0:0:0:40:1-4.ogg
329,192,33715,128,0,34456:0:0:0:40:5-1.ogg
475,192,33715,1,0,0:0:0:40:kick.wav
256,192,34085,1,0,0:0:0:20:1-3.ogg
182,192,34456,1,0,0:0:0:20:1-1.ogg
402,192,34456,128,0,35197:0:0:0:40:4-1.ogg
109,192,34456,1,0,0:0:0:40:snare.wav
36,192,34826,1,0,0:0:0:40:3-3.ogg
182,192,35011,1,0,0:0:0:40:kick.wav
109,192,35197,1,0,0:0:0:20:1-3.ogg
256,192,35197,1,0,0:0:0:40:4-5.ogg
475,192,35197,1,0,0:0:0:40:kick.wav
256,192,35567,128,0,36308:0:0:0:40:3-0.ogg
36,192,35567,1,0,0:0:0:40:kick.wav
329,192,35937,128,0,36308:0:0:0:40:4-4.ogg
402,192,35937,128,0,36308:0:0:0:40:5-3.ogg
36,192,35937,1,0,0:0:0:40:snare.wav
182,192,36123,1,0,0:0:0:40:tom.wav
109,192,36308,1,0,0:0:0:40:tom01.wav
36,192,36493,1,0,0:0:0:40:kick.wav
182,192,36678,1,0,0:0:0:20:1-1.ogg
475,192,36678,1,0,0:0:0:40:cymbol.wav
256,192,37048,1,0,0:0:0:40:5-1.ogg
109,192,37048,1,0,0:0:0:40:6-0.ogg
329,192,37234,1,0,0:0:0:40:5-1.ogg
182,192,37234,1,0,0:0:0:40:6-0.ogg
36,192,37419,1,0,0:0:0:20:1-1.ogg
475,192,37419,1,0,0:0:0:40:kick.wav
256,192,37789,1,0,0:0:0:40:5-1.ogg
402,192,37789,1,0,0:0:0:40:6-0.ogg
182,192,37974,1,0,0:0:0:40:6-1.ogg
329,192,37974,1,0,0:0:0:40:5-3.ogg
36,192,38160,1,0,0:0:0:20:1-1.ogg
475,192,38160,1,0,0:0:0:40:kick.wav
182,192,38530,1,0,0:0:0:40:5-1.ogg
109,192,38530,1,0,0:0:0:40:6-0.ogg
51,192,38900,1,0,0:0:0:20:1-1.ogg
329,192,38900,1,0,0:0:0:40:5-3.ogg
256,192,38900,1,0,0:0:0:40:4-4.ogg
475,192,38900,1,0,0:0:0:40:kick.wav
329,192,39271,1,0,0:0:0:40:4-2.ogg
402,192,39271,1,0,0:0:0:40:5-1.ogg
36,192,39641,1,0,0:0:0:20:1-1.ogg
402,192,39641,128,0,40382:0:0:0:40:5-3.ogg
475,192,39641,128,0,40382:0:0:0:40:4-4.ogg
182,192,39641,1,0,0:0:0:40:kick.wav
256,192,40011,1,0,0:0:0:40:6-0.ogg
109,192,40197,1,0,0:0:0:40:6-1.ogg
256,192,40382,1,0,0:0:0:20:1-1.ogg
182,192,40382,1,0,0:0:0:40:kick.wav
256,192,40752,1,0,0:0:0:40:6-0.ogg
329,192,40937,1,0,0:0:0:40:5-3.ogg
51,192,41123,1,0,0:0:0:20:1-1.ogg
109,192,41123,1,0,0:0:0:40:kick.wav
402,192,41493,1,0,0:0:0:40:3-0.ogg
329,192,41493,1,0,0:0:0:40:kick.wav
51,192,41863,1,0,0:0:0:20:1-1.ogg
256,192,41863,1,0,0:0:0:40:4-4.ogg
475,192,41863,1,0,0:0:0:40:snare.wav
109,192,42048,1,0,0:0:0:40:kick.wav
182,192,42234,1,0,0:0:0:40:3-0.ogg
402,192,42234,1,0,0:0:0:40:kick.wav
51,192,42604,1,0,0:0:0:20:1-0.ogg
475,192,42604,1,0,0:0:0:40:kick.wav
329,192,42974,1,0,0:0:0:40:6-0.ogg
256,192,42974,128,0,45197:0:0:0:40:4-0.ogg
402,192,43160,1,0,0:0:0:40:6-0.ogg
51,192,43345,1,0,0:0:0:20:1-0.ogg
475,192,43345,1,0,0:0:0:40:kick.wav
182,192,43715,128,0,44456:0:0:0:40:5-0.ogg
329,192,43715,1,0,0:0:0:40:6-0.ogg
402,192,43900,1,0,0:0:0:40:6-1.ogg
51,192,44085,128,0,44826:0:0:0:20:1-0.ogg
475,192,44085,1,0,0:0:0:40:kick.wav
402,192,44456,1,0,0:0:0:40:6-0.ogg
109,192,44826,1,0,0:0:0:40:2-2.ogg
329,192,44826,1,0,0:0:0:40:5-3.ogg
475,192,44826,1,0,0:0:0:40:snare.wav
182,192,45197,1,0,0:0:0:40:2-1.ogg
402,192,45197,1,0,0:0:0:40:5-1.ogg
36,192,45567,1,0,0:0:0:40:2-0.ogg
256,192,45567,128,0,46308:0:0:0:40:4-2.ogg
329,192,45567,1,0,0:0:0:40:5-3.ogg
109,192,45567,1,0,0:0:0:40:kick.wav
402,192,45937,128,0,46308:0:0:0:40:5-1.ogg
182,192,46308,1,0,0:0:0:40:3-2.ogg
475,192,46308,1,0,0:0:0:40:kick.wav
329,192,46678,1,0,0:0:0:40:4-0.ogg
36,192,46678,1,0,0:0:0:40:snare.wav
36,192,47048,1,0,0:0:0:20:1-3.ogg
109,192,47048,128,0,47789:0:0:0:40:4-2.ogg
182,192,47048,1,0,0:0:0:40:snare.wav
256,192,47234,1,0,0:0:0:40:tom.wav
402,192,47419,128,0,47789:0:0:0:40:5-1.ogg
329,192,47419,1,0,0:0:0:40:kick.wav
475,192,47789,1,0,0:0:0:40:2-3.ogg
256,192,47789,1,0,0:0:0:40:kick.wav
182,192,47974,1,0,0:0:0:40:kick.wav
36,192,48160,1,0,0:0:0:20:1-3.ogg
256,192,48160,1,0,0:0:0:40:kick.wav
329,192,48345,1,0,0:0:0:40:kick.wav
36,192,48530,1,0,0:0:0:20:1-1.ogg
475,192,48530,1,0,0:0:0:40:kick.wav
256,192,48530,1,0,1:0:0:70:cymbol.wav
182,192,48530,1,0,0:0:0:40:kick.wav
182,192,48900,1,0,0:0:0:40:5-1.ogg
329,192,48900,1,0,0:0:0:40:6-0.ogg
402,192,49085,1,0,0:0:0:40:6-0.ogg
256,192,49085,1,0,0:0:0:40:5-1.ogg
51,192,49271,1,0,0:0:0:20:1-1.ogg
475,192,49271,1,0,0:0:0:40:kick.wav
182,192,49641,1,0,0:0:0:40:5-1.ogg
329,192,49641,1,0,0:0:0:40:6-0.ogg
256,192,49826,1,0,0:0:0:40:6-1.ogg
109,192,49826,1,0,0:0:0:40:5-3.ogg
51,192,50011,1,0,0:0:0:20:1-1.ogg
475,192,50011,1,0,0:0:0:40:kick.wav
329,192,50382,1,0,0:0:0:40:5-1.ogg
402,192,50382,1,0,0:0:0:40:6-0.ogg
36,192,50752,1,0,0:0:0:20:1-1.ogg
256,192,50752,1,0,0:0:0:40:4-4.ogg
329,192,50752,1,0,0:0:0:40:5-3.ogg
475,192,50752,1,0,0:0:0:40:kick.wav
182,192,51123,1,0,0:0:0:40:4-2.ogg
256,192,51123,1,0,0:0:0:40:5-1.ogg
402,192,51123,1,0,0:0:0:40:kick.wav
51,192,51493,1,0,0:0:0:20:1-3.ogg
329,192,51493,1,0,0:0:0:40:5-3.ogg
256,192,51493,128,0,53345:0:0:0:40:4-4.ogg
475,192,51493,1,0,0:0:0:40:kick.wav
36,192,51863,1,0,0:0:0:20:1-3.ogg
109,192,52048,1,0,0:0:0:40:5-6.ogg
182,192,52234,1,0,0:0:0:40:5-5.ogg
475,192,52234,1,0,0:0:0:40:kick.wav
402,192,52604,1,0,0:0:0:40:5-5.ogg
109,192,52604,1,0,0:0:0:40:snare.wav
182,192,52789,1,0,0:0:0:40:5-3.ogg
475,192,52974,1,0,0:0:0:20:1-3.ogg
329,192,52974,1,0,0:0:0:40:kick.wav
36,192,53345,1,0,0:0:0:40:3-5.ogg
329,192,53345,1,0,0:0:0:40:snare.wav
402,192,53530,1,0,0:0:0:40:kick.wav
109,192,53530,1,0,0:0:0:40:kick.wav
36,192,53715,1,0,0:0:0:20:1-3.ogg
256,192,53715,1,0,0:0:0:40:4-4.ogg
475,192,53715,1,0,0:0:0:40:snare.wav
402,192,53900,1,0,0:0:0:40:tom.wav
109,192,54085,1,0,0:0:0:40:3-7.ogg
329,192,54085,1,0,0:0:0:40:kick.wav
36,192,54456,1,0,0:0:0:40:3-0.ogg
182,192,54456,1,0,0:0:0:40:5-1.ogg
475,192,54456,1,0,0:0:0:40:cymbol.wav
256,192,54826,1,0,0:0:0:40:4-2.ogg
402,192,54826,1,0,0:0:0:40:kick.wav
182,192,55197,1,0,0:0:0:40:3-0.ogg
329,192,55197,1,0,0:0:0:40:5-1.ogg
109,192,55197,1,0,0:0:0:40:snare.wav
256,192,55567,1,0,0:0:0:40:4-2.ogg
402,192,55567,1,0,0:0:0:40:kick.wav
51,192,55937,1,0,0:0:0:20:1-0.ogg
475,192,55937,1,0,0:0:0:40:4-0.ogg
329,192,55937,1,0,0:0:0:40:5-1.ogg
182,192,55937,1,0,0:0:0:40:kick.wav
109,192,56308,1,0,0:0:0:40:kick.wav
402,192,56308,1,0,0:0:0:40:4-2.ogg
182,192,56678,1,0,0:0:0:20:1-0.ogg
256,192,56678,1,0,0:0:0:40:5-1.ogg
475,192,56678,1,0,0:0:0:40:snare.wav
329,192,57048,1,0,0:0:0:40:5-3.ogg
36,192,57048,1,0,0:0:0:40:kick.wav
109,192,57419,1,0,0:0:0:20:1-1.ogg
475,192,57419,128,0,57789:0:0:0:40:6-5.ogg
256,192,57419,1,0,0:0:0:40:snare.wav
182,192,57789,1,0,0:0:0:40:4-0.ogg
329,192,57789,1,0,0:0:0:40:snare.wav
256,192,58160,128,0,58530:0:0:0:40:4-2.ogg
402,192,58160,128,0,58530:0:0:0:40:6-3.ogg
36,192,58160,1,0,0:0:0:40:snare.wav
329,192,58530,1,0,0:0:0:40:5-1.ogg
182,192,58530,1,0,0:0:0:40:snare.wav
475,192,58900,1,0,0:0:0:20:1-3.ogg
109,192,58900,1,0,0:0:0:40:5-0.ogg
329,192,58900,1,0,0:0:0:40:4-0.ogg
36,192,58900,1,0,0:0:0:40:snare.wav
402,192,59085,1,0,0:0:0:40:snare.wav
256,192,59085,1,0,0:0:0:40:snare.wav
329,192,59271,1,0,0:0:0:40:3-0.ogg
182,192,59271,1,0,0:0:0:40:tom.wav
256,192,59456,1,0,0:0:0:40:5-1.ogg
109,192,59456,1,0,0:0:0:40:tom01.wav
36,192,59641,1,0,0:0:0:40:tom.wav
182,192,59641,1,0,0:0:0:40:kick.wav
475,192,59826,1,0,0:0:0:40:5-1.ogg
329,192,59826,1,0,0:0:0:40:tom.wav
182,192,60011,1,0,0:0:0:40:5-0.ogg
36,192,60011,1,0,0:0:0:40:kick.wav
109,192,60197,1,0,0:0:0:40:5-1.ogg
402,192,60197,1,0,0:0:0:40:kick.wav
182,192,60382,1,0,0:0:0:40:2-3.ogg
36,192,60382,128,0,60752:0:0:0:40:4-0.ogg
475,192,60382,128,0,60752:0:0:0:40:6-0.ogg
329,192,60382,1,0,0:0:0:40:kick.wav
256,192,60382,1,0,0:0:0:40:cymbol.wav
402,192,60752,1,0,0:0:0:40:5-6.ogg
329,192,61123,1,0,0:0:0:40:6-3.ogg
182,192,61123,1,0,0:0:0:40:snare.wav
109,192,61123,1,0,0:0:0:40:4-5.ogg
402,192,61493,1,0,0:0:0:40:6-5.ogg
109,192,61863,1,0,0:0:0:40:2-3.ogg
256,192,61863,1,0,0:0:0:40:6-3.ogg
475,192,61863,1,0,0:0:0:40:kick.wav
402,192,62048,1,0,0:0:0:40:kick.wav
36,192,62234,1,0,0:0:0:40:2-3.ogg
182,192,62234,1,0,0:0:0:40:5-6.ogg
329,192,62234,1,0,0:0:0:40:snare.wav
256,192,62604,1,0,0:0:0:40:5-5.ogg
402,192,62604,1,0,0:0:0:40:snare.wav
475,192,62974,1,0,0:0:0:40:5-3.ogg
402,192,63160,1,0,0:0:0:40:6-0.ogg
36,192,63345,128,0,64456:0:0:0:40:2-2.ogg
329,192,63345,1,0,0:0:0:40:kick.wav
109,192,63715,128,0,64456:0:0:0:40:3-3.ogg
182,192,64085,128,0,64456:0:0:0:40:4-2.ogg
475,192,64085,1,0,0:0:0:40:snare.wav
329,192,64085,1,0,0:0:0:40:snare.wav
329,192,64456,1,0,0:0:0:40:6-1.ogg
256,192,64641,1,0,0:0:0:40:snare.wav
402,192,64641,1,0,0:0:0:40:6-0.ogg
182,192,64826,1,0,0:0:0:40:kick.wav
475,192,64826,128,0,65567:0:0:0:20:1-0.ogg
256,192,65011,1,0,0:0:0:40:5-3.ogg
109,192,65197,1,0,0:0:0:40:3-2.ogg
329,192,65197,1,0,0:0:0:40:kick.wav
182,192,65567,1,0,0:0:0:40:4-1.ogg
402,192,65567,1,0,0:0:0:40:snare.wav
256,192,65937,1,0,0:0:0:40:3-2.ogg
36,192,66308,1,0,0:0:0:40:2-0.ogg
182,192,66308,1,0,0:0:0:40:4-0.ogg
329,192,66308,1,0,0:0:0:40:6-0.ogg
475,192,66308,1,0,0:0:0:40:snare.wav
402,192,66678,1,0,0:0:0:40:6-1.ogg
109,192,66678,1,0,0:0:0:40:4-2.ogg
256,192,67048,1,0,0:0:0:40:6-3.ogg
182,192,67048,1,0,0:0:0:40:4-4.ogg
475,192,67048,1,0,0:0:0:40:snare.wav
109,192,67419,1,0,0:0:0:40:4-5.ogg
402,192,67419,1,0,0:0:0:40:6-5.ogg
256,192,67604,1,0,0:0:0:40:kick.wav
36,192,67789,1,0,0:0:0:40:2-0.ogg
329,192,67789,1,0,0:0:0:40:4-4.ogg
182,192,67789,1,0,0:0:0:40:6-3.ogg
109,192,68160,1,0,0:0:0:40:2-0.ogg
256,192,68160,1,0,0:0:0:40:4-2.ogg
402,192,68160,1,0,0:0:0:40:6-1.ogg
182,192,68530,1,0,0:0:0:40:4-0.ogg
329,192,68530,1,0,0:0:0:40:6-0.ogg
475,192,68530,1,0,0:0:0:40:snare.wav
256,192,68900,1,0,0:0:0:40:4-2.ogg
402,192,68900,1,0,0:0:0:40:6-1.ogg
36,192,69271,1,0,0:0:0:20:1-3.ogg
329,192,69271,1,0,0:0:0:40:4-3.ogg
109,192,69271,1,0,0:0:0:40:6-3.ogg
475,192,69271,1,0,0:0:0:40:cymbol.wav
109,192,69641,1,0,0:0:0:40:3-3.ogg
329,192,69641,1,0,0:0:0:40:kick.wav
182,192,70011,1,0,0:0:0:40:4-3.ogg
402,192,70011,1,0,0:0:0:40:snare.wav
256,192,70382,1,0,0:0:0:40:4-5.ogg
402,192,70567,1,0,0:0:0:40:kick.wav
475,192,70567,1,0,0:0:0:40:6-6.ogg
36,192,70752,1,0,0:0:0:40:2-3.ogg
329,192,70752,1,0,0:0:0:40:cymbol.wav
109,192,70937,1,0,0:0:0:40:snare.wav
182,192,70937,1,0,0:0:0:40:6-5.ogg
256,192,71123,1,0,0:0:0:40:4-0.ogg
329,192,71308,1,0,0:0:0:40:6-3.ogg
475,192,71308,1,0,0:0:0:40:kick.wav
402,192,71493,1,0,0:0:0:40:snare.wav
329,192,71678,1,0,0:0:0:40:5-6.ogg
109,192,71678,1,0,0:0:0:40:tom.wav
36,192,71863,1,0,0:0:0:40:tom01.wav
402,192,72048,1,0,0:0:0:40:kick.wav
109,192,72048,1,0,0:0:0:40:6-0.ogg
182,192,72234,1,0,0:0:0:20:1-1.ogg
475,192,72234,1,0,0:0:0:40:cymbol.wav
402,192,72419,1,0,0:0:0:40:5-3.ogg
329,192,72604,128,0,72974:0:0:0:40:5-1.ogg
36,192,72974,1,0,0:0:0:40:2-3.ogg
475,192,72974,1,0,0:0:0:40:snare.wav
109,192,73345,1,0,0:0:0:40:4-0.ogg
36,192,73715,1,0,0:0:0:20:1-1.ogg
182,192,73715,1,0,0:0:0:40:4-0.ogg
402,192,73715,1,0,0:0:0:40:5-0.ogg
475,192,73715,1,0,0:0:0:40:kick.wav
109,192,74085,1,0,0:0:0:40:4-2.ogg
256,192,74085,1,0,0:0:0:40:5-1.ogg
329,192,74085,1,0,0:0:0:40:kick.wav
329,192,74456,1,0,0:0:0:40:4-4.ogg
402,192,74456,1,0,0:0:0:40:5-3.ogg
182,192,74456,1,0,0:0:0:40:snare.wav
256,192,74826,128,0,75197:0:0:0:40:4-0.ogg
329,192,74826,1,0,0:0:0:40:5-0.ogg
36,192,75197,1,0,0:0:0:20:1-0.ogg
109,192,75197,1,0,0:0:0:40:6-0.ogg
402,192,75197,1,0,0:0:0:40:5-0.ogg
475,192,75197,1,0,0:0:0:40:kick.wav
109,192,75567,128,0,76308:0:0:0:40:3-2.ogg
329,192,75937,1,0,0:0:0:40:4-0.ogg
402,192,75937,1,0,0:0:0:40:snare.wav
256,192,76308,1,0,0:0:0:40:4-4.ogg
402,192,76308,1,0,0:0:0:40:5-3.ogg
36,192,76493,1,0,0:0:0:40:kick.wav
182,192,76493,1,0,0:0:0:40:4-4.ogg
329,192,76493,1,0,0:0:0:40:5-3.ogg
109,192,76678,1,0,0:0:0:40:2-0.ogg
475,192,76678,1,0,0:0:0:40:kick.wav
36,192,76863,1,0,0:0:0:40:snare.wav
256,192,76863,1,0,0:0:0:40:4-2.ogg
402,192,76863,1,0,0:0:0:40:5-1.ogg
182,192,77048,1,0,0:0:0:40:kick.wav
109,192,77048,1,0,0:0:0:40:3-2.ogg
475,192,77419,128,0,78160:0:0:0:40:6-3.ogg
36,192,77419,1,0,0:0:0:40:snare.wav
256,192,77604,1,0,0:0:0:40:tom.wav
329,192,77789,128,0,78160:0:0:0:40:5-1.ogg
36,192,77789,1,0,0:0:0:40:tom01.wav
182,192,77974,1,0,0:0:0:40:kick.wav
256,192,78160,1,0,0:0:0:40:3-0.ogg
402,192,78160,1,0,0:0:0:40:kick.wav
36,192,78160,1,0,0:0:0:40:cymbol.wav
256,192,78530,1,0,0:0:0:40:4-2.ogg
182,192,78900,1,0,0:0:0:40:6-3.ogg
329,192,78900,1,0,0:0:0:40:snare.wav
256,192,79271,1,0,0:0:0:40:5-1.ogg
109,192,79641,1,0,0:0:0:20:1-3.ogg
402,192,79641,1,0,0:0:0:40:kick.wav
182,192,80011,1,0,0:0:0:40:3-0.ogg
475,192,80011,1,0,0:0:0:40:kick.wav
109,192,80197,1,0,0:0:0:40:4-0.ogg
402,192,80197,1,0,0:0:0:40:5-0.ogg
329,192,80382,1,0,0:0:0:40:5-0.ogg
36,192,80382,1,0,0:0:0:40:snare.wav
109,192,80752,1,0,0:0:0:40:5-1.ogg
475,192,80937,1,0,0:0:0:40:5-1.ogg
182,192,81123,1,0,0:0:0:40:2-0.ogg
256,192,81123,1,0,0:0:0:40:3-2.ogg
329,192,81123,128,0,81863:0:0:0:40:4-2.ogg
109,192,81493,1,0,0:0:0:40:snare.wav
36,192,81863,1,0,0:0:0:20:1-3.ogg
182,192,81863,1,0,0:0:0:40:3-2.ogg
256,192,81863,1,0,0:0:0:40:4-0.ogg
402,192,81863,1,0,0:0:0:40:snare.wav
109,192,82048,1,0,0:0:0:40:snare.wav
182,192,82234,1,0,0:0:0:40:tom01.wav
256,192,82419,1,0,0:0:0:40:kick.wav
36,192,82604,1,0,0:0:0:20:1-2.ogg
329,192,82604,1,0,0:0:0:40:4-2.ogg
402,192,82604,1,0,0:0:0:40:5-3.ogg
182,192,82604,1,0,0:0:0:40:cymbol.wav
475,192,83345,1,0,0:0:0:40:6-0.ogg
329,192,83715,1,0,0:0:0:40:5-1.ogg
402,192,84085,1,0,0:0:0:40:6-1.ogg
256,192,84085,1,0,0:0:0:40:4-2.ogg
182,192,84085,1,0,0:0:0:40:3-0.ogg
36,192,84826,1,0,0:0:0:40:6-0.ogg
256,192,85197,1,0,0:0:0:40:4-5.ogg
109,192,85567,1,0,0:0:0:20:1-3.ogg
329,192,85567,1,0,0:0:0:40:5-6.ogg
182,192,85567,1,0,0:0:0:40:3-0.ogg
36,192,86123,1,0,0:0:0:40:4-4.ogg
256,192,86308,1,0,0:0:0:40:4-4.ogg
475,192,86678,1,0,0:0:0:40:4-5.ogg
109,192,86863,1,0,0:0:0:40:4-5.ogg
