osu file format v9

[General]
AudioFilename: Tomatsu Haruka - Monochrome~version de l'apprivoiser~.mp3
AudioLeadIn: 2000
PreviewTime: 70925
Countdown: 0
SampleSet: Soft
StackLeniency: 0.4
Mode: 0
LetterboxInBreaks: 0
StoryFireInFront: 0

[Editor]
Bookmarks: 163274
DistanceSpacing: 0.9
BeatDivisor: 4
GridSize: 4

[Metadata]
Title:Monochrome
Artist:Tomatsu Haruka
Creator:wanhyrzh
Version:Normal
Source:Star Driver: Kagayaki no Takuto
Tags:Crazy Jay qinche impossiblexu kita miko fish girl mermaid Monokuroumu Sakana-chan

[Difficulty]
HPDrainRate:3
CircleSize:4
OverallDifficulty:3
ApproachRate:4
SliderMultiplier:1.4
SliderTickRate:1

[Events]
//Background and Video events
0,0,"background-osu.jpg"
//Break Periods
2,109212,120215
//Storyboard Layer 0 (Background)
Sprite,Background,CentreLeft,"storyboard\artist1.png",360,340 F,0,110057,111100,0,1 F,0,119448,120491,1,0
//Storyboard Layer 1 (Fail)
//Storyboard Layer 2 (Pass)
//Storyboard Layer 3 (Foreground)
//Storyboard Sound Samples
//Background Colour Transformations
3,100,163,162,255

[TimingPoints]
-1595,521.739130434783,4,2,0,100,1,0
491,-117.647058823529,4,2,1,20,0,0
4405,-117.647058823529,4,2,1,25,0,0
6231,-117.647058823529,4,2,1,20,0,0
6752,-117.647058823529,4,2,1,25,0,0
8578,-117.647058823529,4,2,1,30,0,0
12622,-117.647058823529,4,2,1,35,0,0
13535,-117.647058823529,4,2,1,35,0,0
14057,-117.647058823529,4,2,1,40,0,0
14187,-117.647058823529,4,2,1,35,0,0
15752,-117.647058823529,4,2,1,40,0,0
16405,-117.647058823529,4,2,1,30,0,0
16926,-117.647058823529,4,2,1,30,0,0
19013,-117.647058823529,4,2,1,25,0,0
19796,-117.647058823529,4,2,0,20,0,0
20318,-117.647058823529,4,2,0,10,0,0
20839,-117.647058823529,4,2,0,0,0,0
21361,-117.647058823529,4,2,1,100,0,0
22405,-100,4,2,1,70,0,0
22926,-100,4,2,1,40,0,0
23970,-100,4,2,1,30,0,0
24491,-100,4,2,1,40,0,0
25013,-100,4,2,1,35,0,0
25535,-100,4,2,1,50,0,0
26318,-100,4,2,1,40,0,0
27100,-100,4,2,1,30,0,0
27622,-100,4,2,1,40,0,0
29187,-100,4,2,1,30,0,0
29709,-100,4,2,1,30,0,0
30231,-100,4,2,1,40,0,0
30752,-100,4,2,1,50,0,0
31535,-100,4,2,1,25,0,0
31796,-100,4,2,1,20,0,0
32318,-100,4,2,1,40,0,0
32839,-100,4,2,1,15,0,0
32970,-100,4,2,1,40,0,0
33622,-100,4,2,1,35,0,0
33883,-100,4,2,1,50,0,0
34665,-100,4,2,1,35,0,0
34926,-100,4,2,1,50,0,0
35187,-100,4,2,1,35,0,0
36752,-100,4,2,1,35,0,0
37013,-100,4,2,1,50,0,0
37113,-100,4,2,1,35,0,0
37535,-100,4,2,1,50,0,0
39622,-100,4,2,1,40,0,0
39883,-100,4,2,1,50,0,0
41187,-100,4,2,1,60,0,0
42752,-100,4,2,1,45,0,0
43274,-100,4,2,1,60,0,0
43796,-100,4,2,1,40,0,0
44318,-100,4,2,1,60,0,0
45883,-100,4,2,1,40,0,0
46274,-100,4,2,1,50,0,0
47970,-100,4,2,1,35,0,0
48492,-100,4,2,1,50,0,0
50057,-100,4,2,1,35,0,0
50578,-100,4,2,1,55,0,0
52144,-100,4,2,1,40,0,0
52665,-100,4,2,1,55,0,0
53187,-100,4,2,1,30,0,0
53318,-100,4,2,1,55,0,0
54231,-100,4,2,1,60,0,0
54752,-100,4,2,1,80,0,0
55013,-100,4,2,1,40,0,0
55535,-100,4,2,1,65,0,0
55926,-100,4,2,1,60,0,0
57361,-100,4,2,1,40,0,0
57883,-100,4,2,1,60,0,0
58013,-100,4,2,1,50,0,0
59448,-100,4,2,1,35,0,0
59970,-100,4,2,1,60,0,0
61535,-100,4,2,1,50,0,0
62057,-100,4,2,1,60,0,0
62187,-100,4,2,1,70,0,0
63622,-100,4,2,1,50,0,0
63883,-100,4,2,1,70,0,0
65709,-100,4,2,1,50,0,0
66231,-100,4,2,1,60,0,0
66361,-100,4,2,1,70,0,0
67796,-100,4,2,1,55,0,0
68187,-100,4,2,1,80,0,0
68839,-100,4,2,1,70,0,0
69361,-100,4,2,1,90,0,0
69883,-100,4,2,1,80,0,0
70405,-100,4,2,1,100,0,0
70926,-100,4,2,1,90,0,0
71448,-86.9565217391304,4,1,0,65,0,1
71970,-86.9565217391304,4,2,0,50,0,1
72100,-86.9565217391304,4,2,1,90,0,1
72492,-86.9565217391304,4,2,0,60,0,1
72622,-86.9565217391304,4,2,1,90,0,1
73535,-86.9565217391304,4,2,1,100,0,1
73796,-86.9565217391304,4,2,1,90,0,1
74578,-86.9565217391304,4,2,0,50,0,1
74709,-86.9565217391304,4,2,1,90,0,1
75100,-86.9565217391304,4,2,1,70,0,1
75361,-86.9565217391304,4,2,1,60,0,1
75622,-86.9565217391304,4,2,1,90,0,1
76535,-86.9565217391304,4,2,0,50,0,1
76796,-86.9565217391304,4,2,1,90,0,1
78752,-86.9565217391304,4,2,0,50,0,1
79274,-86.9565217391304,4,2,0,45,0,1
79796,-86.9565217391304,4,2,1,100,0,1
79926,-86.9565217391304,4,2,1,90,0,1
80709,-86.9565217391304,4,2,0,60,0,1
80970,-86.9565217391304,4,2,1,90,0,1
82926,-86.9565217391304,4,2,0,60,0,1
83057,-86.9565217391304,4,2,1,90,0,1
83709,-86.9565217391304,4,2,1,60,0,1
83839,-86.9565217391304,4,2,1,90,0,1
84492,-86.9565217391304,4,2,1,50,0,1
85013,-86.9565217391304,4,2,1,60,0,1
85535,-86.9565217391304,4,2,1,80,0,1
86057,-86.9565217391304,4,2,0,60,0,1
86187,-86.9565217391304,4,2,1,90,0,1
87100,-86.9565217391304,4,2,1,70,0,1
87622,-86.9565217391304,4,2,1,90,0,1
88143,-86.9565217391304,4,1,0,70,0,0
88144,-86.9565217391304,4,1,0,70,0,1
88665,-86.9565217391304,4,2,1,100,0,1
89187,-86.9565217391304,4,2,0,60,0,1
89318,-86.9565217391304,4,2,1,100,0,1
91274,-86.9565217391304,4,2,0,50,0,1
91405,-86.9565217391304,4,2,1,100,0,1
92057,-86.9565217391304,4,2,1,90,0,1
92318,-86.9565217391304,4,2,1,100,0,1
93361,-86.9565217391304,4,2,0,50,0,1
93492,-86.9565217391304,4,2,1,100,0,1
95448,-86.9565217391304,4,2,0,50,0,1
95709,-86.9565217391304,4,2,1,100,0,1
96492,-86.9565217391304,4,2,1,100,0,1
97535,-86.9565217391304,4,2,0,60,0,1
97665,-86.9565217391304,4,2,1,100,0,1
99622,-86.9565217391304,4,2,0,60,0,1
99752,-86.9565217391304,4,2,1,100,0,1
100405,-86.9565217391304,4,2,1,90,0,1
100665,-86.9565217391304,4,2,1,100,0,1
101187,-86.9565217391304,4,2,1,70,0,1
101709,-86.9565217391304,4,2,1,80,0,1
102231,-86.9565217391304,4,2,1,70,0,1
102752,-86.9565217391304,4,2,0,50,0,1
103013,-86.9565217391304,4,2,1,90,0,1
103274,-86.9565217391304,4,2,0,50,0,1
103535,-86.9565217391304,4,2,1,80,0,1
103796,-86.9565217391304,4,2,1,100,0,1
104057,-86.9565217391304,4,2,1,80,0,1
104318,-86.9565217391304,4,2,1,90,0,1
104578,-86.9565217391304,4,2,1,80,0,1
104839,-86.9565217391304,4,2,0,60,0,1
104970,-86.9565217391304,4,2,1,40,0,1
105883,-86.9565217391304,4,2,1,60,0,1
106405,-86.9565217391304,4,2,1,40,0,1
106665,-86.9565217391304,4,2,1,30,0,1
107970,-86.9565217391304,4,2,1,50,0,1
109013,-86.9565217391304,4,2,1,100,0,0
121535,-100,4,2,1,70,0,0
122057,-100,4,2,1,40,0,0
122578,-100,4,2,1,45,0,0
122709,-100,4,2,1,60,0,0
124144,-100,4,2,1,40,0,0
124665,-100,4,2,1,50,0,0
124796,-100,4,2,1,60,0,0
125709,-100,4,2,1,70,0,0
126231,-100,4,2,1,40,0,0
126752,-100,4,2,1,60,0,0
127665,-100,4,2,1,65,0,0
128318,-100,4,2,1,50,0,0
128839,-100,4,2,1,50,0,0
128970,-100,4,2,1,65,0,0
130405,-100,4,2,1,60,0,0
130926,-100,4,2,1,65,0,0
131448,-100,4,2,1,50,0,0
131578,-100,4,2,1,70,0,0
132492,-100,4,2,1,60,0,0
133013,-100,4,2,1,70,0,0
134578,-100,4,2,1,60,0,0
135100,-100,4,2,1,70,0,0
135622,-100,4,2,1,75,0,0
136144,-100,4,2,1,95,0,0
136405,-100,4,2,1,80,0,0
136665,-100,4,2,0,50,0,0
136926,-100,4,2,1,90,0,0
137187,-100,4,2,0,60,0,0
137448,-100,4,2,1,100,0,0
137709,-100,4,2,0,70,0,0
138231,-86.9565217391304,4,1,0,70,0,1
138361,-86.9565217391304,4,2,1,90,0,1
139274,-86.9565217391304,4,2,0,60,0,1
139405,-86.9565217391304,4,2,1,90,0,1
141361,-86.9565217391304,4,2,0,60,0,1
141492,-86.9565217391304,4,2,1,90,0,1
142926,-86.9565217391304,4,2,1,80,0,1
142992,-86.9565217391304,4,2,1,90,0,1
143448,-86.9565217391304,4,2,0,60,0,1
143578,-86.9565217391304,4,2,1,90,0,1
145535,-86.9565217391304,4,2,0,60,0,1
145665,-86.9565217391304,4,2,1,90,0,1
146318,-86.9565217391304,4,2,1,70,0,1
146578,-86.9565217391304,4,2,1,90,0,1
147622,-86.9565217391304,4,2,0,60,0,1
147752,-86.9565217391304,4,2,1,90,0,1
148665,-86.9565217391304,4,2,1,100,0,1
149709,-86.9565217391304,4,2,0,60,0,1
149839,-86.9565217391304,4,2,1,90,0,1
150492,-86.9565217391304,4,2,1,70,0,1
150752,-86.9565217391304,4,2,1,90,0,1
151274,-86.9565217391304,4,2,1,65,0,1
151796,-86.9565217391304,4,2,1,70,0,1
152318,-86.9565217391304,4,2,1,90,0,1
152839,-86.9565217391304,4,2,0,65,0,1
152970,-86.9565217391304,4,2,1,90,0,1
153883,-86.9565217391304,4,2,1,80,0,1
154013,-86.9565217391304,4,2,1,90,0,1
154925,-86.9565217391304,4,1,0,80,0,0
154926,-86.9565217391304,4,1,0,80,0,1
154992,-86.9565217391304,4,2,1,100,0,1
155970,-86.9565217391304,4,2,0,65,0,1
156100,-86.9565217391304,4,2,1,100,0,1
158057,-86.9565217391304,4,2,0,65,0,1
158187,-86.9565217391304,4,2,1,100,0,1
158839,-86.9565217391304,4,2,1,90,0,1
159100,-86.9565217391304,4,2,1,100,0,1
160144,-86.9565217391304,4,2,0,65,0,1
160274,-86.9565217391304,4,2,1,100,0,1
162231,-86.9565217391304,4,2,0,65,0,1
162361,-86.9565217391304,4,2,1,100,0,1
163013,-86.9565217391304,4,2,1,70,0,1
163274,-86.9565217391304,4,2,1,100,0,1
164318,-86.9565217391304,4,2,0,65,0,1
164383,-86.9565217391304,4,2,1,90,0,1
164970,-86.9565217391304,4,2,1,100,0,1
165883,-86.9565217391304,4,2,0,60,0,1
166013,-86.9565217391304,4,2,1,100,0,1
166405,-86.9565217391304,4,2,1,80,0,1
166926,-86.9565217391304,4,2,0,60,0,1
167187,-86.9565217391304,4,2,1,70,0,1
167448,-86.9565217391304,4,2,1,100,0,1
167970,-86.9565217391304,4,2,1,90,0,1
168492,-86.9565217391304,4,2,1,80,0,1
169013,-86.9565217391304,4,2,1,100,0,1
169535,-86.9565217391304,4,2,0,60,0,1
169665,-86.9565217391304,4,2,1,100,0,1
170057,-86.9565217391304,4,2,0,60,0,1
170187,-86.9565217391304,4,2,1,100,0,1
170578,-86.9565217391304,4,2,1,100,0,1
170839,-86.9565217391304,4,2,1,80,0,1
171100,-86.9565217391304,4,2,1,100,0,1
171361,-86.9565217391304,4,2,1,80,0,1
171622,-117.647058823529,4,2,0,65,0,1
171769,-117.647058823529,4,2,1,40,0,1
172144,-117.647058823529,4,2,1,30,0,1
172665,-86.9565217391304,4,2,1,75,0,1
173187,-117.647058823529,4,2,1,40,0,1
175796,-86.9565217391304,4,2,1,80,0,0
176839,-100,4,2,1,80,0,0
176970,-100,4,2,1,60,0,0
177883,-100,4,2,0,40,0,0
178013,-100,4,2,1,55,0,0
179970,-100,4,2,0,40,0,0
180100,-100,4,2,1,55,0,0
182057,-100,4,2,0,35,0,0
182187,-100,4,2,1,50,0,0
183100,-100,4,2,1,60,0,0
183231,-100,4,2,1,50,0,0
184144,-117.647058823529,4,2,0,35,0,0
184274,-117.647058823529,4,2,1,50,0,0
185187,-117.647058823529,4,2,1,60,0,0
185318,-117.647058823529,4,2,1,50,0,0
186231,-117.647058823529,4,2,0,30,0,0
186361,-117.647058823529,4,2,1,45,0,0
187274,-117.647058823529,4,2,1,35,0,0
187535,-117.647058823529,4,2,1,25,0,0
188057,-117.647058823529,4,2,1,30,0,0
189361,-100,4,2,1,25,0,0
190926,-100,4,2,1,20,0,0
192492,-100,4,2,1,15,0,0
194057,-100,4,2,1,10,0,0
195622,-100,4,2,1,5,0,0
196665,-100,4,2,1,0,0,0

[Colours]
Combo1 : 40,70,130
Combo2 : 255,255,255
Combo3 : 200,220,250
Combo4 : 120,200,250
Combo5 : 80,140,210

[HitObjects]
432,244,491,2,0,B|316:292|200:244,1,237.999990069867,0|2
80,136,2318,1,0
80,136,2578,2,0,B|196:88|312:136,1,237.999990069867,0|2
196,316,4664,5,0
304,316,5186,1,2
252,224,5709,2,0,B|252:104,1,118.999995034933,0|2
252,52,6491,1,0
252,52,6752,2,0,B|344:52|396:100|312:116|468:140,1,237.999990069867,0|2
464,248,8317,1,2
356,248,8839,6,0,B|232:248,1,118.999995034933,0|2
208,204,9622,1,0
180,160,9883,2,0,B|120:160,2,59.4999975174666,0|0|2
124,72,10926,6,0,B|180:48|240:72,1,118.999995034933,0|2
292,72,11709,1,0
344,72,11970,2,0,B|404:72,2,59.4999975174666,0|0|2
412,156,13012,5,0
340,236,13534,1,2
408,320,14056,1,0
304,340,14578,2,0,B|184:340,1,118.999995034933,2|0
116,256,15622,6,0,B|56:256,2,59.4999975174666,2|0|0
156,220,16405,1,0
196,184,16665,2,0,B|240:144,1,59.4999975174666
280,108,17186,2,0,B|324:148|392:148,1,118.999995034933,0|2
492,180,18230,1,0
420,260,18752,2,0,B|420:320,1,59.4999975174666,2|2
256,192,19273,12,4,21361
156,192,22404,5,4
228,296,22926,1,0
352,328,23447,2,0,B|420:368|484:328,1,140,0|2
416,220,24491,2,0,B|456:156|412:84,1,140,0|2
360,56,25273,2,0,B|360:20,2,35,4|4|4
172,56,26317,6,0,B|124:56,2,35,4|4|4
108,164,27099,1,2
172,272,27621,1,0
284,328,28144,2,0,B|340:284|416:284|416:284|376:220|416:152,1,280,0|2
412,28,29708,6,0,B|340:28,1,70,4|4
280,28,30230,2,0,B|280:96,2,70,4|4|4
92,28,31534,6,0,B|164:28,1,70,4|0
188,152,32317,2,0,B|324:200|464:152,1,280,4|0
460,88,33621,2,0,B|460:20,2,70,0|4|0
464,216,34664,2,0,B|464:296,2,70,4|4|4
284,152,35969,5,4
140,28,36751,2,0,B|68:28,2,70,4|4|4
112,216,38056,5,4
204,132,38578,2,0,B|280:132|324:192,1,140,0|4
264,304,39621,2,0,B|332:336|400:304,2,140,2|0|2
144,348,41186,1,0
216,244,41708,6,0,B|144:264|76:244,1,140,0|4
188,184,42751,2,0,B|260:172|312:120,1,140,2|4
200,60,43796,2,0,B|268:44|340:60,1,140,0|2
428,148,44838,2,0,B|496:148,2,70,0|0|2
424,276,45883,6,0,B|352:276,1,70
292,276,46404,2,0,B|292:344,2,70,4|0|2
188,348,47447,2,0,B|116:368|48:332,2,140,4|0|0
152,296,48752,1,0
120,244,49012,2,0,B|52:208|40:136,2,140,2|0|0
152,188,50318,5,0
212,172,50577,1,4
248,120,50839,1,0
308,104,51099,2,0,B|308:32,2,70,2|0|4
436,104,52143,1,0
372,212,52665,2,0,B|392:316|504:364|480:244|312:316,1,280
260,348,53969,2,0,B|192:348,3,70,4|0|0|4
64,348,55273,6,0,B|12:288|72:220,1,140,2|4
72,160,56057,2,0,B|4:160,2,70
76,96,56839,2,0,B|144:80|216:96,2,140,0|2|4
144,204,58404,1,0
268,204,58926,6,0,B|408:204,1,140,4|2
388,264,59709,1,0
368,324,59969,2,0,B|436:348|508:348,2,140,4|0|0
284,228,61535,2,0,B|216:204|144:204,1,140,2|4
84,96,62578,2,0,B|32:48,2,70,0|0|4
196,40,63622,6,0,B|264:20|336:40,1,140,2|4
436,112,64664,1,0
464,236,65187,2,0,B|452:308|372:332,1,140,0|2
356,272,65970,1,0
340,212,66230,2,0,B|320:316|204:360,1,210,4|0
184,300,67273,6,0,B|112:300|48:264,3,140,4|2|4|2
172,236,69361,2,0,B|236:208|280:148,3,140,4|2|4|2
192,56,71447,5,4
336,40,71969,2,0,B|416:32,2,80.5000026389957,4|0|4
316,184,73012,2,0,B|368:248|452:268,1,161.000005277991,0|4
332,352,74056,2,0,B|268:300|176:300,1,161.000005277991,0|4
112,300,74838,2,0,B|72:316|32:304,2,80.5000026389957,0|4|4
84,232,75622,6,0,B|40:223|17:178,1,80.5000026389957,4|0
44,116,76143,2,0,B|112:88|176:20,2,161.000005277991,0|4|0
96,168,77448,1,0
160,132,77708,2,0,B|320:88|488:136,1,322.000010555983,4|4
484,280,79273,1,4
360,356,79795,6,0,B|300:308|216:276,1,161.000005277991,4|0
152,252,80578,1,0
84,228,80838,2,0,B|4:212,2,80.5000026389957,4|0|0
76,84,81882,2,0,B|144:40|232:40,1,161.000005277991,4|0
300,36,82665,1,0
372,36,82925,2,0,B|452:36,2,80.5000026389957,4|0|0
300,36,83708,6,0,B|300:116,1,80.5000026389957,4|4
344,256,84491,1,4
228,340,85012,1,4
88,304,85534,1,4
52,164,86057,2,0,B|100:104|188:96|188:96|244:32|336:32,1,322.000010555983,4|4
476,64,87621,6,0,B|516:136|496:224,1,161.000005277991,4|4
376,304,88664,1,0
264,212,89186,1,4
128,168,89708,1,0
56,40,90230,2,0,B|124:72|216:72,1,161.000005277991,4|0
284,68,91013,1,0
356,56,91273,2,0,B|440:44,2,80.5000026389957,4|0|0
284,68,92056,6,0,B|284:152,1,80.5000026389957,4|4
328,288,92838,2,0,B|400:320|484:320,2,161.000005277991,0|4|0
292,224,94144,2,0,B|232:276,1,80.5000026389957,0|4
176,228,94665,2,0,B|96:244,2,80.5000026389957
148,160,95448,1,4
196,108,95709,1,0
256,72,95969,6,0,B|320:36|412:28,1,161.000005277991,0|4
464,76,96752,1,0
492,144,97013,2,0,B|492:308|492:308,1,161.000005277991,0|4
420,288,97796,2,0,B|420:372|420:372,1,80.5000026389957
280,332,98577,2,0,B|216:292|124:280|64:224,1,241.500007916987,4|0
20,168,99621,2,0,B|0:92,2,80.5000026389957,4|0|0
92,156,100404,6,0,B|160:116,1,80.5000026389957,4|4
288,44,101186,1,4
432,44,101708,1,4
480,180,102230,1,2
456,324,102751,2,0,B|380:344,1,80.5000026389957,4|0
304,348,103273,2,0,B|224:340,1,80.5000026389957,4|4
152,320,103795,6,0,B|80:280,3,80.5000026389957,4|4|4|4
28,232,104838,2,0,B|-12:160|32:72,1,161.000005277991,4|0
168,32,105882,1,4
312,36,106404,2,0,B|356:36|388:68,1,80.5000026389957,2|2
256,192,106925,12,4,109012
36,192,121535,6,0,B|104:228|172:192,1,140,4|2
264,108,122577,1,4
380,60,123099,1,0
464,152,123621,2,0,B|500:216|464:288,1,140,0|2
344,324,124664,2,0,B|408:352,2,70,4|0|0
220,352,125708,5,4
96,324,126230,1,2
40,212,126751,2,0,B|20:144,1,70,4|0
16,80,127273,2,0,B|16:12,2,70
140,104,128317,2,0,B|200:72|280:72,1,140,2|4
400,72,129361,2,0,B|468:72,2,70,0|0|4
468,180,130404,6,0,B|400:204|380:284,1,140,2|4
256,284,131448,1,2
148,352,131970,1,0
100,236,132491,2,0,B|76:168|4:140,1,140,2|4
32,84,133273,2,0,B|80:28,3,70,0|2|4|4
204,28,134577,5,2
284,128,135099,1,4
380,44,135621,1,2
480,120,136143,2,0,B|488:192,1,70,4|0
480,252,136664,2,0,B|436:308,1,70,4|0
384,344,137186,2,0,B|316:368,1,70,4|0
256,364,137708,2,0,B|184:356|128:308,1,140,4|4
24,212,138751,5,0
156,156,139273,1,4
240,40,139796,2,0,B|296:96,1,80.5000026389957
348,148,140317,2,0,B|412:92|496:92,2,161.000005277991,4|0|4
472,224,141882,1,0
348,300,142404,6,0,B|276:332,1,80.5000026389957,4|0
200,332,142925,2,0,B|112:368,1,80.5000026389957,4|0
64,320,143447,2,0,B|24:256|40:164,1,161.000005277991,4|0
48,92,144231,1,0
84,28,144491,1,4
152,52,144752,1,0
220,32,145013,2,0,B|300:32,1,80.5000026389957
360,72,145534,2,0,B|444:72,2,80.5000026389957,4|0|0
296,104,146317,6,0,B|340:176,1,80.5000026389957,4|4
408,184,146839,1,0
480,196,147100,2,0,B|400:336,1,161.000005277991,0|4
332,304,147883,2,0,B|256:332,1,80.5000026389957
180,208,148664,2,0,B|124:148|44:124,1,161.000005277991,4|0
92,68,149448,1,0
160,44,149708,2,0,B|244:24,2,80.5000026389957,4|0|0
204,104,150491,6,0,B|280:128,1,80.5000026389957,4|4
420,164,151273,1,4
460,304,151795,1,4
320,344,152317,1,2
272,208,152838,2,0,B|192:212|120:268,1,161.000005277991,4|0
76,212,153622,1,0
24,160,153882,2,0,B|56:84,1,80.5000026389957,4|0
112,132,154404,2,0,B|176:80,1,80.5000026389957,4|0
220,140,154925,6,0,B|376:100,2,161.000005277991,4|0|4
360,176,156491,1,0
360,320,157013,2,0,B|360:236,1,80.5000026389957,4|0
296,208,157535,2,0,B|216:228,1,80.5000026389957
172,284,158056,2,0,B|172:364,2,80.5000026389957,4|0|0
124,228,158838,6,0,B|44:208,1,80.5000026389957,4|4
88,148,159361,1,0
132,88,159622,2,0,B|52:64,2,80.5000026389957,0|0|4
272,52,160664,1,0
412,88,161186,2,0,B|492:88,2,80.5000026389957,4|0|0
420,160,161970,1,0
404,232,162230,2,0,B|480:264,2,80.5000026389957,4|0|0
368,296,163012,6,0,B|292:264,1,80.5000026389957,4|4
220,268,163535,1,0
148,272,163796,2,0,B|64:236,1,80.5000026389957
32,180,164317,2,0,B|68:104|152:80,1,161.000005277991,4|0
288,28,165360,2,0,B|372:28|440:84,1,161.000005277991,4|4
376,120,166144,1,0
316,160,166405,2,0,B|388:200|420:280,1,161.000005277991,4|4
348,284,167187,2,0,B|368:320|368:368,1,80.5000026389957,4|4
228,328,167969,5,4
96,268,168491,1,4
180,152,169012,1,4
76,52,169534,2,0,B|152:16,1,80.5000026389957,4|0
184,80,170056,2,0,B|268:64,1,80.5000026389957,4|0
292,132,170577,6,0,B|376:140,1,80.5000026389957,4|0
356,212,171099,2,0,B|428:252,1,80.5000026389957,4|0
376,304,171622,2,0,B|132:304,1,237.999990069867,4|4
224,188,173187,2,0,B|284:188,1,59.4999975174666,2|2
256,192,173709,12,4,175796
372,196,176839,6,0,B|316:236|240:236,1,140,4|0
144,316,177882,2,0,B|68:316|16:260,1,140,4|0
128,200,178925,1,4
224,120,179447,1,0
320,40,179969,6,0,B|460:28,1,140,4|0
360,108,181012,2,0,B|488:172,1,140,4|0
372,228,182056,5,4
280,316,182577,2,0,B|220:348|144:348,1,140,0|4
40,276,183621,1,0
140,236,184144,6,0,B|92:192|92:128,1,118.999995034933,4|0
196,156,185187,2,0,B|176:93|208:38,1,118.999995034933,4|0
296,100,186230,5,4
400,124,186751,1,0
496,172,187273,1,4
412,236,187795,2,0,B|464:268,1,59.4999975174666,2|2
256,192,189360,12,2,196665
