osu file format v9

[General]
AudioFilename: Tomatsu Haruka - Monochrome~version de l'apprivoiser~.mp3
AudioLeadIn: 2000
PreviewTime: 70925
Countdown: 0
SampleSet: Soft
StackLeniency: 0.4
Mode: 0
LetterboxInBreaks: 0
StoryFireInFront: 0

[Editor]
DistanceSpacing: 1.6
BeatDivisor: 4
GridSize: 4

[Metadata]
Title:Monochrome
Artist:Tomatsu Haruka
Creator:wanhyrzh
Version:Insane
Source:Star Driver: Kagayaki no Takuto
Tags:Crazy Jay qinche impossiblexu kita miko fish girl mermaid Monokuroumu Sakana-chan

[Difficulty]
HPDrainRate:6
CircleSize:4
OverallDifficulty:6
ApproachRate:7
SliderMultiplier:1.6
SliderTickRate:1

[Events]
//Background and Video events
0,0,"background-osu.jpg"
//Break Periods
2,109213,120374
//Storyboard Layer 0 (Background)
Sprite,Background,CentreLeft,"storyboard\artist1.png",360,340 F,0,110057,111100,0,1 F,0,119448,120491,1,0
//Storyboard Layer 1 (Fail)
//Storyboard Layer 2 (Pass)
//Storyboard Layer 3 (Foreground)
//Storyboard Sound Samples
//Background Colour Transformations
3,100,163,162,255

[TimingPoints]
-1595,521.739130434783,4,2,0,100,1,0
491,-133.333333333333,4,2,1,20,0,0
4405,-133.333333333333,4,2,1,25,0,0
6100,-133.333333333333,4,2,1,20,0,0
6165,-133.333333333333,4,2,1,25,0,0
8187,-133.333333333333,4,2,1,15,0,0
8578,-133.333333333333,4,2,1,15,0,0
8839,-133.333333333333,4,2,1,30,0,0
10405,-133.333333333333,4,2,1,25,0,0
10926,-133.333333333333,4,2,1,30,0,0
12361,-133.333333333333,4,2,1,25,0,0
12622,-133.333333333333,4,2,1,35,0,0
13535,-133.333333333333,4,2,1,35,0,0
14057,-133.333333333333,4,2,1,40,0,0
14187,-133.333333333333,4,2,1,35,0,0
15752,-133.333333333333,4,2,1,40,0,0
16405,-133.333333333333,4,2,1,30,0,0
16926,-133.333333333333,4,2,1,30,0,0
19144,-133.333333333333,4,2,1,25,0,0
19796,-133.333333333333,4,2,0,20,0,0
20318,-133.333333333333,4,2,0,10,0,0
20839,-133.333333333333,4,2,0,0,0,0
21361,-133.333333333333,4,2,1,100,0,0
21492,-80,4,2,1,50,0,0
21883,-100,4,2,1,40,0,0
22274,-100,4,2,1,30,0,0
22405,-100,4,2,1,50,0,0
22535,-100,4,2,1,45,0,0
22796,-100,4,2,1,35,0,0
23318,-100,4,2,1,40,0,0
23970,-100,4,2,1,35,0,0
24231,-100,4,2,1,40,0,0
24361,-100,4,2,1,30,0,0
25274,-100,4,2,1,45,0,0
25405,-100,4,2,1,35,0,0
25535,-100,4,2,1,50,0,0
26318,-100,4,2,1,30,0,0
26448,-100,4,2,1,20,0,0
26578,-80,4,2,1,50,0,0
26970,-100,4,2,1,30,0,0
27231,-100,4,2,1,45,0,0
27492,-100,4,2,1,35,0,0
28013,-100,4,2,1,30,0,0
28665,-100,4,2,0,30,0,0
28926,-100,4,2,1,30,0,0
29709,-100,4,2,1,50,0,0
29970,-100,4,2,1,40,0,0
30231,-100,4,2,1,50,0,0
30492,-100,4,2,1,40,0,0
30752,-80,4,2,1,50,0,0
31013,-100,4,2,1,35,0,0
33752,-100,4,2,1,30,0,0
33883,-100,4,2,1,40,0,0
34144,-100,4,2,1,30,0,0
34796,-100,4,2,1,25,0,0
34926,-100,4,2,1,50,0,0
35057,-100,4,2,1,25,0,0
35970,-100,4,2,1,20,0,0
36491,-100,4,2,1,25,0,0
37274,-100,4,2,1,20,0,0
37796,-80,4,2,1,35,0,0
38057,-80,4,2,1,50,0,0
38187,-100,4,2,1,50,0,0
38578,-100,4,2,1,35,0,0
38839,-80,4,2,1,50,0,0
39361,-100,4,2,1,50,0,0
40665,-100,4,2,1,35,0,0
40926,-100,4,2,1,50,0,0
41709,-100,4,2,1,30,0,0
41970,-80,4,2,1,50,0,0
42100,-80,4,2,1,30,0,0
42231,-100,4,2,1,60,0,0
42361,-100,4,2,1,60,0,0
42752,-100,4,2,1,40,0,0
43013,-100,4,2,1,60,0,0
43274,-100,4,2,1,50,0,0
43665,-100,4,2,1,60,0,0
44318,-100,4,2,1,50,0,0
44578,-100,4,2,1,55,0,0
45100,-100,4,2,1,60,0,0
45361,-100,4,2,1,25,0,0
45622,-100,4,2,1,40,0,0
45752,-100,4,2,1,60,0,0
45883,-100,4,2,1,45,0,0
46144,-100,4,2,1,60,0,0
46274,-100,4,2,1,50,0,0
46926,-100,4,2,1,35,0,0
47187,-100,4,2,1,50,0,0
48231,-100,4,2,1,50,0,0
49013,-100,4,2,1,30,0,0
49274,-100,4,2,1,50,0,0
49796,-100,4,2,1,35,0,0
49926,-100,4,2,1,50,0,0
50187,-100,4,2,1,55,0,0
52144,-100,4,2,1,35,0,0
52405,-100,4,2,1,55,0,0
53709,-80,4,2,1,50,0,0
53839,-80,4,2,1,55,0,0
54231,-100,4,2,1,45,0,0
54361,-100,4,2,1,65,0,0
54492,-100,4,2,1,50,0,0
54622,-100,4,2,1,75,0,0
54752,-100,4,2,1,80,0,0
55013,-100,4,2,1,30,0,0
55796,-100,4,2,1,65,0,0
55926,-100,4,2,1,60,0,0
56318,-100,4,2,1,35,0,0
56448,-100,4,2,1,60,0,0
57752,-100,4,2,1,55,0,0
58013,-100,4,2,1,50,0,0
58405,-100,4,2,1,35,0,0
58665,-100,4,2,1,50,0,0
59057,-100,4,2,1,45,0,0
59970,-100,4,2,1,60,0,0
60491,-100,4,2,1,35,0,0
60622,-100,4,2,1,60,0,0
62187,-100,4,2,1,70,0,0
62578,-100,4,2,1,40,0,0
62839,-100,4,2,1,60,0,0
62970,-100,4,2,1,40,0,0
63100,-100,4,2,1,70,0,0
64144,-133.333333333333,4,2,1,70,0,0
64665,-100,4,2,1,45,0,0
64926,-100,4,2,1,70,0,0
65187,-133.333333333333,4,2,1,70,0,0
65448,-100,4,2,1,70,0,0
66231,-100,4,2,1,60,0,0
66361,-100,4,2,1,70,0,0
66752,-100,4,2,1,60,0,0
67013,-100,4,2,1,70,0,0
67535,-100,4,2,1,60,0,0
67796,-100,4,2,1,55,0,0
68057,-100,4,2,1,70,0,0
68187,-100,4,2,1,80,0,0
68578,-100,4,2,1,70,0,0
68839,-100,4,2,1,80,0,0
69100,-100,4,2,1,90,0,0
69231,-100,4,2,1,85,0,0
69752,-100,4,2,1,70,0,0
69883,-100,4,2,1,90,0,0
70274,-100,4,2,1,80,0,0
70405,-100,4,2,1,95,0,0
70796,-100,4,2,1,90,0,0
70926,-100,4,2,1,100,0,0
71187,-100,4,2,1,80,0,0
71448,-80,4,2,1,100,0,1
71709,-80,4,2,1,70,0,1
71839,-80,4,2,1,90,0,1
72492,-80,4,2,0,70,0,1
72622,-80,4,2,1,90,0,1
74578,-80,4,2,0,70,0,1
74709,-80,4,2,1,90,0,1
75100,-80,4,2,0,70,0,1
75231,-80,4,2,1,90,0,1
76535,-80,4,2,0,60,0,1
76796,-80,4,2,1,90,0,1
78752,-80,4,2,0,60,0,1
78883,-80,4,2,1,90,0,1
79274,-80,4,2,0,70,0,1
79405,-80,4,2,1,90,0,1
79796,-80,4,2,1,100,0,1
79926,-80,4,2,1,90,0,1
80709,-80,4,2,0,70,0,1
80970,-80,4,2,1,90,0,1
82926,-80,4,2,0,70,0,1
83057,-80,4,2,1,90,0,1
83709,-80,4,2,1,60,0,1
83970,-80,4,2,1,90,0,1
84492,-80,4,2,1,40,0,1
85013,-80,4,2,1,50,0,1
85535,-80,4,2,1,70,0,1
86057,-133.333333333333,4,2,0,50,0,1
86187,-133.333333333333,4,2,1,90,0,1
87100,-133.333333333333,4,2,1,70,0,1
87622,-133.333333333333,4,2,1,90,0,1
88143,-80,4,2,1,100,0,0
88144,-80,4,2,1,100,0,1
88274,-80,4,2,1,100,0,1
89187,-80,4,2,0,80,0,1
89318,-80,4,2,1,100,0,1
91274,-80,4,2,0,80,0,1
91405,-80,4,2,1,100,0,1
92057,-80,4,2,1,90,0,1
92187,-80,4,2,1,70,0,1
92318,-80,4,2,1,100,0,1
92448,-80,4,2,1,100,0,1
93361,-80,4,2,0,50,0,1
93492,-80,4,2,1,100,0,1
96231,-80,4,2,1,80,0,1
96361,-80,4,2,1,50,0,1
96492,-80,4,2,0,70,0,1
96622,-80,4,2,1,100,0,1
97535,-80,4,2,0,70,0,1
97665,-80,4,2,1,100,0,1
98318,-80,4,2,1,90,0,1
98448,-80,4,2,1,70,0,1
98578,-80,4,2,1,100,0,1
99622,-80,4,2,0,80,0,1
99752,-80,4,2,1,100,0,1
100405,-80,4,2,1,90,0,1
100535,-80,4,2,1,70,0,1
100665,-80,4,2,1,100,0,1
102752,-80,4,2,1,90,0,1
103535,-80,4,2,1,80,0,1
103665,-80,4,2,1,60,0,1
103796,-80,4,2,1,100,0,1
104057,-80,4,2,1,80,0,1
104318,-80,4,2,1,90,0,1
104578,-80,4,2,1,80,0,1
104839,-100,4,2,1,100,0,1
105361,-100,4,2,0,40,0,1
105622,-100,4,2,1,70,0,1
105883,-133.333333333333,4,2,1,60,0,1
106144,-133.333333333333,4,2,1,40,0,1
106405,-133.333333333333,4,2,0,20,0,1
106796,-80,4,2,1,20,0,1
107448,-80,4,2,1,30,0,1
107970,-80,4,2,1,40,0,1
108491,-80,4,2,1,50,0,1
109013,-80,4,2,1,70,0,0
121274,-100,4,2,1,50,0,0
121405,-100,4,2,1,30,0,0
121535,-100,4,2,1,60,0,0
121665,-100,4,2,1,40,0,0
122578,-133.333333333333,4,2,1,35,0,0
122839,-100,4,2,1,50,0,0
124665,-100,4,2,1,40,0,0
124796,-100,4,2,1,50,0,0
125709,-100,4,2,1,60,0,0
125839,-100,4,2,1,40,0,0
126231,-100,4,2,1,35,0,0
126491,-80,4,2,1,40,0,0
126752,-133.333333333333,4,2,1,50,0,0
127535,-100,4,2,1,50,0,0
127665,-100,4,2,1,55,0,0
128318,-100,4,2,1,35,0,0
128578,-100,4,2,1,55,0,0
128839,-100,4,2,1,40,0,0
128970,-100,4,2,1,55,0,0
129361,-100,4,2,1,35,0,0
129622,-100,4,2,1,55,0,0
131448,-100,4,2,1,35,0,0
131578,-100,4,2,1,60,0,0
133013,-100,4,2,1,60,0,0
133535,-100,4,2,1,40,0,0
133796,-100,4,2,1,60,0,0
134057,-133.333333333333,4,2,1,60,0,0
135100,-133.333333333333,4,2,1,50,0,0
135231,-133.333333333333,4,2,1,75,0,0
136144,-100,4,2,1,85,0,0
136405,-100,4,2,1,70,0,0
136535,-100,4,2,1,80,0,0
136665,-100,4,2,0,60,0,0
136926,-100,4,2,1,80,0,0
137057,-100,4,2,1,90,0,0
137187,-100,4,2,0,80,0,0
137448,-100,4,2,1,90,0,0
137578,-100,4,2,1,100,0,0
137709,-100,4,2,0,100,0,0
137970,-100,4,2,1,100,0,0
138231,-80,4,1,0,85,0,1
138492,-80,4,1,0,50,0,1
138622,-80,4,2,1,90,0,1
139274,-80,4,2,0,80,0,1
139405,-80,4,2,1,90,0,1
141361,-80,4,2,0,70,0,1
141492,-80,4,2,1,90,0,1
142144,-80,4,2,1,70,0,1
142274,-80,4,2,1,50,0,1
142405,-80,4,2,1,90,0,1
143448,-80,4,2,0,70,0,1
143578,-80,4,2,1,90,0,1
144231,-133.333333333333,4,2,1,90,0,1
145274,-100,4,2,1,90,0,1
145535,-80,4,2,0,70,0,1
145665,-80,4,2,1,90,0,1
146318,-80,4,2,1,70,0,1
146448,-80,4,2,1,50,0,1
146578,-80,4,2,1,90,0,1
147100,-80,4,2,0,60,0,1
147231,-80,4,2,1,90,0,1
147622,-80,4,2,0,70,0,1
147752,-80,4,2,1,90,0,1
148665,-100,4,2,1,100,0,1
149187,-100,4,2,1,60,0,1
149448,-100,4,2,1,90,0,1
149709,-80,4,2,0,60,0,1
149839,-80,4,2,1,90,0,1
150492,-80,4,2,1,70,0,1
150622,-80,4,2,1,50,0,1
150752,-80,4,2,1,90,0,1
151274,-80,4,2,1,65,0,1
151796,-100,4,2,1,65,0,1
152318,-100,4,2,0,55,0,1
152448,-100,4,2,1,80,0,1
152578,-80,4,2,1,80,0,1
152839,-80,4,2,1,80,0,1
152970,-80,4,2,1,90,0,1
153883,-80,4,2,1,80,0,1
154013,-80,4,2,1,90,0,1
154925,-80,4,1,0,80,0,0
154926,-80,4,1,0,80,0,1
155187,-80,4,1,0,50,0,1
155318,-80,4,2,1,100,0,1
155970,-80,4,2,0,80,0,1
156100,-80,4,2,1,100,0,1
158057,-80,4,2,0,70,0,1
158187,-80,4,2,1,100,0,1
158839,-80,4,2,1,90,0,1
158970,-80,4,2,1,50,0,1
159100,-80,4,2,1,100,0,1
160144,-80,4,2,0,70,0,1
160274,-80,4,2,1,100,0,1
162231,-80,4,2,0,70,0,1
162361,-80,4,2,1,100,0,1
163013,-80,4,2,1,70,0,1
163144,-80,4,2,1,50,0,1
163274,-80,4,2,1,100,0,1
164318,-80,4,2,0,60,0,1
164578,-133.333333333333,4,2,1,90,0,1
164839,-133.333333333333,4,2,0,50,0,1
164970,-80,4,2,1,100,0,1
165883,-80,4,2,0,60,0,1
166013,-80,4,2,1,100,0,1
166405,-80,4,2,0,70,0,1
166535,-80,4,2,1,100,0,1
167187,-80,4,2,1,70,0,1
167318,-80,4,2,1,50,0,1
167448,-80,4,2,1,100,0,1
167970,-80,4,2,1,80,0,1
168100,-80,4,2,1,100,0,1
168492,-80,4,2,1,90,0,1
168622,-80,4,2,1,100,0,1
169013,-80,4,2,0,65,0,1
169144,-80,4,2,1,100,0,1
169535,-80,4,2,0,75,0,1
169665,-80,4,2,1,100,0,1
170057,-80,4,2,0,80,0,1
170187,-80,4,2,1,100,0,1
170318,-80,4,2,1,70,0,1
170448,-80,4,2,1,50,0,1
170578,-80,4,2,1,100,0,1
170839,-80,4,2,1,80,0,1
171100,-80,4,2,1,90,0,1
171361,-80,4,2,1,80,0,1
171622,-133.333333333333,4,2,1,40,0,1
171769,-133.333333333333,4,2,1,50,0,1
172665,-133.333333333333,4,2,1,75,0,1
173187,-133.333333333333,4,2,1,60,0,1
173318,-133.333333333333,4,2,1,45,0,1
174752,-80,4,2,1,50,0,1
175405,-80,4,2,1,60,0,1
175665,-80,4,2,1,50,0,1
175796,-80,4,2,1,100,0,0
175926,-100,4,2,1,60,0,0
176839,-100,4,2,1,50,0,0
176970,-100,4,2,1,60,0,0
177883,-100,4,2,0,45,0,0
178013,-100,4,2,1,55,0,0
179970,-100,4,2,0,45,0,0
180100,-100,4,2,1,55,0,0
182057,-100,4,2,0,40,0,0
182187,-100,4,2,1,50,0,0
183100,-100,4,2,1,60,0,0
183231,-100,4,2,1,50,0,0
184144,-133.333333333333,4,2,0,40,0,0
184274,-133.333333333333,4,2,1,50,0,0
185187,-133.333333333333,4,2,1,60,0,0
185318,-133.333333333333,4,2,1,50,0,0
186231,-133.333333333333,4,2,0,35,0,0
186361,-133.333333333333,4,2,1,45,0,0
187274,-133.333333333333,4,2,1,35,0,0
187535,-133.333333333333,4,2,1,25,0,0
188057,-133.333333333333,4,2,1,30,0,0
189361,-100,4,2,1,25,0,0
190926,-100,4,2,1,20,0,0
192492,-100,4,2,1,15,0,0
194057,-100,4,2,1,10,0,0
195622,-100,4,2,1,5,0,0
196665,-100,4,2,1,0,0,0

[Colours]
Combo1 : 40,70,130
Combo2 : 255,255,255
Combo3 : 200,220,250
Combo4 : 120,200,250
Combo5 : 90,140,210

[HitObjects]
137,218,491,1,0
115,284,751,1,0
171,327,1012,1,0
229,285,1273,1,0
205,218,1534,2,0,B|265:204|303:147,1,119.999996423721,0|2
360,112,2317,5,0
300,152,2577,1,0
324,220,2838,1,0
396,220,3099,1,0
420,152,3360,1,0
419,153,3621,2,0,B|443:97|419:33,1,119.999996423721,0|2
103,110,4664,6,0,B|68:104|49:126,1,59.9999982118607
152,163,5187,2,0,B|163:196|196:200,1,59.9999982118607,0|0
174,94,5708,2,0,B|208:55|195:9,2,89.9999973177911,0|0|2
152,164,6752,1,0
148,236,7012,1,0
184,300,7273,2,0,B|236:332,1,59.9999982118607
304,352,7795,2,0,B|392:360,2,89.9999973177911,0|0|0
332,284,8838,6,0,B|368:232|356:164,1,119.999996423721,0|2
424,140,9621,1,0
408,68,9883,2,0,B|460:36,2,59.9999982118607,0|0|2
268,36,10925,6,0,B|228:92|272:152,1,119.999996423721,0|2
228,208,11708,1,0
164,244,11969,2,0,B|136:260|104:252,1,59.9999982118607
72,244,12360,1,2
28,88,12751,6,0,B|88:88,1,59.9999982118607,0|0
296,32,13534,1,2
476,152,14056,1,0
476,152,14317,2,0,B|476:120,2,29.9999991059304,0|0|2
316,300,15099,2,0,B|316:328,4,29.9999991059304,0|0|0|0|2
316,228,15882,5,0
316,228,16012,1,0
316,228,16143,1,0
348,124,16404,1,0
256,68,16664,1,2
164,124,16925,1,0
196,228,17186,2,0,B|316:228,1,119.999996423721,0|0
256,348,18230,2,0,B|256:220,1,119.999996423721,0|2
256,120,19012,1,2
256,192,19078,12,4,21361
304,232,21621,6,0,B|224:164,1,99.9999985098839,0|2
156,104,22143,2,0,B|100:104,2,40,4|4|4
248,76,22664,1,0
340,48,22925,2,0,B|340:8,2,40,2|0|0
432,76,23447,6,0,B|432:156,1,80
496,228,23969,2,0,B|496:308,1,80,2|0
408,264,24491,1,0
320,300,24751,1,0
232,336,25012,1,2
144,372,25273,1,4
144,372,25404,1,4
144,372,25534,5,4
72,308,25795,1,0
124,228,26056,1,0
220,240,26317,1,4
220,240,26447,1,4
220,240,26578,2,0,B|220:140,1,99.9999985098839,4|0
312,164,27099,2,0,B|312:80,1,80,2|0
396,32,27621,6,0,B|396:112,1,80
476,164,28143,2,0,B|476:248,1,80,2|0
476,340,28664,1,4
476,340,28925,1,0
436,312,29056,1,0
396,284,29187,2,0,B|360:260,1,40,2|0
324,232,29448,2,0,B|288:208,1,40
252,180,29709,5,4
148,80,29969,1,4
44,180,30230,1,4
148,280,30491,1,4
252,180,30752,2,0,B|252:72,1,99.9999985098839,6|0
332,24,31274,2,0,B|412:24,1,80
492,80,31796,6,0,B|516:200|492:320,1,240
400,348,32839,1,0
324,288,33100,1,0
236,328,33361,1,0
164,268,33622,1,4
116,268,33752,1,4
116,268,33883,6,0,B|92:148|116:28,1,240,6|4
164,28,34796,1,4
212,28,34926,2,0,B|212:196,1,160,4|0
316,348,35970,6,0,B|316:184,1,160,2|0
452,324,37013,1,4
480,232,37274,1,4
480,136,37535,1,4
460,40,37796,6,0,B|360:40,1,99.9999985098839,0|4
264,40,38317,1,0
168,40,38577,1,2
116,124,38839,2,0,B|8:124,1,99.9999985098839,0|4
64,208,39361,1,0
16,208,39491,2,0,B|-16:268|20:328,1,120,0|0
112,324,40144,6,0,B|144:269|112:209,1,120,0|0
160,212,40665,1,2
256,212,40926,1,0
316,284,41187,2,0,B|352:304|392:284,2,80,0|0|2
440,212,41970,6,0,B|492:212,2,49.999999254942,4|4|4
416,120,42491,1,0
352,48,42751,1,2
260,20,43013,1,0
164,24,43274,2,0,B|124:36|96:64|76:100,1,120,4|0
68,316,44056,5,0
112,292,44187,1,0
160,280,44318,2,0,B|200:260|236:280,1,80,2|0
284,292,44709,1,0
328,312,44839,2,0,B|368:332|404:312,2,80,0|0|4
372,224,45622,1,4
420,140,45882,2,0,B|420:60,1,80,2|0
276,60,46405,5,4
132,60,46665,1,0
132,204,46926,1,2
276,204,47187,1,0
276,204,47319,1,0
276,204,47448,2,0,B|276:324,1,120,4|0
276,324,47970,1,0
184,356,48231,6,0,B|144:372|104:356,1,80
68,328,48621,1,0
112,308,48751,2,0,B|112:224,1,80,0|2
32,176,49273,2,0,B|32:96,2,80,0|0|4
72,204,49925,1,0
88,160,50056,1,0
124,20,50317,6,0,B|208:20,1,80,4|4
348,36,50838,1,0
348,36,50969,2,0,B|408:52|444:104,1,120
320,176,51621,2,0,B|356:248|448:264,1,160,4|2
312,320,52404,5,0
312,320,52534,1,0
312,320,52664,1,0
320,176,52925,1,0
320,176,53056,2,0,B|260:160|224:108,1,120
148,48,53709,2,0,B|64:104,1,99.9999985098839,6|4
144,160,54231,1,2
132,208,54360,1,0
120,256,54491,1,2
108,304,54621,1,0
100,352,54751,6,0,B|176:328|260:344|332:380|420:344,1,320,4|4
500,296,56056,1,0
416,252,56317,1,2
416,252,56448,1,0
416,252,56578,2,0,B|416:168,1,80
500,124,57099,1,0
456,148,57231,2,0,B|456:24,1,120
312,28,57883,5,4
336,120,58144,1,0
256,168,58405,1,2
176,120,58665,1,0
204,28,58925,5,4
204,28,59056,1,0
204,28,59186,2,0,B|124:28,1,80,0|0
96,120,59708,2,0,B|180:120,1,80,0|4
148,212,60230,2,0,B|64:212,1,80,0|2
52,260,60621,1,0
40,308,60752,2,0,B|120:308,1,80
336,308,61404,5,0
224,124,61796,2,0,B|224:32,2,80,0|4|0
224,124,62447,1,0
224,124,62577,2,0,B|224:204,1,80,2|4
268,180,62969,1,4
316,180,63099,5,4
100,180,63491,1,0
224,356,63882,1,0
224,244,64144,2,0,B|224:112,1,119.999996423721,4|2
120,28,64925,5,0
168,20,65057,1,0
216,28,65187,2,0,B|276:28,1,59.9999982118607
324,20,65578,2,0,B|448:20,1,120
492,28,66099,1,0
492,28,66230,5,4
500,124,66491,1,0
484,220,66751,1,2
428,304,67012,1,0
324,348,67273,5,4
324,348,67534,1,4
212,344,67795,1,0
212,344,68056,1,0
100,296,68318,1,4
100,296,68577,1,4
36,184,68838,1,0
36,184,69099,1,4
100,296,69360,6,0,B|175:268,1,80,4|0
240,280,69751,1,0
240,280,69882,2,0,B|301:228,1,80,4|0
364,236,70273,1,0
364,236,70405,2,0,B|404:166,1,80,4|0
468,160,70795,1,0
468,160,70926,2,0,B|468:80,1,80,4|4
296,28,71448,5,4
116,28,71708,1,4
112,208,71969,2,0,B|-12:208|16:208,2,99.9999985098839,0|0|4
168,228,72621,1,0
224,248,72751,1,0
280,268,72882,1,0
336,288,73012,2,0,B|440:288,1,99.9999985098839
276,204,73534,5,4
228,312,73795,1,0
108,312,74056,2,0,B|8:312,2,99.9999985098839,0|0|4
136,256,74708,1,0
164,204,74838,2,0,B|268:204,1,99.9999985098839,0|4
292,148,75230,1,0
316,96,75360,2,0,B|420:96,1,99.9999985098839,0|4
316,96,75882,5,0
144,44,76143,1,0
60,204,76404,1,0
212,300,76664,1,4
212,300,76795,1,0
212,300,76925,1,0
212,300,77056,1,0
212,300,77186,6,0,B|312:300,1,99.9999985098839
480,232,77708,2,0,B|376:232,1,99.9999985098839,4|0
212,168,78230,2,0,B|112:168,2,99.9999985098839,0|0|4
212,168,78882,1,0
212,168,79012,1,0
368,76,79273,2,0,B|264:76,1,99.9999985098839,4|0
88,76,79795,5,4
88,256,80056,1,0
196,112,80317,1,0
24,164,80577,1,0
196,216,80838,1,4
368,164,81099,1,0
368,164,81230,2,0,B|168:164,1,199.999997019768
108,164,81882,6,0,B|152:256,1,99.9999985098839,4|0
152,73,82404,2,0,B|108:165,1,99.9999985098839,0|0
251,53,82925,2,0,B|149:74,1,99.9999985098839,4|0
153,73,83317,2,0,B|252:192,1,149.999997764826,0|4
388,72,83969,5,4
388,312,84491,1,4
148,312,85012,1,4
148,72,85534,1,4
268,280,86057,6,0,B|196:344|100:328,1,179.999994635582,4|0
112,260,87100,1,4
120,192,87360,2,0,B|56:192,2,59.9999982118607,0|4|0
300,192,88143,5,4
480,192,88404,1,0
388,36,88664,2,0,B|288:64|188:36,1,199.999997019768,0|4
190,36,89317,1,0
190,36,89447,1,0
190,36,89577,1,0
190,36,89708,1,0
28,120,89969,5,0
28,120,90099,1,0
28,120,90230,2,0,B|28:224,1,99.9999985098839,4|0
204,256,90751,2,0,B|204:360,1,99.9999985098839
364,268,91273,2,0,B|364:168,1,99.9999985098839,4|0
476,28,91795,2,0,B|476:136,1,99.9999985098839,0|4
476,128,92186,1,4
476,128,92317,5,4
368,80,92577,1,0
248,72,92838,1,0
132,96,93099,1,4
132,96,93230,1,0
132,96,93360,2,0,B|188:116|196:168|220:220|284:236,1,199.999997019768,4|0
392,260,94144,5,4
268,128,94405,1,4
444,156,94665,1,0
288,244,94925,1,0
364,79,95186,1,0
288,243,95447,6,0,B|188:243,1,99.9999985098839,4|0
264,79,95969,2,0,B|372:79,1,99.9999985098839,4|4
424,80,96360,1,4
424,80,96491,5,4
444,196,96751,1,0
340,260,97012,1,0
236,196,97273,1,0
264,80,97534,2,0,B|164:48|60:84,1,199.999997019768,4|0
172,140,98317,5,4
172,140,98447,1,4
172,140,98577,2,0,B|96:228|172:324,1,199.999997019768,4|0
288,296,99360,1,0
404,322,99621,2,0,B|478:228|402:140,1,199.999997019768,4|0
288,172,100404,5,4
288,172,100534,1,4
288,112,100664,2,0,B|288:12,2,99.9999985098839,4|0|0
168,112,101447,1,0
116,220,101708,2,0,B|12:220,2,99.9999985098839,4|0|0
224,276,102491,2,0,B|332:276,1,99.9999985098839,0|4
416,352,103012,1,0
436,232,103273,1,0
456,112,103534,1,4
456,112,103664,1,4
456,112,103795,5,4
292,32,104056,1,4
132,112,104317,1,4
104,288,104577,1,4
224,204,104839,6,0,B|304:204,1,80,4|0
392,240,105361,2,0,B|476:240,1,80,4|0
420,320,105883,2,0,B|356:320,1,59.9999982118607,4|0
272,364,106404,2,0,B|212:364,1,59.9999982118607,4|0
256,192,106795,12,4,109013
28,344,121274,5,4
28,344,121405,1,4
28,344,121534,1,4
108,288,121795,1,0
204,308,122056,1,2
296,276,122317,1,0
296,276,122448,1,0
296,276,122578,2,0,B|352:260,1,59.9999982118607,4|0
428,200,123100,2,0,B|452:164|448:120,1,80
324,48,123621,5,0
108,48,124012,1,0
216,236,124404,1,0
216,92,124664,2,0,B|216:12,1,80,4|0
216,156,125186,2,0,B|216:244,1,80,4|0
96,316,125708,6,0,B|180:316,1,80,4|0
272,316,126230,1,2
368,316,126491,2,0,B|368:368,2,49.999999254942,0|0|4
464,316,127013,2,0,B|488:260|460:196,1,119.999996423721
444,56,127795,5,0
232,28,128186,1,0
232,28,128317,2,0,B|152:28,1,80,4|0
24,96,128838,2,0,B|104:96,1,80,4|0
232,160,129360,2,0,B|152:160,1,80,2|0
112,184,129751,5,0
80,220,129882,2,0,B|48:276|80:340,2,120,4|0|0
160,276,130925,2,0,B|320:276,1,160,4|2
416,276,131708,1,0
480,204,131969,1,0
292,96,132360,5,0
76,96,132751,1,0
184,4,133012,1,4
184,148,133273,2,0,B|184:228,2,80,0|2|0
72,268,134057,6,0,B|184:312|308:268,1,239.999992847443,4|4
388,216,135360,2,0,B|432:172|440:108,1,119.999996423721
336,144,136143,5,4
336,288,136404,5,4
284,268,136534,1,0
232,248,136664,1,4
92,224,136925,5,4
144,192,137056,1,0
192,160,137187,1,4
336,144,137447,5,4
296,96,137577,1,0
256,48,137709,1,4
116,84,137969,5,4
176,216,138230,5,4
356,216,138491,1,4
204,116,138751,1,0
268,284,139012,1,0
328,116,139273,1,4
176,216,139534,1,0
176,216,139664,1,0
176,216,139795,1,0
356,216,140056,5,0
468,76,140317,2,0,B|468:180,1,99.9999985098839,4|0
468,356,140838,2,0,B|468:248,1,99.9999985098839
292,216,141360,1,4
112,216,141621,2,0,B|56:216,2,49.999999254942
292,216,142143,2,0,B|344:216,1,49.999999254942,4|4
428,188,142404,5,4
316,48,142664,1,0
488,96,142925,1,0
320,156,143186,1,0
424,8,143447,1,4
428,188,143708,2,0,B|428:240,2,49.999999254942
360,272,144231,6,0,B|296:272,1,59.9999982118607,0|4
216,208,144751,2,0,B|152:208,1,59.9999982118607
88,140,145274,2,0,B|8:140,1,80,0|4
112,80,145795,2,0,B|208:40|308:80,1,199.999997019768,0|4
360,108,146447,1,4
408,144,146577,6,0,B|448:176|460:228,1,99.9999985098839,4|0
280,252,147099,2,0,B|274:302|302:348,1,99.9999985098839,4|0
120,336,147621,2,0,B|125:285|97:239,1,99.9999985098839,4|0
188,244,148012,1,0
188,244,148143,2,0,B|182:193|210:147,1,99.9999985098839,4|0
384,192,148665,6,0,B|492:136|384:80,1,160,4|4
232,172,149448,2,0,B|196:136|240:92,1,80,0|4
52,68,149969,1,0
52,68,150099,2,0,B|100:144|52:212|52:212,1,149.999997764826,0|4
53,210,150621,1,4
53,210,150751,5,4
260,332,151273,1,4
448,184,151796,2,0,B|476:148|476:108|432:108|432:112|496:100|444:28,1,160,4|0
388,24,152447,1,0
328,24,152578,2,0,B|228:24,1,99.9999985098839,0|6
96,144,153230,5,0
248,236,153621,2,0,B|200:236,2,49.999999254942,0|0|4
336,156,154143,2,0,B|352:56,1,99.9999985098839
336,156,154664,2,0,B|352:256,1,99.9999985098839,0|4
196,348,155186,5,4
272,184,155447,1,0
312,360,155708,1,0
180,236,155969,1,4
180,236,156099,1,0
180,236,156230,2,0,B|84:200,2,99.9999985098839
56,104,157012,6,0,B|152:140,1,99.9999985098839,4|0
332,132,157534,2,0,B|232:92,1,99.9999985098839
420,84,158056,1,4
456,260,158317,1,0
332,132,158577,1,0
508,164,158838,1,4
508,164,158969,1,4
508,164,159099,5,4
344,236,159360,1,0
188,144,159621,2,0,B|84:144,2,99.9999985098839,0|0|4
188,324,160404,2,0,B|160:364,2,49.999999254942
344,236,160925,5,0
188,144,161186,1,4
368,132,161447,1,0
228,244,161708,1,0
276,72,161969,1,0
164,212,162230,2,0,B|68:248,1,99.9999985098839,4|0
16,224,162621,1,0
32,164,162751,2,0,B|128:128,1,99.9999985098839,0|4
184,108,163143,1,4
180,48,163273,6,0,B|326:8|480:48,1,299.999995529652,4|0
332,152,164317,1,4
332,292,164578,2,0,B|332:336,2,29.9999991059304,0|0|4
164,232,165099,1,0
164,232,165230,1,0
164,232,165360,5,4
28,116,165621,1,0
208,132,165882,1,4
48,220,166143,1,0
128,60,166404,1,4
164,232,166664,2,0,B|188:280,1,49.999999254942,0|0
452,232,167186,6,0,B|428:284,2,49.999999254942,4|4|4
384,132,167708,1,0
384,132,167969,1,4
280,72,168230,1,0
280,72,168491,1,4
164,44,168751,1,0
164,44,168882,1,0
104,56,169012,6,0,B|8:80,1,99.9999985098839,4|0
48,124,169404,1,0
48,124,169534,2,0,B|138:164,1,99.9999985098839,4|0
108,216,169926,1,0
108,216,170056,2,0,B|25:271,1,99.9999985098839,4|4
68,312,170448,1,4
116,348,170577,5,4
300,268,170838,1,4
148,136,171099,1,4
332,60,171360,1,4
492,180,171622,2,0,B|252:180,1,239.999992847443,4|4
64,216,173187,2,0,B|64:152,1,59.9999982118607,2|2
256,192,173577,12,4,174752
172,72,175534,5,4
172,72,175664,1,4
172,72,175795,5,4
256,28,176056,1,0
256,124,176317,1,0
340,76,176577,1,0
340,172,176838,2,0,B|340:252,1,80,4|0
432,228,177360,2,0,B|432:308,1,80,2|0
292,344,177882,6,0,B|212:360|132:344,1,160,4|0
48,296,178664,2,0,B|12:276|4:228,1,80,0|4
4,136,179186,1,0
4,136,179317,1,0
4,136,179448,2,0,B|11:91|47:71,1,80,4|4
184,32,179969,6,0,B|264:32,1,80,4|0
312,32,180360,1,0
352,56,180491,2,0,B|436:56,1,80
392,144,181012,2,0,B|308:144,1,80,4|0
288,188,181404,1,0
264,228,181534,2,0,B|184:228,1,80,2|0
52,288,182056,5,4
124,164,182317,1,0
140,308,182577,1,0
44,200,182838,1,0
184,228,183099,1,4
260,104,183360,1,0
260,104,183491,1,0
260,104,183621,2,0,B|324:48,1,80,2|0
356,152,184144,6,0,B|416:124|472:152,1,119.999996423721,4|0
416,200,184925,1,0
352,232,185186,2,0,B|292:260|236:232,1,119.999996423721,4|2
292,184,185969,1,0
248,128,186230,6,0,B|128:76|12:128,1,239.999992847443,4|4
40,196,187534,1,0
88,252,187795,1,2
156,272,188056,1,2
256,192,189360,12,2,196664
