osu file format v12

[General]
AudioFilename: ED.mp3
AudioLeadIn: 1000
PreviewTime: 59817
Countdown: 0
SampleSet: Soft
StackLeniency: 0.7
Mode: 0
LetterboxInBreaks: 0
WidescreenStoryboard: 0

[Editor]
Bookmarks: 53348
DistanceSpacing: 1
BeatDivisor: 4
GridSize: 4
TimelineZoom: 1

[Metadata]
Title:Kiss(and)Love (TV Size)
TitleUnicode:Kiss(and)Love (TV Size)
Artist:Tomatsu Haruka & Iguchi Yuka
ArtistUnicode:Tomatsu Haruka & Iguchi Yuka
Creator:No Dap
Version:Hard
Source:桜Trick
Tags:sakura yuri ed ending girl love shojou ai flower
BeatmapID:366703
BeatmapSetID:148249

[Difficulty]
HPDrainRate:6
CircleSize:4
OverallDifficulty:6
ApproachRate:8
SliderMultiplier:1.6
SliderTickRate:2

[Events]
//Background and Video events
Video,250,"ED.flv"
0,0,"bg1.jpg",0,0
//Break Periods
//Storyboard Layer 0 (Background)
//Storyboard Layer 1 (Fail)
//Storyboard Layer 2 (Pass)
//Storyboard Layer 3 (Foreground)
//Storyboard Sound Samples
//Background Colour Transformations
3,100,163,162,255

[TimingPoints]
286,375,4,2,1,60,1,0
286,-200,4,2,1,60,0,0
9286,-100,4,2,1,60,0,0
16786,-83.3333333333333,4,2,1,60,0,0
17911,-100,4,2,1,60,0,0
23536,-100,4,1,1,30,0,0
24661,-100,4,2,1,60,0,0
34786,-100,4,1,1,30,0,0
35161,-100,4,1,1,40,0,0
36286,-100,4,2,1,60,0,0
44911,-100,4,2,2,60,0,0
45098,-100,4,2,1,60,0,0
45286,-100,4,1,1,40,0,0
48286,-142.857142857143,4,2,3,50,0,0
48848,-142.857142857143,4,1,1,50,0,0
49411,-142.857142857143,4,2,3,50,0,0
49786,-142.857142857143,4,1,1,50,0,0
50161,-142.857142857143,4,2,1,50,0,0
50348,-142.857142857143,4,1,1,50,0,0
50911,-142.857142857143,4,2,3,50,0,0
51286,-142.857142857143,4,1,1,50,0,0
51661,-142.857142857143,4,2,3,50,0,0
51848,-142.857142857143,4,1,1,50,0,0
52411,-142.857142857143,4,2,3,50,0,0
52786,-142.857142857143,4,1,1,50,0,0
53161,-142.857142857143,4,2,3,50,0,0
53348,-142.857142857143,4,1,1,50,0,0
53911,-142.857142857143,4,2,3,50,0,0
54286,-142.857142857143,4,1,1,50,0,0
54661,-142.857142857143,4,2,3,50,0,0
55036,-142.857142857143,4,1,1,50,0,0
55411,-142.857142857143,4,2,3,50,0,0
55786,-142.857142857143,4,1,1,50,0,0
56161,-142.857142857143,4,2,3,50,0,0
56536,-142.857142857143,4,1,1,50,0,0
56911,-142.857142857143,4,2,3,50,0,0
57286,-100,4,1,1,40,0,0
60286,-100,4,2,1,80,0,1
70786,-100,4,1,1,40,0,0
71911,-100,4,2,1,80,0,0
72286,-100,4,2,1,80,0,1
83911,-100,4,2,1,70,0,0
84286,-100,4,2,3,60,0,0

[Colours]
Combo1 : 255,166,255
Combo2 : 255,255,157
Combo3 : 192,129,129
Combo4 : 128,128,192

[HitObjects]
86,291,286,6,0,L|101:131,1,160,4|0,0:0|0:0,0:0:0:0:
243,59,1786,1,2,0:0:0:0:
247,211,2536,1,2,0:0:0:0:
399,298,3286,6,0,L|382:136,1,160,4|0,0:0|0:0,0:0:0:0:
225,171,4786,2,0,L|147:194,1,80,2|0,0:0|0:0,0:0:0:0:
201,298,5536,2,0,L|278:274,1,80,2|0,0:0|0:0,0:0:0:0:
379,311,6286,6,0,L|359:152,1,160,4|0,0:0|0:0,0:0:0:0:
183,67,7786,2,0,P|223:62|263:67,1,80,2|0,0:0|0:0,0:0:0:0:
148,140,8536,2,0,P|109:144|69:140,1,80,2|0,0:0|0:0,0:0:0:0:
92,292,9286,5,4,0:0:0:0:
412,292,10036,1,4,0:0:0:0:
204,180,10786,5,4,0:0:0:0:
204,292,11161,1,4,0:0:0:0:
92,292,11536,1,4,0:0:0:0:
92,180,11911,2,0,L|92:100,1,80,2|0,0:0|0:0,0:0:0:0:
164,68,12286,6,0,P|243:76|323:69,1,160,4|8,0:0|0:0,0:0:0:0:
400,84,12848,1,0,0:0:0:0:
460,136,13036,2,0,L|456:215,1,80,2|0,0:0|0:0,0:0:0:0:
380,232,13411,2,0,L|376:311,1,80,8|2,0:0|0:0,0:0:0:0:
300,332,13786,6,0,L|140:344,1,160,0|8,0:0|0:0,0:0:0:0:
92,280,14348,1,2,0:0:0:0:
116,204,14536,2,0,L|276:192,1,160,0|10,0:0|0:0,0:0:0:0:
352,172,15099,1,0,0:0:0:0:
428,188,15286,6,0,P|407:115|333:95,1,160,4|8,0:0|0:0,0:0:0:0:
252,88,15848,1,2,0:0:0:0:
192,140,16036,2,0,L|174:217,1,80,0|0,0:0|0:0,0:0:0:0:
96,204,16411,2,0,L|113:126,1,80,8|2,0:0|0:0,0:0:0:0:
144,56,16786,6,0,P|215:63|287:60,1,143.999995605469,4|0,0:0|0:0,0:0:0:0:
304,77,17161,2,0,P|312:148|301:219,1,143.999995605469,4|0,0:0|0:0,0:0:0:0:
284,236,17536,2,0,P|331:241|378:230,1,95.9999970703126,4|0,0:0|0:0,0:0:0:0:
448,188,17911,5,8,0:0:0:0:
387,304,18098,1,2,0:0:0:0:
383,308,18192,1,0,0:0:0:0:
379,312,18286,2,0,P|301:328|222:326,1,160,4|8,0:0|0:0,0:0:0:0:
144,304,18848,1,2,0:0:0:0:
196,163,19036,2,0,L|144:223,1,80,0|2,0:0|0:0,0:0:0:0:
256,220,19411,2,0,L|308:160,1,80,8|2,0:0|0:0,0:0:0:0:
428,92,19786,6,0,P|436:184|424:251,1,160,0|8,0:0|0:0,0:0:0:0:
379,312,20348,2,0,P|302:327|230:297,1,160,2|2,0:0|0:0,0:0:0:0:
256,220,20911,1,8,0:0:0:0:
256,144,21098,1,2,0:0:0:0:
321,97,21286,6,0,P|256:56|191:96,2,160,4|8|4,0:0|0:0|0:0,0:0:0:0:
363,164,22223,1,2,0:0:0:0:
363,164,22411,2,0,L|312:235,1,80,8|2,0:0|0:0,0:0:0:0:
256,304,22786,5,4,0:0:0:0:
256,304,22973,2,0,L|256:144,1,160,4|4,0:0|0:0,0:0:0:0:
256,68,23536,2,0,L|256:40,12,26.6666666666667,0|0|0|0|0|0|0|0|0|0|0|0|4,0:0|0:0|0:0|0:0|0:0|0:0|0:0|0:0|0:0|0:0|0:0|0:0|0:0,0:0:0:0:
320,216,24661,5,2,0:0:0:0:
256,264,24848,1,0,0:0:0:0:
192,216,25036,2,0,B|176:228|164:264|176:296|192:316|192:316|142:325,1,160,2|0,0:0|0:0,0:0:0:0:
64,308,25598,1,2,0:0:0:0:
39,231,25786,2,0,P|35:152|41:72,1,160,2|0,0:0|0:0,0:0:0:0:
112,36,26348,1,2,0:0:0:0:
176,88,26536,2,0,L|176:168,1,80,0|2,0:0|0:0,0:0:0:0:
260,156,26911,2,0,L|260:76,1,80,0|2,0:0|0:0,0:0:0:0:
260,76,27286,5,0,0:0:0:0:
448,112,27661,2,0,P|446:151|443:191,1,80,2|0,0:0|0:0,0:0:0:0:
456,272,28036,2,0,B|372:264|296:273,1,160,2|0,0:0|0:0,0:0:0:0:
224,240,28598,1,2,0:0:0:0:
154,195,28786,2,0,P|79:208|51:279,1,160,2|2,0:0|0:0,0:0:0:0:
127,267,29348,1,2,0:0:0:0:
127,267,29536,2,0,P|202:254|230:183,1,160,0|0,0:0|0:0,0:0:0:0:
154,195,30098,1,2,0:0:0:0:
154,195,30286,5,0,0:0:0:0:
351,309,30661,1,2,2:0:0:0:
407,253,30848,1,0,2:0:0:0:
407,173,31036,1,2,2:0:0:0:
283,73,31411,2,0,L|203:83,1,80,0|2,0:0|0:0,0:0:0:0:
136,33,31786,2,0,P|64:62|35:135,1,160,2|0,0:0|0:0,0:0:0:0:
66,208,32348,1,2,0:0:0:0:
127,259,32536,2,0,L|201:229,1,80,0|2,0:0|0:0,0:0:0:0:
227,304,32911,2,0,L|290:255,1,80,0|2,0:0|0:0,0:0:0:0:
368,273,33286,5,2,0:0:0:0:
319,69,33661,2,0,P|314:108|292:141,1,80,0|0,0:0|0:0,0:0:0:0:
238,81,34036,2,0,P|215:112|179:130,1,80,2|0,0:0|0:0,0:0:0:0:
163,49,34411,2,0,P|127:64|88:62,1,80,0|0,0:0|0:0,0:0:0:0:
31,125,34786,6,0,L|28:164,3,40,4|0|0|0,0:0|0:0|0:0|0:0,0:0:0:0:
57,193,35161,2,0,L|54:232,3,40,0|0|0|0,0:0|0:0|0:0|0:0,0:0:0:0:
83,261,35536,1,0,0:0:0:0:
83,261,36286,5,4,0:0:0:0:
275,217,36661,2,0,P|279:256|276:296,1,80,8|0,0:0|0:0,0:0:0:0:
202,264,37036,2,0,P|198:225|201:185,1,80,2|0,0:0|0:0,0:0:0:0:
239,113,37411,1,8,0:0:0:0:
302,64,37598,1,0,0:0:0:0:
376,77,37786,2,0,P|426:135|422:229,1,160,2|8,0:0|0:0,0:0:0:0:
393,287,38348,1,2,0:0:0:0:
323,327,38536,2,0,P|286:310|254:285,1,80,0|2,0:0|0:0,0:0:0:0:
202,346,38911,2,0,P|172:307|159:278,1,80,8|0,0:0|0:0,0:0:0:0:
140,201,39286,6,0,P|135:123|145:35,1,160,2|8,0:0|0:0,0:0:0:0:
223,45,39848,1,0,0:0:0:0:
223,45,40036,2,0,P|302:53|381:41,1,160,2|8,0:0|0:0,0:0:0:0:
423,109,40598,1,0,0:0:0:0:
362,161,40786,2,0,P|335:189|319:226,1,80,2|0,0:0|0:0,0:0:0:0:
398,245,41161,2,0,P|391:283|398:323,1,80,8|2,0:0|0:0,0:0:0:0:
319,337,41536,1,0,0:0:0:0:
250,296,41723,2,0,L|170:299,2,80,2|8|0,0:0|0:0|0:0,0:0:0:0:
319,337,42286,5,2,0:0:0:0:
343,137,42661,2,0,L|346:216,2,80,8|0|2,0:0|0:0|0:0,0:0:0:0:
267,109,43223,1,0,0:0:0:0:
191,89,43411,2,0,P|148:93|111:92,1,80,8|0,0:0|0:0,0:0:0:0:
42,133,43786,2,0,P|35:192|37:252,1,120,2|0,0:0|0:0,0:0:0:0:
65,280,44161,1,8,0:0:0:0:
139,305,44348,2,0,P|212:324|267:271,2,160,2|2|0,0:0|0:0|0:0,0:0:0:0:
175,173,45286,6,0,L|193:250,1,80,0|0,0:0|0:0,0:0:0:0:
261,182,45661,2,0,L|338:163,1,80,8|0,0:2|0:0,0:0:0:0:
270,94,46036,2,0,L|251:16,1,80,0|0,0:0|0:0,0:0:0:0:
183,84,46411,2,0,L|105:102,1,80,8|0,0:2|0:0,0:0:0:0:
59,169,46786,6,0,P|70:227|54:284,1,120,4|0,0:2|0:0,0:0:0:0:
35,281,47161,2,0,L|112:300,1,80,8|0,0:2|0:0,0:0:0:0:
207,292,47536,2,0,P|218:234|202:177,1,120,4|0,0:2|0:0,0:0:0:0:
183,181,47911,2,0,L|260:161,1,80,8|0,0:2|0:0,0:0:0:0:
387,97,48286,6,0,L|279:53,1,111.999996582031,6|0,0:0|0:0,0:0:0:0:
211,53,48848,1,0,0:0:0:0:
243,117,49036,1,0,0:0:0:0:
91,137,49411,1,8,0:0:0:0:
51,281,49786,6,0,L|159:325,1,111.999996582031,0|0,0:0|0:0,0:0:0:0:
227,325,50348,1,0,0:0:0:0:
195,261,50536,1,0,0:0:0:0:
347,241,50911,1,8,0:0:0:0:
247,105,51286,6,0,P|301:100|334:57,1,111.999996582031,0|0,0:0|0:0,0:0:0:0:
267,37,51848,1,0,0:0:0:0:
267,37,52036,1,0,0:0:0:0:
339,165,52411,1,8,0:0:0:0:
265,279,52786,6,0,P|211:284|178:327,1,111.999996582031,0|0,0:0|0:0,0:0:0:0:
252,352,53348,1,0,0:0:0:0:
252,352,53536,1,0,0:0:0:0:
173,219,53911,1,8,0:0:0:0:
173,219,54286,6,0,L|206:325,2,111.999996582031,4|0|0,0:2|0:0|0:0,0:0:0:0:
117,47,55411,1,8,0:0:0:0:
173,219,55786,1,0,0:0:0:0:
26,112,56161,1,0,0:0:0:0:
207,112,56536,1,0,0:0:0:0:
61,219,56911,1,8,0:0:0:0:
207,309,57286,6,0,L|223:261,3,40,4|0|0|0,0:2|0:0|0:0|0:0,0:0:0:0:
259,271,57661,2,0,L|275:223,3,40
311,233,58036,2,0,L|327:185,3,40,4|0|0|0,0:2|0:0|0:0|0:0,0:0:0:0:
363,195,58411,2,0,L|379:147,3,40
403,125,58786,6,0,B|411:93|403:61|379:37|344:35,1,120,4|0,0:0|0:0,0:0:0:0:
325,68,59161,2,0,L|233:74,1,80,2|2,0:0|0:2,0:0:0:0:
167,101,59536,6,0,L|151:49,3,40,2|0|0|0,0:0|0:0|0:0|0:0,0:0:0:0:
119,77,59911,2,0,L|103:21,3,40,4|0|0|0,0:0|0:0|0:0|0:0,0:0:0:0:
67,41,60286,6,0,P|67:121|61:200,1,160,4|8,0:0|0:0,0:0:0:0:
11,261,60848,2,0,B|35:277|66:286|103:276|123:245|123:245|135:276,1,160,2|2,0:0|0:0,0:0:0:0:
207,321,61411,1,8,0:0:0:0:
288,336,61598,6,0,B|370:346|370:346|420:340|437:312,1,160,2|0,0:0|0:0,0:0:0:0:
462,234,62161,1,8,0:0:0:0:
462,234,62348,1,2,0:0:0:0:
413,163,62536,2,0,P|410:124|413:84,1,80,0|2,0:0|0:0,0:0:0:0:
335,69,62911,2,0,P|295:67|255:70,1,80,8|2,0:0|0:0,0:0:0:0:
131,109,63286,6,0,B|154:187|190:211,1,120,4|0,0:0|0:0,0:0:0:0:
230,210,63661,1,8,0:0:0:0:
287,144,63848,2,0,P|363:141|406:204,1,160,2|2,0:0|0:0,0:0:0:0:
327,213,64411,2,0,L|271:289,1,80,8|2,0:0|0:0,0:0:0:0:
230,210,64786,6,0,L|151:226,1,80,4|0,0:0|0:0,0:0:0:0:
87,181,65161,2,0,L|8:197,1,80,8|0,0:0|0:0,0:0:0:0:
3,277,65536,2,0,B|68:264|68:264|116:288,1,120,2|0,0:0|0:0,0:0:0:0:
117,320,65911,1,8,0:0:0:0:
207,328,66098,1,2,0:0:0:0:
207,328,66286,6,0,P|286:320|365:329,1,160,4|8,0:0|0:0,0:0:0:0:
419,269,66848,2,0,L|423:189,1,80,2|0,0:0|0:0,0:0:0:0:
359,141,67223,1,2,0:0:0:0:
289,107,67410,1,8,0:0:0:0:
280,31,67598,1,2,0:0:0:0:
355,61,67786,6,0,L|224:153,1,160,4|8,0:0|0:0,0:0:0:0:
229,233,68348,2,0,P|159:201|148:125,1,160,2|2,0:0|0:0,0:0:0:0:
224,153,68911,1,8,0:0:0:0:
87,261,69098,1,2,0:0:0:0:
148,316,69286,6,0,P|226:326|305:314,1,160,4|8,0:0|0:0,0:0:0:0:
356,252,69848,1,2,0:0:0:0:
408,192,70036,2,0,L|400:100,1,80,4|2,0:0|0:0,0:0:0:0:
320,144,70411,2,0,L|268:68,1,80,8|2,0:0|0:0,0:0:0:0:
196,76,70786,6,0,L|177:40,3,40,4|0|0|0,0:2|0:0|0:0|0:0,0:0:0:0:
148,69,71161,2,0,L|129:33,3,40
100,62,71536,2,0,L|81:26,3,40,4|0|0|0,0:2|0:0|0:0|0:0,0:0:0:0:
52,52,71911,6,0,B|56:141,1,80,4|0,0:0|0:0,0:0:0:0:
128,144,72286,2,0,B|120:180|100:200|72:212|36:204|36:204|48:237,1,160,4|8,0:0|0:0,0:0:0:0:
116,280,72848,2,0,P|198:277|292:288,1,160,2|2,0:0|0:0,0:0:0:0:
340,240,73411,1,8,0:0:0:0:
384,175,73598,2,0,P|345:105|315:31,1,160,2|0,0:0|0:0,0:0:0:0:
315,31,74161,5,8,0:0:0:0:
172,104,74536,1,0,0:0:0:0:
240,248,74911,1,8,0:0:0:0:
384,176,75286,1,4,0:0:0:0:
172,104,75661,6,0,L|148:196,1,80,8|2,0:0|0:0,0:0:0:0:
88,232,76036,1,0,0:0:0:0:
384,176,76411,2,0,L|408:84,1,80,8|2,0:0|0:0,0:0:0:0:
468,48,76786,1,4,0:0:0:0:
220,53,77161,6,0,L|232:149,1,80,8|2,0:0|0:0,0:0:0:0:
324,112,77536,2,0,L|300:204,1,80,0|2,0:0|0:0,0:0:0:0:
242,241,77911,1,8,0:0:0:0:
281,312,78098,1,2,0:0:0:0:
358,331,78286,6,0,P|434:321|467:252,1,160,4|8,0:0|0:0,0:0:0:0:
467,171,78848,2,0,P|433:102|356:92,1,160,2|2,0:0|0:0,0:0:0:0:
350,211,79411,1,8,0:0:0:0:
227,337,79786,5,4,0:0:0:0:
102,212,80161,1,8,0:0:0:0:
226,87,80536,1,4,0:0:0:0:
350,211,80911,1,8,0:0:0:0:
226,337,81286,6,0,P|151:319|109:253,1,160,4|8,0:0|0:0,0:0:0:0:
188,140,81848,2,0,P|263:157|305:223,1,160,4|0,0:0|0:0,0:0:0:0:
207,238,82411,1,4,0:0:0:0:
256,192,82504,12,2,83911,0:0:0:0:
185,325,84286,6,0,L|86:199,1,160,4|8,0:0|0:0,0:0:0:0:
327,325,85036,2,0,L|425:199,1,160,4|8,0:0|0:0,0:0:0:0:
256,40,85786,6,0,L|256:200,1,160,4|8,0:0|0:0,0:3:0:0:
256,284,86348,1,0,0:0:0:0:
256,284,86536,2,0,L|256:364,2,80,4|0|8,0:0|0:0|0:0,0:0:0:0:
256,200,87098,1,4,0:0:0:0:
