osu file format v13

[General]
AudioFilename: __Kill la Kill_ Before My Body is Dry _Tomatomerde Remix_.mp3
AudioLeadIn: 0
PreviewTime: 65838
Countdown: 0
SampleSet: Soft
StackLeniency: 0.7
Mode: 0
LetterboxInBreaks: 1
WidescreenStoryboard: 1

[Editor]
DistanceSpacing: 1.4
BeatDivisor: 4
GridSize: 8
TimelineZoom: 1

[Metadata]
Title:Before My Body is Dry (Drum&Bass Remix)
TitleUnicode:Before My Body is Dry (Drum&Bass Remix)
Artist:Tomatomerde
ArtistUnicode:Tomatomerde
Creator:etildard
Version:Hard
Source:
Tags:
BeatmapID:575881
BeatmapSetID:249391

[Difficulty]
HPDrainRate:6
CircleSize:3.8
OverallDifficulty:6
ApproachRate:8
SliderMultiplier:1.3
SliderTickRate:1

[Events]
//Background and Video events
//Break Periods
//Storyboard Layer 0 (Background)
//Storyboard Layer 1 (Fail)
//Storyboard Layer 2 (Pass)
//Storyboard Layer 3 (Foreground)
//Storyboard Sound Samples

[TimingPoints]
666.219892074429,344.827586206897,4,2,0,62,1,0
11528,-100,4,1,0,62,0,1
33769,-133.333333333333,4,1,0,62,0,0
44804,-100,4,1,0,62,0,0
65752,-100,4,1,0,62,0,1
99890,-100,4,1,0,62,0,0
166355,-100,4,1,0,62,0,1
189631,-100,4,1,0,62,0,0

[HitObjects]
168,96,666,6,0,P|240:120|304:88,1,130
256,192,1355,1,0,0:0:0:0:
176,184,1528,2,0,P|144:176|112:144,1,65
256,272,2045,6,0,P|328:272|384:240,1,130
392,328,2735,1,0,0:0:0:0:
320,344,2907,2,0,P|264:336|240:320,1,65
64,192,3424,5,0,0:0:0:0:
112,128,3597,1,0,0:0:0:0:
160,192,3769,1,0,0:0:0:0:
352,192,4114,5,0,0:0:0:0:
400,128,4286,1,0,0:0:0:0:
448,192,4459,1,0,0:0:0:0:
256,296,4804,6,0,L|256:160,1,130
256,56,5493,1,0,0:0:0:0:
256,136,5666,2,0,L|256:208,1,65
88,176,6183,6,0,B|144:136|200:192|224:184,1,130
344,264,6873,1,0,0:0:0:0:
272,264,7045,2,0,L|208:264,1,65
432,176,7562,6,0,B|400:168|320:200|296:192,1,130
152,264,8252,1,0,0:0:0:0:
240,264,8424,2,0,L|312:264,1,65
256,128,8769,6,0,L|256:88,2,32.5,0|0|0,0:0|0:0|0:0,0:0:0:0:
256,184,9114,1,0,0:0:0:0:
256,200,9286,1,0,0:0:0:0:
256,216,9459,1,0,0:0:0:0:
256,232,9631,1,0,0:0:0:0:
256,248,9804,1,0,0:0:0:0:
256,264,9976,1,0,0:0:0:0:
256,320,10148,2,0,L|256:352,2,32.5,0|0|0,0:0|0:0|0:0,0:0:0:0:
256,192,10407,12,0,11355,0:0:0:0:
168,136,11700,6,0,B|128:120|136:88|80:80,2,97.5,0|0|0,0:0|0:0|0:0,0:0:0:0:
160,240,12390,2,0,B|120:256|136:296|80:304,2,97.5,0|0|0,0:0|0:0|0:0,0:0:0:0:
256,192,13080,5,0,0:0:0:0:
352,192,13252,1,0,0:0:0:0:
440,192,13424,1,0,0:0:0:0:
352,192,13597,1,0,0:0:0:0:
256,192,13769,2,0,B|208:208|184:168|144:208,2,97.5,0|0|0,0:0|0:0|0:0,0:0:0:0:
272,96,14459,6,0,B|328:88|344:112|384:80,2,97.5,0|0|0,0:0|0:0|0:0,0:0:0:0:
256,240,15148,2,0,B|200:224|184:256|136:224,2,97.5,0|0|0,0:0|0:0|0:0,0:0:0:0:
256,144,15838,5,0,0:0:0:0:
312,80,16011,1,0,0:0:0:0:
368,144,16183,1,0,0:0:0:0:
312,208,16355,1,0,0:0:0:0:
256,144,16528,2,0,B|224:128|216:168|160:136,2,97.5,0|0|0,0:0|0:0|0:0,0:0:0:0:
112,224,17217,6,0,B|96:264|144:296|80:336,2,97.5,0|0|0,0:0|0:0|0:0,0:0:0:0:
232,160,17907,2,0,B|216:200|264:232|200:272,2,97.5,0|0|0,0:0|0:0|0:0,0:0:0:0:
280,80,18597,5,0,0:0:0:0:
344,144,18769,1,0,0:0:0:0:
400,72,18942,1,0,0:0:0:0:
464,136,19114,1,0,0:0:0:0:
408,208,19286,2,0,B|392:256|440:272|400:304,2,97.5,0|0|0,0:0|0:0|0:0,0:0:0:0:
288,240,19976,5,0,0:0:0:0:
232,168,20148,1,0,0:0:0:0:
184,240,20321,1,0,0:0:0:0:
128,168,20493,1,0,0:0:0:0:
72,240,20666,1,0,0:0:0:0:
184,280,20838,2,0,B|192:312|168:320|184:344,2,65,0|0|0,0:0|0:0|0:0,0:0:0:0:
336,304,21355,6,0,B|376:296|408:320|440:296,2,97.5,0|0|0,0:0|0:0|0:0,0:0:0:0:
184,304,22045,2,0,B|144:296|112:320|80:296,2,97.5,0|0|0,0:0|0:0|0:0,0:0:0:0:
184,304,22648,5,0,0:0:0:0:
184,304,22735,1,0,0:0:0:0:
256,264,22907,2,0,B|248:248|248:248|264:240|264:240|248:232|248:232|264:224|264:224|248:216|248:216|264:208|264:208|248:200|248:200|272:176,1,130
256,120,23424,2,0,B|240:88|280:64|256:16,2,97.5,0|0|0,0:0|0:0|0:0,0:0:0:0:
320,192,24114,6,0,B|336:176|376:208|408:184,1,65
456,232,24459,1,0,0:0:0:0:
392,280,24631,1,0,0:0:0:0:
216,288,24804,2,0,B|176:272|168:312|136:280,1,65
88,248,25148,1,0,0:0:0:0:
152,200,25321,1,0,0:0:0:0:
48,128,25493,6,0,B|64:176|32:184|56:224,1,97.5
192,192,26011,1,0,0:0:0:0:
336,208,26183,2,0,B|352:256|320:264|344:304,1,97.5,0|0,0:0|0:0,0:0:0:0:
472,280,26700,1,0,0:0:0:0:
448,192,26873,5,0,0:0:0:0:
384,128,27045,1,0,0:0:0:0:
320,192,27217,1,0,0:0:0:0:
384,256,27390,1,0,0:0:0:0:
256,312,27562,2,0,B|216:288|200:328|152:304,2,97.5,0|0|0,0:0|0:0|0:0,0:0:0:0:
232,224,28252,5,0,0:0:0:0:
160,168,28424,2,0,P|200:136|288:160,1,130
352,192,28942,1,0,0:0:0:0:
440,192,29114,2,0,P|408:256|336:280,1,130
288,104,29631,6,0,B|312:64|352:88|376:40,2,97.5,0|0|0,0:0|0:0|0:0,0:0:0:0:
224,288,30321,2,0,B|200:248|160:272|136:224,2,97.5,0|0|0,0:0|0:0|0:0,0:0:0:0:
304,240,31011,5,0,0:0:0:0:
368,176,31183,1,0,0:0:0:0:
304,112,31355,1,0,0:0:0:0:
240,176,31528,1,0,0:0:0:0:
304,240,31700,2,0,B|288:288|320:296|296:344,2,97.5,0|0|0,0:0|0:0|0:0,0:0:0:0:
160,192,32390,5,0,0:0:0:0:
160,192,32476,1,0,0:0:0:0:
160,192,32562,1,0,0:0:0:0:
112,112,32735,1,0,0:0:0:0:
64,32,32907,1,0,0:0:0:0:
152,32,33080,2,0,B|184:16|208:64|248:24,2,97.5,0|0|0,0:0|0:0|0:0,0:0:0:0:
152,32,33769,1,4,0:0:0:0:
256,128,33942,6,0,L|288:176,1,48.750001859665
283,168,34286,1,0,0:0:0:0:
283,168,34459,1,0,0:0:0:0:
432,168,34631,1,0,0:0:0:0:
368,232,34804,1,0,0:0:0:0:
