osu file format v6

[General]
AudioFilename: Tomasz Karolak - Anarchia.mp3
AudioLeadIn: 0
PreviewTime: 27027
Countdown: 1
SampleSet: Normal
StackLeniency: 0.7
Mode: 0
LetterboxInBreaks: 1

[Editor]
Bookmarks: 67,11615,18318,22865,26896,38146,45224,51318,63505,77474,90693
DistanceSpacing: 0.699999988079071
BeatDivisor: 4
GridSize: 8

[Metadata]
Title:Anarchia
Artist:Tomasz Karolak
Creator:Malar
Version:Easy
Source:
Tags:39 i pol

[Difficulty]
HPDrainRate:3
CircleSize:3
OverallDifficulty:1
SliderMultiplier:0.4
SliderTickRate:1

[Events]
//Background and Video events
0,0,"39ipoljpg.jpg"
//Break Periods
2,79727,89847
//Storyboard Layer 0 (Background)
//Storyboard Layer 1 (Fail)
//Storyboard Layer 2 (Pass)
//Storyboard Layer 3 (Foreground)
//Storyboard Sound Samples
//Background Colour Transformations
3,100,255,0,0

[TimingPoints]
402,375,4,1,0,80,1,0
64527,-100,4,1,0,80,0,1
75365,-100,4,1,0,80,0,0
75402,-100,4,1,0,80,0,1
79527,-100,4,1,0,80,0,0

[Colours]
Combo1 : 151,75,0
Combo2 : 255,255,179
Combo3 : 151,0,0

[HitObjects]
160,96,12402,5,0
288,160,13152,1,8
160,224,13902,1,0
288,288,14652,1,8
206,169,15402,2,0,B|259:231,2,80,0|8|0
158,114,17277,5,4
158,114,17652,5,4
158,114,18027,5,4
224,86,18402,6,0,B|262:70|275:61|299:55|315:59|331:63|340:71,1,120,0|8
342,140,19902,2,0,B|336:134|320:130|304:126|280:132|267:141|229:157,1,120,0|8
224,228,21402,2,0,B|263:212|276:203|300:197|316:201|332:205|338:211,1,120,0|8
314,279,22902,2,0,B|338:276,7,20,0|8|0|8|0|8|0|12
256,208,24402,12,4,26652
172,103,27027,5,4
172,103,27402,2,4,B|140:167|140:199|140:231|178:250,1,160
330,98,30027,5,4
330,98,30402,2,4,B|364:115|364:147|364:179|332:243,1,160
166,103,33027,5,4
166,102,33402,2,4,B|183:69|215:69|247:69|311:101,1,160
171,266,36027,5,4
171,266,36402,2,4,B|235:298|267:298|299:298|315:264,1,160
98,74,39402,5,0
241,76,40152,1,8
97,74,40902,2,0,B|96:156,1,80,0|8
240,155,42402,5,0
96,156,43152,1,8
239,156,43902,2,0,B|324:155,1,80,0|8
318,155,45402,5,0
462,155,46152,1,8
318,155,46902,2,0,B|318:240,1,80,0|8
174,244,48402,5,0
77,137,49152,2,0,B|72:120|62:108|68:84|80:72|88:71|94:68|96:68,1,80,8|0
238,66,50652,5,12
238,66,51027,5,12
256,208,51402,12,4,52527
232,152,52902,6,0,B|214:140|188:134|167:143|154:150,2,80,0|8|0
232,152,54777,1,4
232,152,55152,1,4
232,152,55527,5,4
248,168,55902,2,0,B|266:182|283:214|274:234|260:245|261:238,2,80,0|8|0
248,168,57777,1,4
248,168,58152,1,4
248,168,58527,5,4
264,184,58902,2,0,B|277:178|295:168|320:178|337:190|341:197,2,80,0|8|0
264,184,60777,1,4
264,184,61152,1,4
280,200,61527,5,4
280,200,61902,2,0,B|273:197|261:180|251:165|264:150|279:136|286:133,2,80,0|8|0
76,57,64527,5,0
146,43,64902,1,8
217,38,65277,1,8
288,40,65652,1,2
358,53,66027,1,4
412,99,66402,5,8
442,164,66777,1,8
447,235,67152,1,2
429,304,67527,1,4
374,350,67902,5,8
302,355,68277,1,8
230,358,68652,1,2
158,352,69027,1,4
94,317,69402,5,8
50,259,69777,1,8
68,189,70152,1,2
118,138,70527,1,4
189,147,70902,6,4,B|203:142|212:136|221:131|228:133,3,40,8|8|2|4
296,118,72402,6,4,B|301:132|307:141|312:150|310:157,3,40,8|8|2|4
242,178,73902,6,4,B|228:183|219:189|210:194|203:192,3,40,8|8|2|4
256,208,75402,12,12,79527
75,87,91527,5,4
75,87,91902,2,4,B|100:86|130:79|152:72|169:70|198:92|221:124,1,160
218,121,93777,6,8,B|186:152,2,40,8|8|4
218,121,94902,2,4,B|224:140|235:158|246:161|263:169|281:166|293:163|314:158|356:134,1,160
352,136,96777,6,8,B|348:130|336:119|330:112|324:104,2,40,8|8|4
352,136,97902,2,4,B|373:150|404:178|414:209|398:231|380:244|350:259,1,160
353,257,99777,6,8,B|384:288,2,40,8|8|4
353,257,100902,2,4,B|323:265|288:264|272:255|228:248|192:238,1,160
256,208,102777,12,4,106902
