osu file format v14

[General]
AudioFilename: Go EXCEED!!.mp3
AudioLeadIn: 1500
PreviewTime: 56373
Countdown: 0
SampleSet: Normal
StackLeniency: 0.7
Mode: 3
LetterboxInBreaks: 0
SpecialStyle: 0
WidescreenStoryboard: 1

[Editor]
Bookmarks: 21994,22967,51833,53454,82968,88157,89292,89394
DistanceSpacing: 1
BeatDivisor: 4
GridSize: 8
TimelineZoom: 1.2

[Metadata]
Title:Go EXCEED!!
TitleUnicode:Go EXCEED!!
Artist:Tom-H@ck featuring Oishi Masayoshi
ArtistUnicode:Tom-H@ck featuring 大石昌良
Creator:R801
Version:7K HD
Source:Ace of Diamond
Tags:Spokon Opening TV Size Hassou_Tobii Remillion_Cross Atsuro ffstar0716 DakeDekaane ダイヤのA エース Daiya no Ace Sports Baseball Ooishi
BeatmapID:369002
BeatmapSetID:135497

[Difficulty]
HPDrainRate:7
CircleSize:7
OverallDifficulty:8
ApproachRate:5
SliderMultiplier:1.4
SliderTickRate:1

[Events]
//Background and Video events
0,0,"DnA.png",0,0
Video,-5,"Diamond no Ace OP -5ms.avi"
//Break Periods
//Storyboard Layer 0 (Background)
//Storyboard Layer 1 (Fail)
//Storyboard Layer 2 (Pass)
//Storyboard Layer 3 (Foreground)
//Storyboard Sound Samples

[TimingPoints]
590,324.324324324324,4,1,1,40,1,0
590,-100,4,1,1,40,0,0
1238,324.324324324324,4,1,1,40,1,0
51833,-83.3333333333333,4,1,1,40,0,0
52319,-125,4,1,1,40,0,0
52481,-83.3333333333333,4,1,1,40,0,0
52806,-125,4,1,1,40,0,0
52968,-83.3333333333333,4,1,1,40,0,0
53292,-125,4,1,1,40,0,0
53454,-83.3333333333333,4,1,1,40,0,0
53779,-100,4,1,1,40,0,0
67400,-100,4,1,1,40,0,1
80373,-100,4,1,1,40,0,0
83130,-90.9090909090909,4,1,1,40,0,0
88157,-166.666666666667,4,1,1,40,0,0
89292,-90.9090909090909,4,1,1,40,0,0

[HitObjects]
256,192,1076,5,0,0:0:0:0:
109,192,1076,128,0,1562:0:0:0:0:
402,192,1076,1,0,0:0:0:0:
256,192,1562,1,0,0:0:0:0:
402,192,1724,1,0,0:0:0:0:
475,192,1886,1,0,0:0:0:0:
109,192,2048,1,0,0:0:0:0:
36,192,2210,1,0,0:0:0:0:
329,192,2373,128,2,2859:0:0:0:0:
182,192,2373,1,0,0:0:0:0:
402,192,2373,1,0,0:0:0:0:
256,192,2535,1,0,0:0:0:0:
36,192,2697,1,0,0:0:0:0:
109,192,2859,1,0,0:0:0:0:
256,192,3021,1,0,0:0:0:0:
402,192,3183,1,0,0:0:0:0:
182,192,3346,1,0,0:0:0:0:
402,192,3508,1,0,0:0:0:0:
36,192,3670,1,0,0:0:0:0:
329,192,3832,1,0,0:0:0:0:
256,192,3832,128,2,4156:0:0:0:0:
109,192,4156,1,0,0:0:0:0:
256,192,4319,1,0,0:0:0:0:
36,192,4481,1,0,0:0:0:0:
475,192,4481,1,0,0:0:0:0:
256,192,4643,1,0,0:0:0:0:
329,192,4805,1,0,0:0:0:0:
182,192,4805,1,0,0:0:0:0:
475,192,4967,128,2,5454:0:0:0:0:
256,192,4967,1,0,0:0:0:0:
36,192,5129,1,0,0:0:0:0:
182,192,5292,1,0,0:0:0:0:
329,192,5454,1,0,0:0:0:0:
256,192,5616,1,0,0:0:0:0:
182,192,5778,1,0,0:0:0:0:
109,192,5940,1,0,0:0:0:0:
402,192,6102,1,0,0:0:0:0:
109,192,6265,1,0,0:0:0:0:
36,192,6265,1,0,0:0:0:0:
475,192,6265,128,0,6751:0:0:0:0:
256,192,6346,1,0,0:0:0:0:
402,192,6427,1,0,0:0:0:0:
329,192,6427,1,0,0:0:0:0:
36,192,6589,1,0,0:0:0:0:
109,192,6751,1,0,0:0:0:0:
182,192,6913,1,0,0:0:0:0:
329,192,7075,1,0,0:0:0:0:
475,192,7237,1,0,0:0:0:0:
402,192,7400,1,0,0:0:0:0:
329,192,7562,1,0,0:0:0:0:
247,192,7724,1,0,0:0:0:0:
182,192,7724,128,2,8535:0:0:0:0:
36,192,7886,1,0,0:0:0:0:
329,192,8048,1,0,0:0:0:0:
475,192,8210,1,0,0:0:0:0:
402,192,8373,1,0,0:0:0:0:
329,192,8535,1,0,0:0:0:0:
475,192,8697,1,0,0:0:0:0:
109,192,8859,1,0,0:0:0:0:
402,192,9021,1,0,0:0:0:0:
256,192,9021,1,0,0:0:0:0:
36,192,9183,1,0,0:0:0:0:
182,192,9346,1,0,0:0:0:0:
256,192,9508,1,0,0:0:0:0:
329,192,9670,1,0,0:0:0:0:
109,192,9832,1,0,0:0:0:0:
256,192,9994,1,8,0:0:0:0:
402,192,10156,1,0,0:0:0:0:
36,192,10319,128,10,10967:0:0:0:0:
182,192,10319,1,8,0:0:0:0:
475,192,10967,128,10,11616:0:0:0:0:
329,192,10967,1,8,0:0:0:0:
256,192,11048,1,0,0:0:0:0:
182,192,11129,1,8,0:0:0:0:
109,192,11210,1,0,0:0:0:0:
36,192,11292,1,12,0:0:0:0:
256,192,11454,1,8,0:0:0:0:
329,192,11616,1,0,0:0:0:0:
182,192,11616,1,0,0:0:0:0:
109,192,11778,1,0,0:0:0:0:
402,192,11940,1,0,0:0:0:0:
256,192,11940,1,0,0:0:0:0:
36,192,12102,1,0,0:0:0:0:
475,192,12265,1,0,0:0:0:0:
329,192,12265,1,0,0:0:0:0:
256,192,12427,1,0,0:0:0:0:
182,192,12589,1,0,0:0:0:0:
36,192,12589,1,0,0:0:0:0:
256,192,12751,1,0,0:0:0:0:
329,192,12913,1,0,0:0:0:0:
475,192,12913,1,0,0:0:0:0:
256,192,13075,1,0,0:0:0:0:
36,192,13237,1,0,0:0:0:0:
182,192,13237,1,0,0:0:0:0:
329,192,13400,1,0,0:0:0:0:
256,192,13562,1,0,0:0:0:0:
36,192,13724,1,0,0:0:0:0:
182,192,13724,1,0,0:0:0:0:
475,192,13886,1,0,0:0:0:0:
329,192,13886,1,0,0:0:0:0:
256,192,14048,1,0,0:0:0:0:
475,192,14210,1,0,0:0:0:0:
36,192,14210,1,0,0:0:0:0:
256,192,14373,1,0,0:0:0:0:
109,192,14535,1,0,0:0:0:0:
402,192,14535,1,0,0:0:0:0:
256,192,14697,1,0,0:0:0:0:
182,192,14859,1,0,0:0:0:0:
329,192,14859,1,0,0:0:0:0:
475,192,15021,1,0,0:0:0:0:
36,192,15183,1,0,0:0:0:0:
182,192,15346,1,0,0:0:0:0:
475,192,15508,1,0,0:0:0:0:
329,192,15508,1,0,0:0:0:0:
109,192,15670,1,0,0:0:0:0:
475,192,15832,1,0,0:0:0:0:
256,192,15994,1,0,0:0:0:0:
182,192,16156,1,0,0:0:0:0:
36,192,16156,1,0,0:0:0:0:
256,192,16319,1,0,0:0:0:0:
329,192,16481,1,0,0:0:0:0:
402,192,16643,1,0,0:0:0:0:
256,192,16805,1,8,0:0:0:0:
475,192,16805,1,8,0:0:0:0:
36,192,16805,128,2,16967:0:0:0:0:
182,192,16967,1,8,0:0:0:0:
329,192,17129,1,8,0:0:0:0:
109,192,17129,1,8,0:0:0:0:
475,192,17292,128,2,17454:0:0:0:0:
182,192,17292,1,0,0:0:0:0:
256,192,17454,1,8,0:0:0:0:
329,192,17616,1,8,0:0:0:0:
402,192,17778,1,8,0:0:0:0:
36,192,17778,128,2,17940:0:0:0:0:
182,192,17940,1,8,0:0:0:0:
402,192,18102,1,8,0:0:0:0:
475,192,18265,1,8,0:0:0:0:
182,192,18265,128,2,19400:0:0:0:0:
256,192,18427,1,8,0:0:0:0:
329,192,18589,1,0,0:0:0:0:
475,192,18751,1,8,0:0:0:0:
36,192,18751,128,0,19075:0:0:0:0:
329,192,18913,1,0,0:0:0:0:
402,192,19075,1,0,0:0:0:0:
329,192,19156,1,0,0:0:0:0:
256,192,19237,1,0,0:0:0:0:
109,192,19319,1,0,0:0:0:0:
36,192,19400,1,8,0:0:0:0:
402,192,19400,128,2,19886:0:0:0:0:
109,192,19562,1,8,0:0:0:0:
182,192,19724,1,8,0:0:0:0:
256,192,19886,1,0,0:0:0:0:
36,192,19886,128,2,20373:0:0:0:0:
329,192,20048,1,8,0:0:0:0:
182,192,20210,1,8,0:0:0:0:
256,192,20373,1,8,0:0:0:0:
402,192,20373,128,2,20859:0:0:0:0:
329,192,20535,1,8,0:0:0:0:
256,192,20697,1,8,0:0:0:0:
182,192,20859,1,8,0:0:0:0:
36,192,20859,128,8,21832:0:0:0:0:
329,192,21021,1,8,0:0:0:0:
109,192,21102,1,0,0:0:0:0:
475,192,21183,1,0,0:0:0:0:
329,192,21346,1,8,0:0:0:0:
182,192,21508,1,0,0:0:0:0:
256,192,21589,1,0,0:0:0:0:
402,192,21670,1,8,0:0:0:0:
475,192,21832,1,8,0:0:0:0:
182,192,21913,1,0,0:0:0:0:
329,192,21994,1,12,0:0:0:0:
109,192,21994,1,12,0:0:0:0:
402,192,21994,128,0,22319:0:0:0:0:
109,192,22319,1,0,0:0:0:0:
36,192,22319,128,0,22643:0:0:0:0:
256,192,22481,1,0,0:0:0:0:
182,192,22643,1,0,0:0:0:0:
402,192,22805,1,0,0:0:0:0:
475,192,22967,1,0,0:0:0:0:
256,192,23129,1,0,0:0:0:0:
182,192,23292,1,0,0:0:0:0:
36,192,23292,1,0,0:0:0:0:
329,192,23778,1,0,0:0:0:0:
109,192,23940,1,0,0:0:0:0:
256,192,24102,1,0,0:0:0:0:
475,192,24427,128,10,25237:0:0:0:0:
256,192,24427,1,0,0:0:0:0:
182,192,24751,1,0,0:0:0:0:
329,192,25075,1,0,0:0:0:0:
36,192,25237,1,0,0:0:0:0:
256,192,25400,1,0,0:0:0:0:
109,192,25562,1,0,0:0:0:0:
402,192,25724,1,0,0:0:0:0:
36,192,26048,128,10,26859:0:0:0:0:
182,192,26048,1,0,0:0:0:0:
329,192,26373,1,8,0:0:0:0:
402,192,26535,1,8,0:0:0:0:
475,192,26697,1,8,0:0:0:0:
256,192,26859,1,8,0:0:0:0:
109,192,27021,1,0,0:0:0:0:
329,192,27021,128,2,27508:0:0:0:0:
182,192,27346,1,0,0:0:0:0:
475,192,27508,1,0,0:0:0:0:
36,192,27508,128,2,28481:0:0:0:0:
256,192,27670,1,0,0:0:0:0:
182,192,27832,1,0,0:0:0:0:
402,192,27994,1,0,0:0:0:0:
298,192,28156,1,0,0:0:0:0:
475,192,28156,1,0,0:0:0:0:
182,192,28319,1,0,0:0:0:0:
392,192,28481,128,10,29129:0:0:0:0:
109,192,28643,1,8,0:0:0:0:
182,192,28805,1,8,0:0:0:0:
256,192,28967,1,8,0:0:0:0:
329,192,29129,1,8,0:0:0:0:
475,192,29292,1,0,0:0:0:0:
256,192,29454,1,0,0:0:0:0:
109,192,29616,128,2,30913:0:0:0:0:
36,192,29616,1,0,0:0:0:0:
182,192,29940,1,0,0:0:0:0:
402,192,30102,128,2,30913:0:0:0:0:
329,192,30102,1,0,0:0:0:0:
256,192,30265,1,0,0:0:0:0:
36,192,30427,1,0,0:0:0:0:
475,192,30427,1,0,0:0:0:0:
256,192,30751,1,0,0:0:0:0:
256,192,30913,128,2,32210:0:0:0:0:
109,192,31237,1,0,0:0:0:0:
402,192,31400,1,0,0:0:0:0:
182,192,31562,1,0,0:0:0:0:
329,190,31724,1,0,0:0:0:0:
36,192,31886,1,0,0:0:0:0:
475,192,32048,1,0,0:0:0:0:
329,192,32210,1,0,0:0:0:0:
109,192,32373,1,0,0:0:0:0:
256,192,32535,1,0,0:0:0:0:
36,192,32697,1,0,0:0:0:0:
329,192,32859,1,0,0:0:0:0:
109,192,33021,1,0,0:0:0:0:
402,192,33183,1,0,0:0:0:0:
182,192,33346,1,0,0:0:0:0:
329,192,33508,1,0,0:0:0:0:
109,192,33670,1,0,0:0:0:0:
475,192,33670,128,2,34319:0:0:0:0:
182,192,33832,1,0,0:0:0:0:
329,192,33994,1,0,0:0:0:0:
182,192,34156,1,0,0:0:0:0:
256,192,34319,1,0,0:0:0:0:
36,192,34319,128,2,34967:0:0:0:0:
329,192,34481,1,0,0:0:0:0:
475,192,34643,1,0,0:0:0:0:
402,192,34805,1,0,0:0:0:0:
329,192,34805,1,0,0:0:0:0:
256,192,34967,128,10,35292:0:0:0:0:
106,192,35129,1,0,0:0:0:0:
402,192,35292,1,0,0:0:0:0:
182,192,35292,1,0,0:0:0:0:
36,192,35454,1,0,0:0:0:0:
402,192,35616,1,0,0:0:0:0:
329,192,35778,1,0,0:0:0:0:
475,192,35778,1,0,0:0:0:0:
109,192,35940,1,0,0:0:0:0:
475,192,36102,128,10,36265:0:0:0:0:
329,192,36265,1,8,0:0:0:0:
182,192,36427,1,0,0:0:0:0:
402,192,36589,1,0,0:0:0:0:
256,192,36751,1,0,0:0:0:0:
36,192,36913,128,10,37237:0:0:0:0:
329,192,37075,1,0,0:0:0:0:
182,192,37237,1,0,0:0:0:0:
402,192,37400,1,0,0:0:0:0:
256,192,37562,1,0,0:0:0:0:
109,192,37724,1,0,0:0:0:0:
475,192,37886,1,0,0:0:0:0:
182,192,38048,1,0,0:0:0:0:
329,192,38210,1,0,0:0:0:0:
182,192,38373,1,0,0:0:0:0:
109,192,38454,1,0,0:0:0:0:
29,192,38535,1,8,0:0:0:0:
402,192,38697,1,8,0:0:0:0:
329,192,38697,1,8,0:0:0:0:
109,192,38859,1,8,0:0:0:0:
329,192,39021,1,0,0:0:0:0:
475,192,39183,1,8,0:0:0:0:
256,192,39183,1,8,0:0:0:0:
182,192,39346,1,0,0:0:0:0:
109,192,39508,1,8,0:0:0:0:
402,192,39508,1,8,0:0:0:0:
329,192,39670,1,0,0:0:0:0:
182,192,39832,1,8,0:0:0:0:
256,192,39994,1,0,0:0:0:0:
402,192,40156,1,8,0:0:0:0:
182,192,40319,1,0,0:0:0:0:
256,192,40481,1,0,0:0:0:0:
36,192,40643,1,8,0:0:0:0:
182,192,40805,1,8,0:0:0:0:
329,192,40967,1,0,0:0:0:0:
475,192,41129,1,0,0:0:0:0:
109,192,41129,1,0,0:0:0:0:
402,192,41292,1,0,0:0:0:0:
475,192,41454,128,10,41778:0:0:0:0:
329,192,41616,1,0,0:0:0:0:
36,192,41778,128,10,42102:0:0:0:0:
182,192,41778,1,0,0:0:0:0:
402,192,41940,1,0,0:0:0:0:
109,192,42102,1,0,0:0:0:0:
256,192,42265,1,0,0:0:0:0:
475,192,42427,128,10,42751:0:0:0:0:
402,192,42427,1,0,0:0:0:0:
182,192,42589,1,0,0:0:0:0:
329,192,42751,1,0,0:0:0:0:
109,192,42751,128,10,43400:0:0:0:0:
256,192,42913,1,0,0:0:0:0:
182,192,43075,1,0,0:0:0:0:
402,192,43237,1,0,0:0:0:0:
36,192,43400,1,0,0:0:0:0:
329,192,43562,1,0,0:0:0:0:
402,192,43724,1,0,0:0:0:0:
256,192,43886,128,2,44210:0:0:0:0:
182,192,43886,1,0,0:0:0:0:
475,192,44048,1,0,0:0:0:0:
36,192,44210,1,0,0:0:0:0:
475,192,44210,128,0,44859:0:0:0:0:
402,192,44373,1,0,0:0:0:0:
108,192,44373,1,0,0:0:0:0:
329,192,44535,1,0,0:0:0:0:
182,192,44697,1,0,0:0:0:0:
36,192,44859,1,0,0:0:0:0:
182,192,45021,1,0,0:0:0:0:
402,192,45183,1,0,0:0:0:0:
256,192,45346,1,8,0:0:0:0:
36,192,45346,128,0,45994:0:0:0:0:
475,192,45508,1,8,0:0:0:0:
182,192,45670,1,0,0:0:0:0:
329,192,45670,1,0,0:0:0:0:
109,192,45832,1,8,0:0:0:0:
402,192,45994,1,8,0:0:0:0:
182,192,46156,1,8,0:0:0:0:
475,192,46237,1,0,0:0:0:0:
329,192,46319,1,0,0:0:0:0:
36,192,46481,1,0,0:0:0:0:
475,192,46643,1,0,0:0:0:0:
256,192,46805,1,0,0:0:0:0:
182,192,46805,1,0,0:0:0:0:
402,192,46967,1,8,0:0:0:0:
329,192,47129,1,8,0:0:0:0:
42,192,47292,1,8,0:0:0:0:
256,192,47292,1,8,0:0:0:0:
182,192,47454,1,8,0:0:0:0:
109,192,47616,1,8,0:0:0:0:
36,192,47778,1,8,0:0:0:0:
475,192,47778,1,0,0:0:0:0:
182,192,47940,1,0,0:0:0:0:
329,192,48102,1,0,0:0:0:0:
36,192,48265,1,0,0:0:0:0:
182,192,48265,1,0,0:0:0:0:
256,192,48427,1,0,0:0:0:0:
109,192,48589,1,0,0:0:0:0:
475,192,48751,1,0,0:0:0:0:
182,192,48832,1,0,0:0:0:0:
402,192,48832,1,0,0:0:0:0:
329,192,48913,1,0,0:0:0:0:
36,192,49075,1,0,0:0:0:0:
402,192,49237,1,0,0:0:0:0:
182,192,49237,1,0,0:0:0:0:
109,192,49400,1,0,0:0:0:0:
256,192,49562,1,0,0:0:0:0:
329,192,49562,1,0,0:0:0:0:
475,192,49724,1,0,0:0:0:0:
36,192,49886,1,0,0:0:0:0:
182,192,50048,1,0,0:0:0:0:
256,192,50210,1,0,0:0:0:0:
109,192,50210,1,0,0:0:0:0:
329,192,50373,1,0,0:0:0:0:
402,192,50535,128,2,51183:0:0:0:0:
109,192,50859,1,0,0:0:0:0:
256,192,51021,1,0,0:0:0:0:
182,192,51183,128,10,51508:0:0:0:0:
329,192,51346,1,0,0:0:0:0:
36,192,51508,1,0,0:0:0:0:
256,192,51670,1,0,0:0:0:0:
109,192,51832,1,8,0:0:0:0:
329,192,51994,1,8,0:0:0:0:
475,192,51994,1,8,0:0:0:0:
402,192,52319,1,8,0:0:0:0:
182,192,52481,1,8,0:0:0:0:
36,192,52481,1,8,0:0:0:0:
109,192,52805,1,8,0:0:0:0:
475,192,52967,1,8,0:0:0:0:
329,192,52967,1,8,0:0:0:0:
402,192,53292,1,8,0:0:0:0:
36,192,53454,1,8,0:0:0:0:
182,192,53454,1,8,0:0:0:0:
256,192,53778,1,0,0:0:0:0:
109,192,53940,1,0,0:0:0:0:
256,192,54021,1,0,0:0:0:0:
402,192,54102,1,0,0:0:0:0:
182,192,54265,1,0,0:0:0:0:
329,192,54427,1,0,0:0:0:0:
109,192,54589,1,0,0:0:0:0:
256,192,54751,1,0,0:0:0:0:
329,192,54832,1,0,0:0:0:0:
402,192,54913,1,0,0:0:0:0:
329,192,55075,1,0,0:0:0:0:
182,192,55075,1,0,0:0:0:0:
36,192,55237,1,0,0:0:0:0:
109,192,55400,1,0,0:0:0:0:
256,192,55562,1,0,0:0:0:0:
402,192,55562,1,0,0:0:0:0:
36,192,55724,1,0,0:0:0:0:
109,192,55886,1,0,0:0:0:0:
402,192,56048,1,0,0:0:0:0:
475,192,56210,1,0,0:0:0:0:
256,192,56373,1,0,0:0:0:0:
109,192,56535,1,0,0:0:0:0:
402,192,56616,1,0,0:0:0:0:
36,192,56697,1,0,0:0:0:0:
329,192,56778,1,0,0:0:0:0:
182,192,56859,1,0,0:0:0:0:
256,192,57346,1,0,0:0:0:0:
182,192,57508,1,0,0:0:0:0:
109,192,57670,1,0,0:0:0:0:
329,192,57994,1,0,0:0:0:0:
256,192,57994,128,2,58643:0:0:0:0:
182,192,58156,1,0,0:0:0:0:
36,192,58156,1,0,0:0:0:0:
109,192,58481,1,0,0:0:0:0:
402,192,58643,1,0,0:0:0:0:
36,192,58967,1,0,0:0:0:0:
256,192,58967,1,0,0:0:0:0:
182,192,59129,1,0,0:0:0:0:
475,192,59292,1,0,0:0:0:0:
109,192,59292,1,0,0:0:0:0:
256,192,59454,1,0,0:0:0:0:
329,192,59616,1,0,0:0:0:0:
182,192,59616,1,0,0:0:0:0:
402,192,59616,128,2,60265:0:0:0:0:
182,192,59940,1,0,0:0:0:0:
36,192,59940,1,0,0:0:0:0:
182,192,60265,1,0,0:0:0:0:
256,192,60427,1,0,0:0:0:0:
109,192,60589,1,0,0:0:0:0:
182,192,60751,128,2,61886:0:0:0:0:
329,192,60751,1,0,0:0:0:0:
109,192,60913,1,0,0:0:0:0:
36,192,61075,1,0,0:0:0:0:
402,192,61237,1,0,0:0:0:0:
256,192,61237,1,0,0:0:0:0:
36,192,61562,1,0,0:0:0:0:
329,192,61724,1,0,0:0:0:0:
475,192,61886,1,0,0:0:0:0:
402,192,62048,1,0,0:0:0:0:
182,192,62210,1,0,0:0:0:0:
329,192,62210,1,0,0:0:0:0:
36,192,62210,128,2,63183:0:0:0:0:
109,192,62373,1,0,0:0:0:0:
402,192,62535,1,0,0:0:0:0:
475,192,62697,128,0,63183:0:0:0:0:
256,192,62697,1,0,0:0:0:0:
402,192,62859,1,0,0:0:0:0:
109,192,62859,1,0,0:0:0:0:
256,192,63021,1,0,0:0:0:0:
182,192,63346,1,0,0:0:0:0:
256,192,63508,128,2,64481:0:0:0:0:
402,192,63508,1,0,0:0:0:0:
36,192,63670,1,0,0:0:0:0:
475,192,63832,1,0,0:0:0:0:
182,192,63832,128,0,64481:0:0:0:0:
329,192,63994,1,0,0:0:0:0:
402,192,64156,1,0,0:0:0:0:
109,192,64156,128,0,64481:0:0:0:0:
475,192,64319,1,0,0:0:0:0:
329,192,64643,1,0,0:0:0:0:
475,192,64805,1,0,0:0:0:0:
36,192,64805,128,2,66102:0:0:0:0:
256,192,64967,1,0,0:0:0:0:
329,192,65129,1,0,0:0:0:0:
402,192,65292,1,0,0:0:0:0:
475,192,65454,1,0,0:0:0:0:
329,192,65616,1,0,0:0:0:0:
256,192,65778,1,0,0:0:0:0:
182,192,65940,1,0,0:0:0:0:
475,192,66102,128,2,67400:0:0:0:0:
109,192,66102,1,0,0:0:0:0:
182,192,66265,1,0,0:0:0:0:
256,192,66427,1,0,0:0:0:0:
329,192,66589,1,0,0:0:0:0:
402,192,66751,1,0,0:0:0:0:
256,192,66913,1,0,0:0:0:0:
182,192,67075,1,0,0:0:0:0:
109,192,67237,1,0,0:0:0:0:
36,192,67400,1,0,0:0:0:0:
402,192,67400,128,10,68535:0:0:0:0:
256,192,67724,1,0,0:0:0:0:
36,192,67886,1,0,0:0:0:0:
329,192,67886,1,0,0:0:0:0:
109,192,68048,1,0,0:0:0:0:
256,192,68373,1,0,0:0:0:0:
182,192,68373,1,0,0:0:0:0:
109,192,68535,128,10,69994:0:0:0:0:
42,192,68535,1,0,0:0:0:0:
402,192,68859,1,0,0:0:0:0:
182,192,69021,1,0,0:0:0:0:
475,192,69183,1,0,0:0:0:0:
329,192,69346,1,0,0:0:0:0:
256,192,69508,1,0,0:0:0:0:
42,192,69670,1,0,0:0:0:0:
182,192,69832,1,0,0:0:0:0:
475,192,69994,1,0,0:0:0:0:
256,192,69994,1,0,0:0:0:0:
402,192,69994,128,10,71129:0:0:0:0:
182,192,70319,1,0,0:0:0:0:
36,192,70319,1,0,0:0:0:0:
256,192,70481,1,0,0:0:0:0:
128,192,70643,1,0,0:0:0:0:
329,192,70643,1,0,0:0:0:0:
182,192,70805,1,0,0:0:0:0:
256,192,70967,1,0,0:0:0:0:
109,192,70967,1,0,0:0:0:0:
42,192,71129,1,0,0:0:0:0:
298,192,71292,1,0,0:0:0:0:
213,192,71616,1,0,0:0:0:0:
128,192,71940,1,0,0:0:0:0:
256,192,72102,1,0,0:0:0:0:
36,192,72265,1,0,0:0:0:0:
384,192,72427,1,0,0:0:0:0:
475,192,72589,1,0,0:0:0:0:
256,192,72589,128,2,72913:0:0:0:0:
182,192,72913,1,0,0:0:0:0:
329,192,72913,1,0,0:0:0:0:
402,192,73237,1,0,0:0:0:0:
128,192,73400,1,0,0:0:0:0:
469,192,73562,1,0,0:0:0:0:
213,192,73724,1,0,0:0:0:0:
384,192,73886,1,0,0:0:0:0:
329,192,73886,128,2,74535:0:0:0:0:
36,192,74048,1,0,0:0:0:0:
105,192,74210,1,0,0:0:0:0:
182,192,74373,1,0,0:0:0:0:
256,192,74535,1,0,0:0:0:0:
402,192,74697,1,0,0:0:0:0:
249,192,74859,1,0,0:0:0:0:
109,192,75021,1,0,0:0:0:0:
182,192,75183,1,0,0:0:0:0:
256,192,75183,128,2,75670:0:0:0:0:
36,192,75346,1,0,0:0:0:0:
329,192,75508,1,0,0:0:0:0:
475,192,75832,1,0,0:0:0:0:
402,192,75832,1,0,0:0:0:0:
256,192,76156,1,0,0:0:0:0:
329,192,76156,1,0,0:0:0:0:
109,192,76156,128,2,76481:0:0:0:0:
182,192,76481,1,0,0:0:0:0:
475,192,76643,1,0,0:0:0:0:
402,192,76643,1,0,0:0:0:0:
109,192,76805,1,0,0:0:0:0:
402,192,76967,1,0,0:0:0:0:
36,192,77129,1,0,0:0:0:0:
329,192,77292,1,0,0:0:0:0:
182,192,77292,1,0,0:0:0:0:
256,192,77454,1,0,0:0:0:0:
475,192,77778,1,8,0:0:0:0:
109,192,77778,128,10,79075:0:0:0:0:
182,192,77940,1,8,0:0:0:0:
402,192,78102,1,8,0:0:0:0:
255,192,78265,1,0,0:0:0:0:
402,192,78427,1,8,0:0:0:0:
182,192,78589,1,0,0:0:0:0:
326,192,78751,1,8,0:0:0:0:
36,192,78913,1,0,0:0:0:0:
475,192,79075,128,10,80373:0:0:0:0:
329,192,79237,1,0,0:0:0:0:
36,192,79400,1,8,0:0:0:0:
182,192,79400,1,8,0:0:0:0:
402,192,79562,1,0,0:0:0:0:
254,192,79724,1,8,0:0:0:0:
109,192,79886,1,0,0:0:0:0:
256,192,80048,1,8,0:0:0:0:
329,192,80210,1,0,0:0:0:0:
182,192,80373,128,10,81021:0:0:0:0:
402,192,80373,1,8,0:0:0:0:
256,192,80535,1,8,0:0:0:0:
36,192,80697,1,8,0:0:0:0:
329,192,80859,1,8,0:0:0:0:
475,192,81021,128,10,81832:0:0:0:0:
256,192,81183,1,0,0:0:0:0:
109,192,81346,1,8,0:0:0:0:
329,192,81508,1,0,0:0:0:0:
384,192,81670,1,8,0:0:0:0:
36,192,81670,128,10,82967:0:0:0:0:
182,192,81670,1,8,0:0:0:0:
329,192,81832,1,0,0:0:0:0:
256,192,81994,1,8,0:0:0:0:
182,192,82156,1,0,0:0:0:0:
128,192,82319,1,8,0:0:0:0:
256,192,82481,1,8,0:0:0:0:
329,192,82643,1,8,0:0:0:0:
402,192,82805,1,8,0:0:0:0:
475,192,82967,1,0,0:0:0:0:
182,192,82967,1,0,0:0:0:0:
329,192,83129,1,0,0:0:0:0:
109,192,83292,1,0,0:0:0:0:
256,192,83454,1,0,0:0:0:0:
402,192,83616,1,0,0:0:0:0:
182,192,83778,1,0,0:0:0:0:
475,192,83940,1,0,0:0:0:0:
329,192,84102,1,0,0:0:0:0:
36,192,84265,1,0,0:0:0:0:
109,192,84427,1,0,0:0:0:0:
402,192,84427,1,0,0:0:0:0:
256,192,84589,128,2,85237:0:0:0:0:
36,192,84751,1,0,0:0:0:0:
182,192,84913,1,8,0:0:0:0:
329,192,85075,1,0,0:0:0:0:
402,192,85237,1,8,0:0:0:0:
109,192,85237,1,0,0:0:0:0:
256,192,85400,1,0,0:0:0:0:
128,192,85562,1,8,0:0:0:0:
475,192,85724,1,0,0:0:0:0:
329,192,85724,1,0,0:0:0:0:
182,192,85886,1,8,0:0:0:0:
36,192,86048,1,0,0:0:0:0:
402,192,86210,1,8,0:0:0:0:
109,192,86373,1,0,0:0:0:0:
329,192,86535,1,8,0:0:0:0:
475,192,86535,1,0,0:0:0:0:
256,192,86697,1,0,0:0:0:0:
402,192,86859,1,0,0:0:0:0:
36,192,87021,1,0,0:0:0:0:
182,192,87183,128,2,87832:0:0:0:0:
109,192,87183,1,8,0:0:0:0:
329,192,87183,1,0,0:0:0:0:
475,192,87346,1,0,0:0:0:0:
402,192,87508,1,8,0:0:0:0:
256,192,87670,1,0,0:0:0:0:
256,192,88156,1,8,0:0:0:0:
475,192,88156,1,8,0:0:0:0:
36,192,88156,1,8,0:0:0:0:
475,192,88319,1,8,0:0:0:0:
256,192,88319,1,0,0:0:0:0:
36,192,88319,1,0,0:0:0:0:
182,192,88643,1,8,0:0:0:0:
329,192,88643,1,8,0:0:0:0:
109,192,88967,1,8,0:0:0:0:
256,192,88967,1,8,0:0:0:0:
402,192,88967,1,0,0:0:0:0:
42,192,89292,1,12,0:0:0:0:
475,192,89292,1,12,0:0:0:0:
182,192,89292,1,12,0:0:0:0:
329,192,89292,1,12,0:0:0:0:
