osu file format v12

[General]
AudioFilename: Johnny Klimek, Reinhold Heil, Tom Tykwer - Travel To Edinburgh.mp3
AudioLeadIn: 1996
PreviewTime: 41343
Countdown: 0
SampleSet: Soft
StackLeniency: 0.7
Mode: 0
LetterboxInBreaks: 1

[Editor]
DistanceSpacing: 1
BeatDivisor: 4
GridSize: 4

[Metadata]
Title:Travel To Edinburgh
TitleUnicode:Travel To Edinburgh
Artist:Tom Tykwer
ArtistUnicode:Tom Tykwer
Creator:Silivren
Version:Insane
Source:Cloud Atlas
Tags:Johnny Klimek Reinhold Heil ost soundtrack David Mitchell
BeatmapID:220124
BeatmapSetID:78756

[Difficulty]
HPDrainRate:7
CircleSize:4
OverallDifficulty:5
ApproachRate:8
SliderMultiplier:1.4
SliderTickRate:1

[Events]
//Background and Video events
0,0,"bg.jpg",0,0
//Break Periods
//Storyboard Layer 0 (Background)
//Storyboard Layer 1 (Fail)
//Storyboard Layer 2 (Pass)
//Storyboard Layer 3 (Foreground)
//Storyboard Sound Samples
//Background Colour Transformations
3,100,163,162,255

[TimingPoints]
10,333.333333333333,4,2,1,25,1,0
42676,-100,4,2,1,25,0,1
53343,-200,4,2,1,25,0,0
64009,-100,4,2,1,25,0,1
74676,-100,4,2,1,25,0,0

[Colours]
Combo1 : 240,208,100
Combo2 : 192,192,192
Combo3 : 146,112,48

[HitObjects]
160,168,10,2,0,P|260:88|360:172,2,280
128,304,1676,1,2,0:0:0:0:
264,256,2009,1,0,0:0:0:0:
160,168,2343,1,0,0:0:0:0:
24,208,2676,6,0,P|8:80|136:48,2,280
160,168,4343,1,2,0:0:0:0:
240,48,4676,2,0,P|280:104|296:176,1,140
160,168,5343,6,0,P|288:104|424:104,1,280
296,40,6676,1,0,0:0:0:0:
422,103,7009,1,2,0:0:0:0:
408,244,7343,1,0,0:0:0:0:
288,316,7676,1,0,0:0:0:0:
148,336,8009,6,0,P|24:284|-8:152,2,280
288,316,9676,1,2,0:0:0:0:
412,252,10009,2,0,P|440:228|452:196,2,70
352,288,10509,1,0,0:0:0:0:
352,288,10676,6,0,B|268:236|420:100|304:36,2,280
412,160,12343,1,2,0:0:0:0:
280,108,12676,1,0,0:0:0:0:
400,36,13009,1,0,0:0:0:0:
412,160,13343,6,0,P|308:244|176:208,1,280
64,120,14343,1,0,0:0:0:0:
192,68,14676,1,0,0:0:0:0:
176,208,15009,2,0,P|148:272|84:296,2,140,2|0|0,0:0|0:0|0:0,0:0:0:0:
192,68,16009,5,0,0:0:0:0:
255,38,16176,1,0,0:0:0:0:
285,101,16343,1,0,0:0:0:0:
221,131,16509,1,0,0:0:0:0:
264,76,16676,5,0,0:0:0:0:
332,60,16843,1,0,0:0:0:0:
340,128,17010,1,0,0:0:0:0:
280,168,17176,1,0,0:0:0:0:
221,131,17343,5,0,0:0:0:0:
100,60,17676,1,2,0:0:0:0:
48,192,18009,1,0,0:0:0:0:
120,312,18343,1,0,0:0:0:0:
256,352,18676,6,0,P|276:288|256:220,1,140
120,180,19343,2,0,P|100:244|120:312,1,140
256,352,20009,1,0,0:0:0:0:
388,304,20343,1,2,0:0:0:0:
256,352,20676,1,0,0:0:0:0:
120,312,21009,1,0,0:0:0:0:
24,212,21343,6,0,P|8:132|36:84,1,140,4|0,0:0|0:0,0:0:0:0:
84,36,21843,1,0,0:0:0:0:
152,48,22009,2,0,P|168:128|140:176,1,140
92,224,22509,1,0,0:0:0:0:
24,212,22676,6,0,P|44:280|108:292,1,140,0|2,0:0|0:0,0:0:0:0:
308,140,23343,1,0,0:0:0:0:
160,344,23676,1,0,0:0:0:0:
240,104,24009,6,0,P|244:180|292:216,1,140,0|0,0:0|0:0,0:0:0:0:
356,244,24509,1,0,0:0:0:0:
424,224,24676,2,0,P|420:148|372:112,1,140
308,140,25176,1,0,0:0:0:0:
240,104,25343,6,0,P|296:64|360:84,1,140,0|2,0:0|0:0,0:0:0:0:
480,304,26009,1,0,0:0:0:0:
428,56,26343,1,0,0:0:0:0:
396,332,26676,6,0,P|332:360|264:352,1,140
212,300,27176,1,0,0:0:0:0:
208,228,27343,2,0,P|272:200|340:208,1,140
404,236,27843,1,0,0:0:0:0:
468,268,28009,6,0,P|464:196|408:164,1,140,0|2,0:0|0:0,0:0:0:0:
164,100,28676,1,0,0:0:0:0:
416,96,29009,1,0,0:0:0:0:
176,172,29343,6,0,P|112:148|92:84,1,140
144,36,29843,1,0,0:0:0:0:
212,48,30009,2,0,P|276:72|296:136,1,140
248,188,30509,1,0,0:0:0:0:
196,236,30676,6,0,P|256:260|312:220,1,140,0|2,0:0|0:0,0:0:0:0:
364,88,31343,1,0,0:0:0:0:
416,40,31509,1,0,0:0:0:0:
468,84,31676,1,0,0:0:0:0:
416,132,31843,1,0,0:0:0:0:
364,88,32009,6,0,B|300:28|236:72|164:120|96:80,1,280,4|0,0:0|0:0,0:0:0:0:
0,344,33343,6,0,B|66:382|138:334|202:290|266:350,1,280,0|0,0:0|0:0,0:0:0:0:
120,112,34676,1,2,0:0:0:0:
400,112,35343,1,0,0:0:0:0:
256,352,36009,2,0,B|224:312|288:252|256:216,2,140,0|2|0,0:0|0:0|0:0,0:0:0:0:
120,104,37343,6,0,P|124:140|148:164,1,70,4|0,0:0|0:0,0:0:0:0:
210,193,37676,1,0,0:0:0:0:
220,124,37843,1,0,0:0:0:0:
276,164,38009,2,0,P|284:200|272:232,1,70
208,260,38343,2,0,P|200:224|212:192,1,70
276,164,38676,5,0,0:0:0:0:
220,124,38843,1,0,0:0:0:0:
280,88,39009,2,0,P|300:96|316:96,2,35,2|0|0,0:0|0:0|0:0,0:0:0:0:
220,52,39343,1,0,0:0:0:0:
152,36,39509,1,0,0:0:0:0:
128,100,39676,2,0,P|116:116|96:124,2,35
152,36,40009,5,2,0:0:0:0:
220,52,40176,1,0,0:0:0:0:
348,72,40343,1,0,0:0:0:0:
280,88,40510,1,0,0:0:0:0:
172,104,40676,5,0,0:0:0:0:
192,172,40843,1,0,0:0:0:0:
328,144,41009,1,0,0:0:0:0:
312,212,41176,1,0,0:0:0:0:
92,160,41343,5,2,0:0:0:0:
312,212,41676,1,0,0:0:0:0:
256,40,42009,1,2,0:0:0:0:
112,248,42343,1,0,0:0:0:0:
128,256,42426,1,2,0:0:0:0:
144,260,42509,1,0,0:0:0:0:
160,264,42593,1,2,0:0:0:0:
176,264,42676,6,0,P|216:264|240:248,1,70,4|0,0:0|0:0,0:0:0:0:
256,180,43009,2,0,P|216:180|192:196,1,70
176,264,43343,1,8,0:0:0:0:
208,328,43509,1,0,0:0:0:0:
276,340,43676,1,0,0:0:0:0:
336,308,43843,1,0,0:0:0:0:
332,240,44009,6,0,P|364:244|392:268,1,70
396,336,44343,2,0,P|364:332|336:308,1,70
332,240,44676,1,8,0:0:0:0:
472,32,45009,1,0,0:0:0:0:
220,40,45343,6,0,P|188:52|176:84,1,70,2|0,0:0|0:0,0:0:0:0:
200,152,45676,2,0,P|232:140|244:108,1,70
220,40,46009,1,8,0:0:0:0:
148,36,46176,1,0,0:0:0:0:
88,76,46343,1,0,0:0:0:0:
82,143,46509,1,0,0:0:0:0:
140,184,46676,6,0,P|116:208|80:216,1,70
24,176,47009,2,0,P|48:152|84:144,1,70
140,184,47343,1,8,0:0:0:0:
360,308,47676,1,0,0:0:0:0:
336,56,48009,6,0,P|344:92|368:112,1,70,2|0,0:0|0:0,0:0:0:0:
440,112,48343,2,0,P|432:76|408:56,1,70
336,56,48676,1,8,0:0:0:0:
280,96,48843,1,0,0:0:0:0:
272,164,49009,1,0,0:0:0:0:
326,208,49176,1,0,0:0:0:0:
396,192,49343,6,0,P|396:228|376:256,1,70
308,272,49676,2,0,P|308:236|328:208,1,70
396,192,50009,1,8,0:0:0:0:
156,108,50343,1,0,0:0:0:0:
364,248,50676,6,0,P|392:268|404:308,2,70,2|0|0,0:0|0:0|0:0,0:0:0:0:
148,192,51343,2,0,P|120:212|108:252,2,70,2|0|0,0:0|0:0|0:0,0:0:0:0:
360,108,52009,2,0,P|388:128|400:168,2,70,2|0|0,0:0|0:0|0:0,0:0:0:0:
148,48,52676,2,0,P|120:68|108:108,2,70,2|0|0,0:0|0:0|0:0,0:0:0:0:
360,108,53343,6,0,P|344:236|220:304,1,280,4|0,0:0|0:0,0:0:0:0:
88,264,55009,1,0,0:0:0:0:
120,128,55343,1,2,0:0:0:0:
240,164,55676,1,0,0:0:0:0:
220,304,56009,6,0,P|344:236|360:108,1,280,2|0,0:0|0:0,0:0:0:0:
240,36,57676,1,0,0:0:0:0:
120,104,58009,1,2,0:0:0:0:
244,164,58343,1,0,0:0:0:0:
360,108,58676,6,0,P|462:185|459:327,1,280,2|0,0:0|0:0,0:0:0:0:
320,352,60343,1,0,0:0:0:0:
192,300,60676,1,2,0:0:0:0:
320,244,61009,1,0,0:0:0:0:
360,108,61343,6,0,P|247:45|119:106,1,280,2|2,0:0|0:0,0:0:0:0:
388,176,63343,1,2,0:0:0:0:
100,176,64009,5,4,0:0:0:0:
60,236,64176,1,0,0:0:0:0:
124,268,64343,1,0,0:0:0:0:
164,212,64509,1,0,0:0:0:0:
168,140,64676,5,8,0:0:0:0:
212,84,64843,1,0,0:0:0:0:
272,120,65009,1,0,0:0:0:0:
228,176,65176,1,0,0:0:0:0:
164,212,65343,6,0,P|184:240|216:252,1,70,2|0,0:0|0:0,0:0:0:0:
280,216,65676,2,0,P|260:188|228:176,1,70
88,148,66009,1,8,0:0:0:0:
224,108,66176,1,2,0:0:0:0:
88,76,66343,1,2,0:0:0:0:
220,36,66509,1,2,0:0:0:0:
290,52,66676,6,0,P|316:80|324:112,1,70,2|0,0:0|0:0,0:0:0:0:
284,168,67009,2,0,P|258:140|250:108,1,70
290,52,67343,1,8,0:0:0:0:
360,36,67509,1,0,0:0:0:0:
424,68,67676,1,0,0:0:0:0:
460,128,67843,1,0,0:0:0:0:
460,128,67926,1,0,0:0:0:0:
460,128,68009,6,0,P|448:160|420:180,1,70,2|0,0:0|0:0,0:0:0:0:
348,168,68343,2,0,P|360:136|388:116,1,70,0|0,0:0|0:0,0:0:0:0:
484,220,68676,1,8,0:0:0:0:
416,344,68843,1,2,0:0:0:0:
280,324,69009,1,2,0:0:0:0:
228,192,69176,1,2,0:0:0:0:
228,192,69259,1,0,0:0:0:0:
228,192,69343,6,0,P|192:204|172:228,1,70,4|0,0:0|0:0,0:0:0:0:
180,296,69676,2,0,P|216:284|236:260,1,70
284,128,70009,1,8,0:0:0:0:
156,68,70176,1,2,0:0:0:0:
108,200,70343,1,2,0:0:0:0:
216,108,70509,1,2,0:0:0:0:
216,108,70593,1,0,0:0:0:0:
216,108,70676,6,0,P|236:76|264:60,1,70,2|0,0:0|0:0,0:0:0:0:
332,80,71009,2,0,P|312:112|284:128,1,70
144,140,71343,1,8,0:0:0:0:
252,232,71509,1,2,0:0:0:0:
120,280,71676,1,2,0:0:0:0:
252,232,71843,1,2,0:0:0:0:
144,140,72009,6,0,L|204:104,1,70,2|0,0:0|0:0,0:0:0:0:
204,176,72343,2,0,L|272:164,1,70
252,232,72676,2,0,L|324:252,1,70,8|0,0:0|0:0,0:0:0:0:
340,184,73009,1,0,0:0:0:0:
352,328,73176,1,0,0:0:0:0:
352,328,73259,1,0,0:0:0:0:
352,328,73343,6,0,P|320:336|284:328,1,70,2|0,0:0|0:0,0:0:0:0:
284,328,73676,2,0,P|256:320|232:288,1,70
168,180,74009,1,8,0:0:0:0:
164,308,74176,1,0,0:0:0:0:
240,208,74343,1,0,0:0:0:0:
116,236,74509,1,0,0:0:0:0:
232,288,74676,6,0,B|264:300|304:284|348:256|348:176|316:148|292:132|268:120|232:124,1,280,4|0,0:0|0:0,0:0:0:0:
352,80,76009,2,0,B|404:132|436:192|408:288|352:336,1,280,2|0,0:0|0:0,0:0:0:0:
152,140,77343,6,0,P|136:208|160:272,1,140,2|0,0:0|0:0,0:0:0:0:
208,324,77843,1,0,0:0:0:0:
276,308,78009,2,0,P|292:240|268:176,1,140,8|0,0:0|0:0,0:0:0:0:
220,124,78509,1,0,0:0:0:0:
172,72,78676,2,0,P|232:44|304:56,1,140,2|0,0:0|0:0,0:0:0:0:
336,72,79093,1,2,0:0:0:0:
364,96,79176,1,0,0:0:0:0:
384,124,79259,1,2,0:0:0:0:
396,156,79343,2,0,P|408:220|400:296,1,140,8|0,0:0|0:0,0:0:0:0:
256,192,80009,12,4,82676,0:0:0:0:
256,192,84009,5,2,0:0:0:0:
256,192,85343,5,2,0:0:0:0:
