osu file format v5

[General]
AudioFilename: 04 My Homeworld.mp3
AudioLeadIn: 0
PreviewTime: -1
Countdown: 1
SampleSet: Normal
StackLeniency: 0.7
Mode: 0
LetterboxInBreaks: 1
EditorBookmarks: 6373,12115,12408,15982,19732,29928,47975,51725,74576,103873,137740,141490,149459

[Metadata]
Title:My Homeworld
Artist:Tom Snare
Creator:Malar
Version:Hard
Source:
Tags:

[Difficulty]
HPDrainRate:5
CircleSize:5
OverallDifficulty:5
SliderMultiplier:2
SliderTickRate:4

[Events]
//Background and Video events
0,0,"Kopia tom_snare_s_world_ulm.jpg"
//Break Periods
2,61533,62419
2,68975,69919
2,92237,92360
2,95518,96228
2,99737,99978
2,121300,122712
2,147550,148669
//Storyboard Layer 0 (Background)
//Storyboard Layer 1 (Failing)
//Storyboard Layer 2 (Passing)
//Storyboard Layer 3 (Foreground)
//Storyboard Sound Samples
//Background Colour Transformations
3,100,255,255,255

[TimingPoints]
1100,468.75,4,1,0,61,1
179225,-50,4,1,0,61,0

[Colours]
Combo1 : 255,128,64
Combo2 : 101,252,84
Combo3 : 0,128,192

[HitObjects]
256,192,15162,12,4,15865
128,128,16100,6,0,B|192:128,4,50,0|0|0|0|12
256,224,17037,1,0
352,128,17389,1,0
352,128,17740,1,0
352,256,17975,6,0,B|416:256,4,50,0|0|0|0|12
256,160,18912,1,0
160,256,19264,1,0
160,256,19615,1,0
224,192,19850,5,0
224,192,19967,1,0
224,192,20084,1,0
224,192,20201,1,0
224,192,20318,1,12
160,128,20787,5,0
128,256,21139,2,0,B|256:256,1,125
352,224,21725,5,0
352,224,21842,1,0
352,224,21959,1,0
352,224,22076,1,0
352,224,22193,1,12
256,160,22662,5,0
109,123,23014,2,0,B|265:163,1,150
174,73,23600,5,0
272,86,24068,5,0
337,146,24537,5,0
352,224,25006,5,0
288,288,25475,5,0
192,256,25943,5,0
128,192,26412,5,0
192,96,26881,5,0
320,64,27350,5,0
448,96,27818,5,0
347,177,28170,5,2
348,177,28639,2,2,B|397:189|440:181|451:169|496:165|479:138,1,150
483,143,29225,2,2,B|462:88|431:78|331:76,1,175
256,192,29928,12,6,31100
160,160,31568,5,6
256,160,32037,1,6
352,160,32506,1,6
288,224,32975,5,0
288,224,33092,1,0
288,224,33209,1,0
288,224,33326,1,0
288,224,33443,1,12
224,256,33912,1,0
256,320,34264,1,0
256,320,34615,1,0
384,288,34850,5,0
384,288,34967,1,0
384,288,35084,1,0
384,288,35201,1,0
384,288,35318,1,12
320,192,35787,5,0
320,128,36139,2,0,B|474:128,1,150
392,72,36725,2,0,B|456:72,4,50,0|0|0|0|12
276,57,37662,1,0
173,108,38014,1,0
173,108,38365,1,0
117,186,38600,6,0,B|181:186,4,50,0|0|0|0|12
120,186,39537,5,0
64,256,39889,2,0,B|218:257,1,150
192,192,40475,5,0
192,192,40592,1,0
192,192,40709,1,0
192,192,40826,1,0
192,192,40943,1,12
291,136,41412,1,0
352,256,41764,1,0
352,256,42115,1,0
224,320,42350,6,0,B|288:320,4,50,0|0|0|0|12
224,320,43287,5,0
128,320,43639,2,0,B|283:320,1,150
256,256,44225,5,0
256,256,44342,1,0
256,256,44459,1,0
256,256,44576,1,0
256,256,44693,1,12
192,224,45162,5,4
192,224,45514,5,4
192,224,45865,5,4
32,96,47037,5,0
64,128,47389,1,0
64,128,47506,1,0
96,160,47740,1,0
128,96,47975,5,0
160,128,48327,1,0
160,128,48444,1,0
192,160,48678,1,0
224,96,48912,5,0
256,128,49264,1,0
256,128,49381,1,0
288,160,49615,1,0
320,96,49850,5,0
352,128,50202,1,0
352,128,50319,1,0
384,160,50553,1,0
416,224,50787,5,0
384,256,51139,2,0,B|335:302,1,50
320,320,51490,1,0
320,224,51725,5,0
288,256,52077,2,0,B|248:297,1,50
224,320,52428,1,0
224,224,52662,5,0
192,256,53014,2,0,B|148:296,1,50
128,320,53365,1,0
128,224,53600,5,0
96,256,53952,2,0,B|56:297,1,50
32,320,54303,1,0
32,192,54537,5,0
32,96,55006,5,0
160,96,55475,5,0
288,96,55943,5,0
416,96,56412,5,0
288,192,56881,5,0
160,256,57350,5,0
64,320,57818,5,0
256,192,58287,12,6,59225
228,147,59869,5,4
228,147,60162,2,4,B|235:180|243:201|282:206|321:206,1,100
297,205,60631,1,4
297,205,60865,2,4,B|343:190|372:152|364:120|344:94|259:64,1,200
224,192,63560,6,6,B|300:191,2,75
224,192,64381,1,6
224,192,64615,2,6,B|288:128|384:128|416:192|416:256|352:320|256:352|192:320|128:320,1,500
236,178,67369,5,6
235,178,67662,2,6,B|228:92|292:88,1,100
270,92,68131,1,6
270,92,68365,2,6,B|352:104|382:148|367:225,1,175
220,276,71119,5,6
220,276,71353,2,6,B|283:275|306:252|324:228|310:199|290:166|256:136|216:140,1,225
235,141,72115,1,6
256,192,72350,12,12,76100
256,192,76568,5,12
352,256,77037,5,12
256,352,77506,5,12
128,320,77975,5,12
96,224,78443,5,12
128,128,78912,5,12
256,96,79381,5,12
384,128,79850,5,12
448,224,80318,5,12
352,320,80787,5,12
160,320,81256,5,12
64,192,81725,5,12
256,64,82193,5,12
448,224,82662,5,12
256,320,83131,5,12
64,192,83600,5,12
256,192,84068,5,12
416,64,84537,5,12
96,64,85006,5,12
96,288,85475,5,12
416,288,85943,5,12
256,192,86412,5,12
448,64,86881,5,12
256,192,87350,5,12
96,64,87818,5,12
256,192,88287,5,12
96,320,88756,5,12
256,192,89225,12,6,92037
256,192,93560,12,6,95318
256,192,97428,12,6,99537
256,192,101178,12,6,104225
142,119,105162,5,0
142,119,105338,1,0
142,119,105514,1,0
142,119,105689,1,0
142,119,105865,1,0
252,101,106100,5,0
252,101,106217,1,0
252,101,106334,1,0
252,101,106451,1,0
252,101,106568,1,12
355,97,107037,2,0,B|396:104|432:124|447:156|457:173|459:194,1,150,0|12
458,192,107740,1,8
364,229,107975,5,0
364,229,108092,1,0
364,229,108209,1,0
364,229,108326,1,0
364,229,108443,1,12
235,270,108912,2,0,B|195:269|152:246|135:226|123:184,1,150,0|12
123,185,109615,1,8
244,143,109850,5,0
244,143,109967,1,0
244,143,110084,1,0
244,143,110201,1,0
244,143,110318,1,12
348,142,110787,2,0,B|352:115|328:85|305:68|273:52|233:44,1,150,0|12
245,46,111490,1,8
113,79,111725,5,0
113,79,111842,1,0
113,79,111959,1,0
113,79,112076,1,0
113,79,112193,1,12
34,105,112662,2,0,B|35:138|43:164|-20:270|45:342|156:342|264:223,1,400,0|12
322,254,113834,5,0
322,254,114069,1,0
233,135,114303,1,0
233,135,114537,1,0
270,218,114772,1,0
270,218,115006,1,0
387,239,115241,1,0
387,239,115475,1,0
286,325,115709,5,0
286,325,115943,1,0
182,275,116178,1,0
182,275,116412,1,0
392,138,116647,1,0
392,138,116881,1,0
274,68,117116,1,0
274,68,117350,1,0
272,179,117584,5,0
272,179,117818,1,0
149,123,118053,1,0
149,123,118287,1,0
186,232,118521,1,0
186,232,118755,1,0
320,272,118990,1,0
320,272,119224,1,0
378,164,119459,5,0
378,164,119693,1,0
351,66,119928,1,0
351,66,120162,1,0
298,128,120396,1,0
298,128,120630,1,0
256,193,120865,1,0
256,192,121100,5,12
128,128,123912,5,12
192,128,124146,1,12
192,128,124264,1,12
256,128,124498,1,12
256,128,124615,1,12
320,128,124850,1,12
20,113,125787,6,6,B|49:240|113:272|113:304|145:304|209:304|273:304|305:304|377:329|425:292|504:230,1,600
432,141,127662,5,12
354,64,127896,1,12
354,64,128014,1,12
247,66,128248,1,12
247,66,128365,1,12
170,130,128600,1,12
96,70,129889,6,0,B|228:159,2,150
256,192,131412,5,12
351,160,131646,2,12,B|310:120,1,50
256,96,131998,2,12,B|173:97|224:96,1,50
160,160,132350,1,14
248,268,133346,5,0
248,268,133756,2,4,B|284:276|351:273|385:246|384:242,1,125
370,253,134342,2,4,B|345:196|317:185|245:164,1,150
128,256,136100,5,0
352,256,136451,1,0
256,288,136803,5,0
256,288,137037,1,0
256,192,137389,1,0
416,160,137740,5,0
416,160,137974,1,0
416,64,138326,1,0
64,192,138678,5,0
64,192,138912,1,0
64,96,139264,1,0
160,192,139615,5,0
160,192,139849,1,0
160,288,140201,1,0
256,192,140553,5,0
256,192,140787,1,0
256,96,141139,1,0
352,192,141490,5,0
352,192,141724,1,0
352,288,142076,1,0
448,192,142428,5,0
448,192,142662,1,0
448,96,143014,1,0
352,192,143365,5,0
352,192,143599,1,0
352,288,143951,1,0
256,192,144303,5,0
256,192,144537,1,0
256,96,144889,1,0
160,192,145240,5,0
160,192,145474,1,0
160,288,145826,1,0
64,192,146178,5,0
64,192,146412,1,0
128,320,146764,5,0
256,64,147115,5,0
384,256,147350,5,0
224,192,149869,5,8
224,192,150103,1,8
224,192,150338,1,8
224,192,150572,1,8
224,192,150807,2,12,B|270:220|315:220|348:208|369:172|364:155|364:115|364:115|243:101,1,325
248,101,151803,5,0
248,101,152037,1,0
248,101,152271,2,4,B|226:83|185:69|164:69|137:71|138:72,1,100
154,70,152740,1,0
154,70,152975,1,0
154,70,153209,2,4,B|119:91|93:117|88:146|85:162,1,100
89,143,153678,5,0
89,143,153912,1,0
89,143,154146,2,4,B|103:180|124:196|160:224,1,100
155,213,154615,1,0
155,213,154850,1,0
155,213,155084,2,4,B|167:238|170:260|162:274|150:291|123:297|112:297,1,100
127,294,155553,5,0
127,294,155787,1,0
127,294,156021,2,4,B|127:330|143:355|168:358|171:349|200:341|204:332|193:332,1,100
189,341,156490,1,0
189,341,156725,1,0
189,341,156959,2,4,B|236:331|242:312|262:292|284:281,1,100
271,288,157428,5,0
271,288,157662,1,0
271,288,157896,2,4,B|376:284,1,100
370,284,158365,1,0
370,284,158600,1,0
370,284,158834,2,4,B|423:249|416:192,1,100
423,206,159303,5,0
423,206,159537,1,0
423,206,159771,2,4,B|414:168|386:156|362:147|324:140|340:131,1,100
350,144,160240,1,0
350,144,160475,1,0
350,144,160709,2,4,B|303:118|275:108|239:113,1,100
256,111,161178,5,0
256,111,161412,1,0
256,111,161646,2,4,B|151:80,1,100
160,82,162115,1,0
160,82,162350,1,0
160,82,162584,2,4,B|63:116,1,100
65,115,163053,5,0
65,115,163287,1,0
65,115,163521,2,4,B|69:190|70:206|74:212|76:216,1,100
75,214,163990,1,0
75,214,164225,1,0
75,214,164459,2,4,B|77:263|94:277|106:287|120:300|124:300,1,100
120,298,164928,5,0
120,298,165162,1,0
120,298,165396,2,4,B|148:337|159:351|182:368|192:366,1,100
190,366,165865,1,0
190,366,166100,1,0
190,366,166334,2,4,B|224:372|245:375|271:374|293:367|296:366,1,100
289,367,166803,5,0
289,367,167037,1,0
289,367,167271,2,4,B|373:305,1,100
369,309,167740,1,0
369,309,167975,1,0
369,309,168209,2,4,B|391:292|404:273|405:253|412:228,1,100
411,221,168678,5,0
411,221,168912,1,0
411,221,169146,2,4,B|407:159|408:135,1,100
407,121,169615,1,0
407,121,169850,1,0
407,121,170084,2,4,B|394:83|372:65|360:48|345:36,1,100
349,40,170553,5,0
349,40,170787,1,0
349,40,171021,2,4,B|304:4|294:0|278:-2|255:-7,1,100
261,0,171490,1,0
261,0,171725,1,0
261,0,171959,2,4,B|176:-4|156:0,1,100
161,0,172428,5,0
161,0,172662,1,0
161,0,172896,2,4,B|128:32|92:76,1,100
95,73,173365,1,0
95,73,173600,1,0
95,73,173834,2,4,B|68:120|63:133,1,100
51,162,174303,5,0
51,162,174537,1,0
51,162,174771,2,4,B|80:169|127:160|148:147|149:138,1,100
146,143,175240,1,0
146,143,175475,1,0
146,143,175709,2,4,B|192:164|195:176|195:197,1,100
191,219,176178,5,0
191,219,176412,1,0
191,219,176646,2,4,B|240:226|265:206|267:183,1,100
262,173,177115,1,0
262,173,177350,1,0
262,173,177584,2,4,B|286:131|332:143,1,100
256,192,179225,5,4
256,192,179312,1,4
256,192,179400,1,4
256,192,179488,1,4
256,192,179576,1,4
256,192,179664,1,4
256,192,179752,1,4
256,192,179840,1,4
256,192,179928,1,4
256,192,180016,1,4
256,192,180103,1,4
256,192,180191,1,4
256,192,180279,1,4
256,192,180367,1,4
256,192,180454,1,4
256,192,180542,1,4
256,192,180630,1,4
256,192,180718,1,4
256,192,180806,1,4
256,192,180894,1,4
256,192,180982,1,4
256,192,181070,1,4
256,192,181158,1,4
256,192,181245,1,4
