osu file format v7

[General]
AudioFilename: Spongebob Squarepants - The Campfire Song Song.mp3
AudioLeadIn: 0
PreviewTime: 24965
Countdown: 1
SampleSet: Normal
StackLeniency: 0.7
Mode: 0
LetterboxInBreaks: 1

[Editor]
DistanceSpacing: 0.899999976158142
BeatDivisor: 6
GridSize: 16

[Metadata]
Title:The C-A-M-P-F-I-R-E S-O-N-G Song
Artist:Tom Kenny
Creator:Larto
Version:
Source:Spongebob Squarepants
Tags:campfire song campfiresong

[Difficulty]
HPDrainRate:5
CircleSize:5
OverallDifficulty:8
SliderMultiplier:2
SliderTickRate:4

[Events]
//Background and Video events
//Break Periods
//Storyboard Layer 0 (Background)
//Storyboard Layer 1 (Fail)
//Storyboard Layer 2 (Pass)
//Storyboard Layer 3 (Foreground)
//Storyboard Sound Samples
//Background Colour Transformations
3,100,163,162,255

[TimingPoints]
3300,618.544897959187,4,1,0,40,1,0
8870,620.644897959186,4,1,0,40,1,0
18416,615.384897959185,4,1,0,40,1,0
19548.5612244898,612.244897959184,4,1,0,40,1,0
20650,821.917808219178,4,1,0,40,1,0
25270,319.960317460317,4,1,0,40,1,0
27923,319.960317460317,4,1,0,40,1,0
30570,319.960317460317,4,1,0,40,1,0
31677,-50,4,1,0,40,0,0
32411,-100,4,1,0,40,0,0
35655,319.060317460317,4,1,0,40,1,0
36944,319.060317460317,4,1,0,40,1,0
38220,-50,4,1,0,79,0,0
40851,319.960317460317,4,1,0,40,1,0
41936,-50,4,1,0,40,0,0
42412,-100,4,1,0,40,0,0
43000,328.767142857143,4,1,0,40,1,0
51876,-50,4,1,0,40,0,0

[HitObjects]
128,192,21471,1,4
256,192,22293,1,4
384,192,23115,1,4
32,216,25270,5,2
80,72,25429,1,0
224,48,25589,1,2
368,80,25749,1,0
440,208,25909,1,0
384,344,26069,1,0
240,376,26229,1,0
112,304,26389,1,0
128,152,26549,1,0
216,32,26709,1,0
368,8,26869,1,0
480,104,27029,1,0
400,224,27189,1,0
64,48,27909,5,2
216,64,28082,1,0
352,120,28242,1,0
488,192,28402,1,0
504,104,28562,5,0
352,120,28722,1,0
80,248,28882,1,0
0,128,29042,5,0
152,144,29202,1,0
288,200,29362,1,0
416,264,29522,1,0
496,368,29682,1,0
360,368,29842,2,0,B|144:368,1,200
360,296,30322,1,0
360,296,30482,2,0,B|144:296,1,200
360,224,30969,1,0
360,224,31129,2,0,B|144:224,1,200
456,152,31609,1,0
456,152,31769,2,4,B|24:152,2,400
256,48,32729,5,0
256,48,32809,1,0
256,48,32889,1,0
256,48,32969,1,0
256,48,33049,2,0,B|144:128,1,100
48,192,33369,2,0,B|128:304,1,100
256,296,33689,2,0,B|176:184,1,100
256,88,34009,2,0,B|336:200,1,100
424,272,34329,5,0
480,136,34489,1,0
384,16,34649,1,0
256,88,34809,1,0
128,16,34969,1,0
32,136,35129,1,0
88,272,35289,1,0
224,336,35449,1,0
424,272,35609,6,0,B|448:128,1,100
328,216,35894,2,0,B|336:88,1,100
232,184,36213,1,0
216,136,36293,1,0
192,88,36372,1,0
128,224,36532,2,0,B|48:144,1,100
24,72,36851,2,0,B|144:8,1,100
208,8,37183,2,0,B|328:8,1,100
392,8,37502,1,0
472,128,37821,5,0
472,128,37901,1,0
472,128,37980,1,0
416,336,38300,6,6,C|256:192|96:352,1,450,6|4
448,64,39017,5,6
288,160,39177,1,4
304,368,39336,1,6
144,192,39496,1,4
384,256,39656,1,6
208,16,39815,1,6
0,240,39975,1,6
40,128,40294,5,0
40,128,40373,1,0
40,128,40453,1,0
216,288,41970,6,2,B|144:200|160:80|240:96|256:168|256:168|312:104|368:136|344:272|208:288,1,550,2|0
64,64,42770,5,0
144,32,42930,1,0
224,8,43164,2,0,B|344:72,1,133.333333333333
144,32,43547,1,0
224,8,43712,2,0,B|344:72,1,133.333333333333
144,32,44095,1,0
224,8,44260,2,0,B|344:72,1,133.333333333333
144,32,44725,1,0
224,8,44890,2,0,B|344:72,1,133.333333333333
448,64,45219,5,0
368,32,45383,1,0
288,8,45547,2,0,B|168:72,1,133.333333333333
368,32,45876,1,0
288,8,46041,2,0,B|168:72,1,133.333333333333
368,32,46452,1,0
288,8,46616,2,0,B|168:72,1,133.333333333333
368,32,47027,1,0
288,8,47273,6,0,B|168:72,1,133.333333333333
80,192,47684,1,0
256,208,47849,1,0
432,192,48013,1,0
256,208,48260,12,4,48917
256,208,49000,12,4,49575
256,208,49657,12,4,50232
256,208,50315,12,4,50890
256,56,51547,5,0
16,16,52041,6,4,B|16:368|16:368|512:368|512:368|512:32|512:32|96:32|96:32|96:304|96:304|448:304|448:304|448:96|448:96|160:96|160:96|160:240|160:240|368:240|368:240|368:160|368:160|256:160,1,3200
