osu file format v5

[General]
AudioFilename: 09_-_Tom_Jones_-_Delilah.mp3
AudioLeadIn: 0
PreviewTime: -1
Countdown: 1
SampleSet: Normal
StackLeniency: 0.7
Mode: 0

[Metadata]
Title:Delilah
Artist:Tom Jones
Creator:mooseymoo
Version:Normal
Source:Tom Jones- Delilah
Tags:

[Difficulty]
HPDrainRate:5
CircleSize:3
OverallDifficulty:3
SliderMultiplier:1.4
SliderTickRate:1

[Events]
//Background and Video events
1,-39,"delilah_0001.wmv"
//Break Periods
2,93111,96991
2,122735,142255
2,147943,157527
//Storyboard Layer 0 (Background)
//Storyboard Layer 1 (Failing)
//Storyboard Layer 2 (Passing)
//Storyboard Layer 3 (Foreground)
//Storyboard Sound Samples
//Background Colour Transformations
3,100,163,162,255

[TimingPoints]
59791,184,4,1,0,100

[HitObjects]
27,50,7880,1,0
91,50,8271,1,0
95,115,8639,1,4
94,180,9007,1,4
168,176,9375,5,0
239,174,9743,1,0
314,172,10111,1,4
351,248,10479,5,0
274,249,10847,1,0
204,249,11215,1,0
123,249,11583,1,0
123,249,11951,1,0
123,249,12319,1,0
97,78,15700,5,0
147,77,15930,1,0
201,78,16160,1,0
288,64,16551,1,0
288,64,16850,1,0
288,64,17080,1,0
288,192,17540,1,0
288,192,17770,1,4
352,224,18230,5,0
416,224,18460,1,0
416,320,18943,1,2
352,320,19311,1,2
288,320,19679,1,2
256,192,23175,5,0
256,192,25015,1,0
256,192,26671,1,0
256,192,27039,1,0
256,256,27407,5,4
113,107,30719,1,2
197,106,32559,1,2
325,104,34583,1,2
114,172,38447,1,4
175,112,39367,1,4
173,231,40287,1,4
114,146,41730,1,4
190,146,42127,1,4
190,146,42495,1,4
265,146,45930,1,4
309,220,46770,1,4
348,146,47610,1,4
234,159,49290,5,4
234,159,49710,1,4
234,159,50130,1,4
127,120,53490,1,4
246,119,54750,1,4
246,119,55170,1,4
79,67,56850,5,4
108,115,57270,1,4
139,167,57690,1,4
177,220,58110,1,4
177,220,58503,1,4
236,171,58871,1,4
237,174,59239,1,4
145,89,60895,5,4
184,89,61079,1,4
272,87,61447,1,4
340,142,61815,1,4
340,142,62183,5,4
137,206,62551,5,0
201,207,62919,1,0
259,209,63287,1,0
312,209,63655,1,0
401,205,64023,1,0
401,205,64391,1,0
401,204,64759,1,0
137,130,68439,1,4
204,128,68807,1,4
270,115,69175,1,4
333,108,69543,1,4
348,184,69911,5,4
277,197,70279,1,4
207,206,70647,1,4
136,218,71015,1,4
137,296,71383,5,4
221,286,71751,1,4
299,267,72119,1,4
299,267,72487,1,4
299,267,72855,1,4
125,98,76167,5,0
125,98,76535,1,0
222,98,76903,1,0
222,98,77271,1,0
324,102,77639,1,0
324,102,78007,1,0
394,104,78375,1,0
460,103,78743,1,0
460,103,78927,1,0
425,192,79479,5,0
425,193,79663,1,0
59,332,83527,1,2
62,68,85367,1,2
259,54,87023,1,2
257,134,87391,1,2
257,214,87759,1,2
435,329,91071,5,0
435,329,91439,1,0
436,328,91807,1,0
434,331,92175,1,0
435,329,92543,1,0
364,263,92911,5,6
384,64,98431,5,2
256,64,99351,1,2
128,64,100271,1,2
256,160,101927,5,2
256,160,102295,1,2
256,160,102663,1,2
128,288,105975,5,2
256,288,106895,1,2
384,288,107815,5,2
256,192,109471,5,2
256,192,109839,1,2
256,192,110207,1,2
160,96,113519,5,2
256,96,114991,5,2
256,96,115359,1,2
352,96,116831,1,2
352,96,117199,1,2
352,192,117751,1,2
256,192,118119,1,4
256,192,118303,1,4
160,192,118855,1,4
160,192,119039,1,4
256,192,120695,5,0
256,192,121063,1,0
256,192,121431,1,0
256,288,121799,1,0
256,288,122167,1,0
256,288,122535,1,0
64,64,143695,5,4
448,64,145535,1,4
448,192,147007,1,4
352,192,147375,1,4
352,192,147743,1,4
256,192,158967,12,4,162279
256,192,166327,12,4,169823
96,64,173871,1,4
192,64,175527,1,4
192,64,175895,1,4
288,64,177367,1,4
288,64,177735,1,4
288,160,178287,1,4
288,160,178655,1,4
288,160,179023,1,4
288,256,179207,1,4
288,256,179391,1,4
256,192,180863,12,4,187303
256,192,188591,12,0,199263
