osu file format v14

[General]
AudioFilename: New Beginnings.mp3
AudioLeadIn: 0
PreviewTime: 59952
Countdown: 0
SampleSet: Soft
StackLeniency: 0.7
Mode: 0
LetterboxInBreaks: 1
EpilepsyWarning: 1
WidescreenStoryboard: 1

[Editor]
DistanceSpacing: 0.7
BeatDivisor: 12
GridSize: 4
TimelineZoom: 1

[Metadata]
Title:New Beginnings
TitleUnicode:New Beginnings
Artist:Tom Day
ArtistUnicode:Tom Day
Creator:Auxent
Version:Normal
Source:
Tags:ambient downtempo piano violin orchestral chillout crossroads ep Sieg YellowManul XinCrin collab collaboration
BeatmapID:841629
BeatmapSetID:383341

[Difficulty]
HPDrainRate:4
CircleSize:3.5
OverallDifficulty:4
ApproachRate:5
SliderMultiplier:1.79999990463257
SliderTickRate:1

[Events]
//Background and Video events
0,0,"bg.jpg",0,0
//Break Periods
//Storyboard Layer 0 (Background)
//Storyboard Layer 1 (Fail)
//Storyboard Layer 2 (Pass)
//Storyboard Layer 3 (Foreground)
//Storyboard Sound Samples

[TimingPoints]
1642,810.810810810811,4,2,1,15,1,0
3669,769.230769230769,4,2,1,15,1,0
4053,810.810810810811,4,2,1,15,1,0
4458,800,4,2,1,15,1,0
4869,869.565217391304,4,2,1,15,1,0
5303,792.602377807133,4,2,1,15,1,0
6095,769.230769230769,4,2,1,15,1,0
7248,923.076923076923,4,2,1,15,1,0
7709,740.740740740741,4,2,1,15,1,0
8079,833.912439193885,4,2,1,15,1,0
9746,895.522388059701,4,2,1,15,1,0
10193,805.369127516779,4,2,1,15,1,0
11401,833.333333333333,4,2,1,15,1,0
11817,759.493670886076,4,2,1,15,1,0
12576,799.467021985343,4,2,1,15,1,0
13775,841.514726507714,4,2,1,15,1,0
14616,810.810810810811,4,2,1,15,1,0
16237,821.917808219178,4,2,1,15,1,0
17058,810.810810810811,4,2,1,15,1,0
17868,882.352941176471,4,2,1,15,1,0
18309,754.716981132075,4,2,1,15,1,0
19063,810.810810810811,4,2,1,15,1,0
20279,816.326530612245,4,2,1,15,1,0
20687,731.707317073171,4,2,1,15,1,0
21052,835.654596100279,4,2,1,15,1,0
22723,895.522388059701,4,2,1,15,1,0
23170,805.369127516779,4,2,1,15,1,0
24378,816.326530612245,4,2,1,15,1,0
24786,766.283524904215,4,2,1,15,1,0
25552,813.008130081301,4,2,1,15,1,0
27178,818.553888130969,4,2,1,15,1,0
27587,811.90798376184,4,2,1,15,1,0
29210,779.220779220779,4,2,1,15,1,0
29989,819.672131147541,4,2,1,15,1,0
30808,895.522388059701,4,2,1,15,1,0
31255,784.313725490196,4,2,1,15,1,0
32039,815.217391304348,4,2,1,15,1,0
34077,810.810810810811,4,2,1,15,1,0
35698,784.313725490196,4,2,1,15,1,0
36482,805.369127516779,4,2,1,15,1,0
37287,902.255639097744,4,2,1,15,1,0
37738,788.436268068331,4,2,1,15,1,0
38526,810.810810810811,4,2,1,15,1,0
40147,816.326530612245,4,2,1,15,1,0
40555,810.810810810811,4,2,1,15,1,0
42582,750,4,2,1,15,1,0
42957,833.333333333333,4,2,1,15,1,0
43790,875.912408759124,4,2,1,15,1,0
44227,787.40157480315,4,2,1,15,1,0
45014,810.810810810811,4,2,1,15,1,0
48662,816.326530612245,4,2,1,15,1,0
49070,759.493670886076,4,2,1,15,1,0
49449,827.586206896552,4,2,1,15,1,0
50276,882.352941176471,4,2,1,15,1,0
50717,784.313725490196,4,2,1,15,1,0
51501,808.080808080808,4,2,1,15,1,0
53521,806.451612903226,4,2,1,15,1,0
55738,-100,4,2,2,5,0,0
56746,818.553888130969,4,2,1,15,1,0
60020,805.369127516779,4,2,3,15,1,1
60020,-80,4,2,3,15,0,1
60221,-80,4,2,4,15,0,1
60422,789.473684210526,4,2,4,15,1,1
60816,-80,4,2,4,15,0,1
61211,851.063829787234,4,2,4,15,1,1
61636,792.602377807133,4,2,4,15,1,1
61636,-80,4,2,4,15,0,1
62428,808.625336927224,4,2,4,15,1,1
62428,-80,4,2,4,15,0,1
62832,842.696629213483,4,2,4,15,1,1
63253,-80,4,2,4,15,0,1
63674,750,4,2,4,15,1,1
64049,810.810810810811,4,2,4,15,1,1
64049,-80,4,2,4,15,0,1
64454,851.063829787234,4,2,4,15,1,1
64454,-80,4,2,4,15,0,1
64879,833.333333333333,4,2,4,15,1,1
64879,-80,4,2,4,15,0,1
65295,759.493670886076,4,2,4,15,1,1
65674,810.810810810811,4,2,4,15,1,1
65674,-80,4,2,4,15,0,1
66079,857.142857142857,4,2,4,15,1,1
66506,-80,4,2,3,15,0,1
66507,810.810810810811,4,2,3,15,1,1
66507,-80,4,2,3,15,0,1
66709,-80,4,2,4,15,0,1
66912,779.220779220779,4,2,4,15,1,1
66912,-80,4,2,4,15,0,1
67301,800,4,2,4,15,1,1
67301,-80,4,2,4,15,0,1
67701,833.333333333333,4,2,4,15,1,1
68117,-80,4,2,4,15,0,1
68534,769.230769230769,4,2,4,15,1,1
68534,-80,4,2,4,15,0,1
68918,800,4,2,4,15,1,1
68918,-80,4,2,4,15,0,1
69318,869.565217391304,4,2,4,15,1,1
69752,810.810810810811,4,2,4,15,1,1
69752,-80,4,2,4,15,0,1
70157,779.220779220779,4,2,4,15,1,1
70157,-80,4,2,4,15,0,1
70546,810.810810810811,4,2,4,15,1,1
70546,-80,4,2,4,15,0,1
70951,845.070422535211,4,2,4,15,1,1
71373,821.917808219178,4,2,4,15,1,1
71373,-80,4,2,4,15,0,1
71783,769.230769230769,4,2,4,15,1,1
71783,-80,4,2,4,15,0,1
72167,810.810810810811,4,2,4,15,1,1
72167,-80,4,2,4,15,0,1
72572,831.024930747922,4,2,4,15,1,1
72987,-80,4,2,3,15,0,1
73196,-80,4,2,4,15,0,1
73403,769.230769230769,4,2,4,15,1,1
73787,816.326530612245,4,2,4,15,1,1
73787,-80,4,2,4,15,0,1
74603,857.142857142857,4,2,4,15,1,1
74603,-80,4,2,4,15,0,1
75031,740.740740740741,4,2,4,15,1,1
75401,827.586206896552,4,2,4,15,1,1
75401,-80,4,2,4,15,0,1
75814,851.063829787234,4,2,4,15,1,1
76239,821.917808219178,4,2,4,15,1,1
76239,-80,4,2,4,15,0,1
76649,750,4,2,4,15,1,1
76649,-80,4,2,4,15,0,1
77024,827.586206896552,4,2,4,15,1,1
77024,-80,4,2,4,15,0,1
77849,833.333333333333,4,2,4,15,1,1
77849,-80,4,2,4,15,0,1
78265,759.493670886076,4,2,4,15,1,1
78265,-80,4,2,4,15,0,1
78644,816.326530612245,4,2,4,15,1,1
78644,-80,4,2,4,15,0,1
79052,857.142857142857,4,2,4,15,1,1
79480,829.875518672199,4,2,3,15,1,1
79480,-80,4,2,3,15,0,1
79687,-80,4,2,4,15,0,1
79894,750,4,2,4,15,1,1
80269,827.586206896552,4,2,4,15,1,1
80269,-80,4,2,4,15,0,1
81096,869.565217391304,4,2,4,15,1,1
81096,-80,4,2,4,15,0,1
81530,740.740740740741,4,2,4,15,1,1
81530,-80,4,2,4,15,0,1
81900,820.793433652531,4,2,4,15,1,1
81900,-80,4,2,4,15,0,1
83131,759.493670886076,4,2,4,15,1,1
83131,-80,4,2,4,15,0,1
83510,805.369127516779,4,2,4,15,1,1
83510,-80,4,2,4,15,0,1
83912,863.309352517986,4,2,4,15,1,1
84343,845.070422535211,4,2,4,15,1,1
84343,-80,4,2,4,15,0,1
84765,750,4,2,4,15,1,1
84765,-80,4,2,4,15,0,1
85140,810.810810810811,4,2,4,15,1,1
85140,-80,4,2,4,15,0,1
85545,853.48506401138,4,2,4,15,1,1
85971,810.810810810811,4,2,3,15,1,1
85971,-80,4,2,3,15,0,1
86173,-80,4,2,4,15,0,1
86376,754.716981132075,4,2,4,15,1,1
86753,821.917808219178,4,2,4,15,1,1
86753,-80,4,2,4,15,0,1
87574,857.142857142857,4,2,4,15,1,1
87574,-80,4,2,4,15,0,1
88002,740.740740740741,4,2,4,15,1,1
88372,827.586206896552,4,2,4,15,1,1
88372,-80,4,2,4,15,0,1
88785,869.565217391304,4,2,4,15,1,1
89219,779.220779220779,4,2,4,15,1,1
89219,-80,4,2,4,15,0,1
89998,827.586206896552,4,2,4,15,1,1
90825,800,4,2,4,15,1,1
90825,-80,4,2,4,15,0,1
91625,810.810810810811,4,2,4,15,1,1
91625,-80,4,2,4,15,0,1
92030,845.070422535211,4,2,4,15,1,1
92452,784.313725490196,4,2,3,15,1,1
92452,-80,4,2,3,15,0,1
92648,-80,4,2,4,15,0,1
93236,833.333333333333,4,2,4,15,1,1
93236,-80,4,2,4,15,0,1
94069,794.701986754967,4,2,4,15,1,1
94069,-80,4,2,4,15,0,1
94863,816.326530612245,4,2,4,15,1,1
95271,857.142857142857,4,2,4,15,1,1
95699,794.701986754967,4,2,4,15,1,1
95699,-80,4,2,4,15,0,1
96891,821.917808219178,4,2,4,15,1,1
97301,863.309352517986,4,2,4,15,1,1
97301,-80,4,2,4,15,0,1
97732,740.740740740741,4,2,4,15,1,1
98102,826.446280991736,4,2,4,15,1,1
98102,-80,4,2,4,15,0,1
98515,869.565217391304,4,2,4,15,1,1
98949,810.810810810811,4,2,3,15,1,0
99354,754.716981132075,4,2,1,15,1,0
99731,829.875518672199,4,2,1,15,1,0
100145,810.810810810811,4,2,1,15,1,0
100550,833.333333333333,4,2,1,15,1,0
100966,750,4,2,1,15,1,0
101341,836.820083682008,4,2,1,15,1,0
102596,750,4,2,1,15,1,0
102971,827.586206896552,4,2,1,15,1,0
103384,800,4,2,1,15,1,0
103784,857.142857142857,4,2,1,15,1,0
104212,740.740740740741,4,2,1,15,1,0
104582,845.070422535211,4,2,1,15,1,0
105427,810.810810810811,4,2,1,15,1,0
105832,773.19587628866,4,2,1,15,1,0
106218,810.810810810811,4,2,1,15,1,0
106623,839.160839160839,4,2,1,15,1,0
107462,740.740740740741,4,2,1,15,1,0
107832,817.438692098093,4,2,1,15,1,0
108240,837.988826815642,4,2,1,15,1,0
109077,750,4,2,1,15,1,0
109452,833.333333333333,4,2,1,15,1,0
109868,810.810810810811,4,2,1,15,1,0
110273,851.063829787234,4,2,1,15,1,0
110698,745.341614906832,4,2,1,15,1,0
111070,837.988826815642,4,2,1,15,1,0
111488,863.309352517986,4,2,1,15,1,0
111919,782.268578878748,4,2,1,10,1,0
112701,816.326530612245,4,2,1,10,1,0
113109,845.070422535211,4,2,1,10,1,0
113531,816.326530612245,4,2,1,10,1,0
113939,755.667506297229,4,2,1,10,1,0
114316,821.917808219178,4,2,1,10,1,0
114726,841.514726507714,4,2,1,10,1,0
115567,750,4,2,1,10,1,0
115942,828.729281767956,4,2,1,10,1,0
116356,840.336134453781,4,2,1,10,1,0
117196,740.740740740741,4,2,1,10,1,0
117566,833.333333333333,4,2,1,10,1,0
118399,821.917808219178,4,2,1,10,1,0
118809,756.620428751576,4,2,1,10,1,0
119187,810.810810810811,4,2,1,10,1,0
119592,869.565217391304,4,2,1,10,1,0
120026,810.810810810811,4,2,1,10,1,0
120431,754.716981132075,4,2,1,10,1,0
120808,821.917808219178,4,2,1,10,1,0
121218,857.142857142857,4,2,1,10,1,0
121646,821.917808219178,4,2,1,10,1,0
122056,752.823086574655,4,2,1,10,1,0
122432,816.326530612245,4,2,1,10,1,0
122840,857.142857142857,4,2,1,10,1,0
123268,794.701986754967,4,2,1,10,1,0
124062,805.369127516779,4,2,1,10,1,0

[Colours]
Combo1 : 152,184,157
Combo2 : 192,188,169
Combo3 : 153,157,191

[HitObjects]
256,191,1642,5,4,0:0:0:0:
53,340,3263,2,0,L|80:246,1,89.9999952316285
54,194,4053,1,0,0:0:0:0:
39,132,4458,1,0,0:0:0:0:
67,75,4869,6,0,P|114:60|157:74,1,89.9999952316285,4|2,0:0|0:0,0:0:0:0:
265,133,6095,1,0,0:0:0:0:
352,264,7248,2,0,L|450:249,1,89.9999952316285
479,209,8079,5,4,0:0:0:0:
237,228,9746,2,0,P|198:234|142:205,1,89.9999952316285
107,170,10595,2,0,L|88:76,1,89.9999952316285
144,51,11401,6,0,B|188:53|188:53|248:68,1,89.9999952316285,4|2,0:0|0:0,0:0:0:0:
326,149,12576,1,0,0:0:0:0:
196,286,13775,2,0,P|165:294|108:276,1,89.9999952316285,0|0,0:0|0:0,0:0:0:0:
66,233,14616,5,4,0:0:0:0:
282,104,16237,2,0,P|337:115|387:104,2,89.9999952316285,0|0|0,0:0|0:0|0:0,0:0:0:0:
227,136,17463,1,0,0:0:0:0:
179,177,17868,6,0,P|195:222|179:274,1,89.9999952316285,4|2,0:0|0:0,0:0:0:0:
79,329,19063,1,0,0:0:0:0:
45,144,20279,2,0,B|72:100|64:50,1,89.9999952316285
120,30,21052,5,4,0:0:0:0:
264,236,22723,2,0,P|341:234|369:240,1,89.9999952316285,0|0,0:0|0:0,0:0:0:0:
410,263,23572,1,0,0:0:0:0:
461,226,23975,1,0,0:0:0:0:
437,167,24378,6,0,L|415:76,1,89.9999952316285,4|2,0:0|0:0,0:0:0:0:
299,102,25552,1,0,0:0:0:0:
127,181,26771,1,0,0:0:0:0:
116,243,27178,1,0,0:0:0:0:
123,305,27587,5,4,0:0:0:0:
371,220,29210,2,0,P|422:230|476:224,2,89.9999952316285
316,189,30398,1,0,0:0:0:0:
267,220,30808,6,0,P|216:230|162:224,1,89.9999952316285,4|2,0:0|0:0,0:0:0:0:
83,152,32039,1,0,0:0:0:0:
191,90,32854,1,0,0:0:0:0:
316,105,33669,1,0,0:0:0:0:
316,105,34077,5,4,0:0:0:0:
164,306,35698,2,0,L|61:316,2,89.9999952316285,0|0|0,0:0|0:0|0:0,0:0:0:0:
218,275,36884,1,0,0:0:0:0:
279,289,37287,6,0,B|325:298|325:298|376:284,1,89.9999952316285,4|2,0:0|0:0,0:0:0:0:
434,180,38526,1,0,0:0:0:0:
343,91,39336,1,0,0:0:0:0:
220,118,40147,1,0,0:0:0:0:
220,118,40555,5,4,0:0:0:0:
65,317,42176,2,0,L|42:221,1,89.9999952316285,0|0,0:0|0:0,0:0:0:0:
56,174,42957,1,0,0:0:0:0:
93,123,43373,1,0,0:0:0:0:
149,145,43790,6,0,P|204:159|251:157,1,89.9999952316285,4|2,0:0|0:0,0:0:0:0:
353,109,45014,1,0,0:0:0:0:
423,213,45824,1,0,0:0:0:0:
345,312,46635,1,0,0:0:0:0:
345,312,47041,5,4,0:0:0:0:
95,274,48662,2,0,P|106:223|95:178,1,89.9999952316285,0|0,0:0|0:0,0:0:0:0:
151,152,49449,2,0,P|202:163|247:152,1,89.9999952316285,0|0,0:0|0:0,0:0:0:0:
285,198,50276,6,0,L|387:225,1,89.9999952316285,4|2,0:0|0:0,0:0:0:0:
310,331,51501,1,0,0:0:0:0:
184,315,52309,1,0,0:0:0:0:
97,223,53117,1,0,0:0:0:0:
97,223,53521,6,0,B|103:178|81:146|81:146|129:174|181:145|181:145|170:190|216:253|288:254|357:237|384:180|367:115|293:95|266:139,1,539.999971389771,6|0,0:0|0:0,0:0:0:0:
256,192,56746,12,0,59201,0:0:0:0:
99,306,60020,6,0,P|127:245|120:176,1,112.499994039536,4|0,0:0|0:0,0:0:0:0:
179,141,60816,2,0,L|314:155,1,112.499994039536,4|0,0:0|0:0,0:0:0:0:
363,183,61636,2,0,L|390:301,2,112.499994039536,4|0|4,0:0|0:0|0:0,0:0:0:0:
395,111,62832,1,0,0:0:0:0:
326,71,63253,6,0,P|275:61|211:81,1,112.499994039536,4|0,0:0|0:0,0:0:0:0:
221,155,64049,2,0,P|167:170|112:160,1,112.499994039536,4|0,0:0|0:0,0:0:0:0:
67,225,64879,2,0,L|108:345,1,112.499994039536,4|0,0:0|0:0,0:0:0:0:
182,331,65674,2,0,L|223:211,1,112.499994039536,4|0,0:0|0:0,0:0:0:0:
276,171,66507,6,0,L|397:186,1,112.499994039536,4|0,0:0|0:0,0:0:0:0:
455,224,67301,1,2,0:0:0:0:
478,299,67701,1,0,0:0:0:0:
423,355,68117,2,0,L|302:340,1,112.499994039536,4|0,0:0|0:0,0:0:0:0:
244,302,68918,1,2,0:0:0:0:
221,227,69318,1,0,0:0:0:0:
148,195,69752,6,0,B|86:200|86:200|31:185,1,112.499994039536,4|0,0:0|0:0,0:0:0:0:
78,119,70546,2,0,B|140:114|140:114|195:129,1,112.499994039536,2|0,0:0|0:0,0:0:0:0:
266,117,71373,2,0,L|387:89,1,112.499994039536,4|0,0:0|0:0,0:0:0:0:
393,168,72167,2,0,L|272:196,1,112.499994039536,2|0,0:0|0:0,0:0:0:0:
224,246,72987,6,0,P|204:308|168:348,1,112.499994039536,4|0,0:0|0:0,0:0:0:0:
107,299,73787,1,2,0:0:0:0:
71,228,74195,1,0,0:0:0:0:
106,157,74603,2,0,P|152:140|200:96,1,112.499994039536,4|0,0:0|0:0,0:0:0:0:
268,60,75401,1,2,0:0:0:0:
348,68,75814,1,0,0:0:0:0:
390,134,76239,6,0,L|400:201,2,56.2499970197678,4|0|0,0:0|0:0|0:0,0:0:0:0:
444,77,77024,1,2,0:0:0:0:
494,137,77437,1,0,0:0:0:0:
452,204,77849,2,0,P|486:219|518:212,2,56.2499970197678,4|0|0,0:0|0:0|0:0,0:0:0:0:
374,218,78644,1,2,0:0:0:0:
297,200,79052,1,0,0:0:0:0:
237,251,79480,6,0,P|183:263|124:248,1,112.499994039536,4|0,0:0|0:0,0:0:0:0:
78,189,80269,2,0,B|89:141|89:141|72:77,1,112.499994039536,2|0,0:0|0:0,0:0:0:0:
147,55,81096,2,0,L|182:168,1,112.499994039536
258,170,81900,2,0,B|304:183|304:183|371:164,1,112.499994039536,2|0,0:0|0:0,0:0:0:0:
423,220,82720,6,0,L|486:205,2,56.2499970197678,4|0|0,0:0|0:0|0:0,0:0:0:0:
364,272,83510,2,0,P|308:290|247:280,1,112.499994039536,2|0,0:0|0:0,0:0:0:0:
189,239,84343,2,0,L|126:254,2,56.2499970197678,4|0|0,0:0|0:0|0:0,0:0:0:0:
244,183,85140,2,0,P|265:127|248:65,1,112.499994039536,2|0,0:0|0:0,0:0:0:0:
189,121,85971,6,0,P|167:169|180:243,1,112.499994039536,4|0,0:0|0:0,0:0:0:0:
225,285,86753,1,2,0:0:0:0:
299,310,87163,1,0,0:0:0:0:
376,294,87574,2,0,P|398:246|385:172,1,112.499994039536,4|0,0:0|0:0,0:0:0:0:
340,130,88372,1,2,0:0:0:0:
266,105,88785,1,0,0:0:0:0:
198,145,89219,6,0,L|85:139,2,112.499994039536,4|0|2,0:0|0:0|0:0,0:0:0:0:
253,200,90411,1,0,0:0:0:0:
308,255,90825,2,0,L|421:261,2,112.499994039536,4|0|2,0:0|0:0|0:0,0:0:0:0:
244,300,92030,1,0,0:0:0:0:
188,245,92452,6,0,P|198:144|307:144,1,224.999988079071,4|2,0:0|0:0,0:0:0:0:
440,217,94069,2,0,P|430:318|321:318,1,224.999988079071,4|2,0:0|0:0,0:0:0:0:
269,266,95271,1,0,0:0:0:0:
256,192,95699,12,4,98949,0:0:0:0:
128,233,100550,6,0,L|128:280,2,44.9999976158143,4|0|0,0:0|0:0|0:0,0:0:0:0:
175,191,101341,2,0,P|203:161|215:107,1,89.9999952316285,0|0,0:0|0:0,0:0:0:0:
258,68,102177,6,0,P|347:50|420:96,1,170.8,4|0,0:0|0:0,0:0:0:0:
327,181,103784,2,0,P|238:199|165:153,1,167.5,4|0,0:0|0:0,0:0:0:0:
70,236,105427,6,0,L|54:295,2,44.9999976158143,4|0|0,0:0|0:0|0:0,0:0:0:0:
36,182,106218,1,0,0:0:0:0:
49,120,106623,1,0,0:0:0:0:
90,72,107042,2,0,B|152:89|152:89|277:67,1,169.5,4|0,0:0|0:0,0:0:0:0:
312,93,108240,1,0,0:0:0:0:
366,124,108658,6,0,L|386:314,1,170.7,4|0,0:0|0:0,0:0:0:0:
264,312,110273,2,0,L|244:122,1,168.6,4|0,0:0|0:0,0:0:0:0:
119,120,111919,6,0,P|55:118|17:128,2,89.9999952316285,4|0|0,0:0|0:0|0:0,0:0:0:0:
163,164,113109,1,0,0:0:0:0:
207,208,113531,2,0,P|271:210|309:200,1,89.9999952316285,4|0,0:0|0:0,0:0:0:0:
335,162,114316,2,0,P|399:160|437:170,1,89.9999952316285
459,218,115146,6,0,L|444:327,1,89.9999952316285,4|0,0:0|0:0,0:0:0:0:
385,321,115942,1,0,0:0:0:0:
323,334,116356,1,0,0:0:0:0:
265,308,116776,2,0,L|156:293,1,89.9999952316285,4|0,0:0|0:0,0:0:0:0:
126,270,117566,1,0,0:0:0:0:
84,222,117982,1,0,0:0:0:0:
61,162,118399,6,0,B|61:114|99:81|136:60|186:94|186:94|159:137|163:180|163:180|219:203|269:172,1,356.5,4|4,0:0|0:0,0:0:0:0:
360,138,120808,1,0,0:0:0:0:
399,187,121218,1,0,0:0:0:0:
394,249,121646,6,0,B|346:268|296:243|296:243|307:294|237:346|173:327|149:279|154:216|220:211,1,355.6,4|4,0:0|0:0,0:0:0:0:
297,127,124062,2,0,L|393:112,1,89.9999952316285
