osu file format v13

[General]
AudioFilename: Alone.mp3
AudioLeadIn: 0
PreviewTime: 5246
Countdown: 0
SampleSet: Soft
StackLeniency: 0.7
Mode: 0
LetterboxInBreaks: 0
WidescreenStoryboard: 1

[Editor]
DistanceSpacing: 1.4
BeatDivisor: 4
GridSize: 4
TimelineZoom: 1

[Metadata]
Title:Couldn't Be Alone (Single)
TitleUnicode:Couldn't Be Alone (Single)
Artist:Tom Day & Laura Lethlean
ArtistUnicode:Tom Day & Laura Lethlean
Creator:Pjecoo
Version:Easy
Source:
Tags:The Things We Leave Behind EP Vocal Chillstep Calm Wafu could not
BeatmapID:449977
BeatmapSetID:188835

[Difficulty]
HPDrainRate:2
CircleSize:3
OverallDifficulty:1.5
ApproachRate:3
SliderMultiplier:0.900000005960464
SliderTickRate:1

[Events]
//Background and Video events
0,0,"background.jpg",0,0
//Break Periods
//Storyboard Layer 0 (Background)
Sprite,Background,TopLeft,"background.jpg",0,0
//Storyboard Layer 1 (Fail)
//Storyboard Layer 2 (Pass)
//Storyboard Layer 3 (Foreground)
//Storyboard Sound Samples
//Background Colour Transformations
3,100,163,162,255

[TimingPoints]
1717,705.882352941176,4,2,1,40,1,0
75128,-100,4,2,1,20,0,0
82187,-100,4,2,1,5,0,0
82893,-100,4,2,1,10,0,0
84658,-100,4,2,1,5,0,0

[Colours]
Combo1 : 133,133,133
Combo2 : 194,192,182
Combo3 : 81,78,82
Combo4 : 207,205,218

[HitObjects]
84,97,1717,5,0,0:0:0:0:
269,63,2775,2,0,P|370:101|405:205,1,225.000001490116,0|0,0:0|0:0,0:0:0:0:
192,340,5952,2,0,P|151:323|129:284,1,90.0000005960464,0|2,0:0|0:0,2:0:0:0:
118,159,7364,6,0,B|214:96|275:216|376:166,1,270.000001788139,0|2,0:0|0:0,0:0:0:0:
376,286,10187,2,0,B|280:223|219:343|117:293,1,270.000001788139,0|2,0:0|0:0,0:0:0:0:
100,178,13011,6,0,P|225:87|331:130,1,270.000001788139,0|2,0:0|0:0,0:0:0:0:
346,236,15834,2,0,P|221:327|115:284,1,270.000001788139,0|2,0:0|0:0,0:0:0:0:
105,175,18658,6,0,P|134:142|177:131,1,90.0000005960464,0|2,0:0|0:0,0:0:0:0:
255,218,20069,1,0,0:0:0:0:
303,111,20775,1,2,0:0:0:0:
375,202,21481,2,0,L|367:291,1,90.0000005960464,0|2,0:0|0:0,0:0:0:0:
251,314,22893,2,0,P|212:295|195:254,1,90.0000005960464,0|2,0:0|0:0,0:0:0:0:
284,178,24305,6,0,L|462:148,1,180.000001192093
444,32,26422,1,2,0:0:0:0:
328,52,27128,2,0,P|284:42|239:47,1,90.0000005960464,0|2,0:0|0:0,0:0:0:0:
135,101,28540,1,0,0:0:0:0:
112,215,29246,1,2,0:0:0:0:
185,306,29952,6,0,P|270:322|337:268,1,180.000001192093,0|0,0:0|0:0,0:0:0:0:
367,154,32069,1,2,0:0:0:0:
256,116,32775,2,0,P|170:99|103:153,1,180.000001192093,0|0,0:0|0:0,0:0:0:0:
131,267,34893,1,2,0:0:0:0:
231,327,35599,6,0,P|249:287|247:242,1,90.0000005960464,0|2,0:0|0:0,0:0:0:0:
225,126,37011,1,0,0:0:0:0:
146,39,37716,2,0,L|56:43,1,90.0000005960464,2|0,0:0|0:0,0:0:0:0:
47,159,39128,2,0,P|40:244|109:296,1,180.000001192093,2|2,0:0|0:0,0:0:0:0:
227,293,41246,6,0,P|263:267|285:228,1,90.0000005960464,0|2,0:0|0:0,0:0:0:0:
260,114,42658,1,0,0:0:0:0:
371,77,43364,1,2,0:0:0:0:
443,168,44069,2,0,P|443:255|378:314,1,180.000001192093,0|0,0:0|0:0,0:0:0:0:
263,334,46187,1,2,0:0:0:0:
176,254,46893,6,0,P|131:248|86:251,2,90.0000005960464,0|2|0,0:0|0:0|0:0,0:0:0:0:
284,208,49011,1,2,0:0:0:0:
284,91,49716,2,0,P|200:60|116:87,1,180.000001192093,0|0,0:0|0:0,0:0:0:0:
37,172,51834,1,2,0:0:0:0:
90,275,52540,6,0,P|131:291|176:289,1,90.0000005960464,0|2,0:0|0:0,0:0:0:0:
281,238,53952,2,0,P|322:162|283:85,1,180.000001192093,0|0,0:0|0:0,0:0:0:0:
170,49,56069,1,2,0:0:0:0:
181,165,56775,1,0,0:0:0:0:
72,122,57481,1,2,0:0:0:0:
51,237,58187,6,0,P|50:280|69:321,1,90.0000005960464,0|2,0:0|0:0,0:0:0:0:
186,334,59599,2,0,B|249:304|298:371|361:336,1,180.000001192093,0|0,0:0|0:0,0:0:0:0:
442,252,61716,1,2,0:0:0:0:
388,147,62422,2,0,P|346:133|301:135,2,90.0000005960464,0|2|0,0:0|0:0|0:0,0:0:0:0:
442,252,64540,5,2,0:0:0:0:
337,305,65246,2,0,P|292:306|249:292,1,90.0000005960464,0|2,0:0|0:0,0:0:0:0:
235,175,66658,1,0,0:0:0:0:
147,252,67364,1,2,0:0:0:0:
71,162,68069,2,0,P|70:118|90:78,1,90.0000005960464,0|2,0:0|0:0,0:0:0:0:
202,41,69481,5,0,0:0:0:0:
314,72,70187,1,2,0:0:0:0:
374,172,70893,1,0,0:0:0:0:
334,282,71599,1,2,0:0:0:0:
228,331,72305,2,0,P|143:314|111:233,2,180.000001192093,0|0|0,0:0|0:0|0:0,0:0:0:0:
388,140,77246,6,0,P|404:63|316:48,2,180.000001192093,2|0|2,0:0|0:0|0:0,0:0:0:0:
296,213,80775,2,0,P|209:231|130:191,1,180.000001192093,0|0,0:0|0:0,0:0:0:0:
256,192,82893,12,0,85716,0:0:0:0:
