osu file format v5

[General]
AudioFilename: Sound 66.mp3
AudioLeadIn: 0
PreviewTime: -1
Countdown: 1
SampleSet: Normal
StackLeniency: 0.7
Mode: 0
LetterboxInBreaks: 1
EditorBookmarks: 7519,15676,20965,27465,29504,31671,35239,39509,45690,53592

[Metadata]
Title:Ghostbuster Remix
Artist:Tom Bombadiel
Creator:Tranceteors
Version:Normal
Source:
Tags:

[Difficulty]
HPDrainRate:4
CircleSize:4
OverallDifficulty:4
SliderMultiplier:1.4
SliderTickRate:1

[Events]
//Background and Video events
//Break Periods
//Storyboard Layer 0 (Background)
//Storyboard Layer 1 (Failing)
//Storyboard Layer 2 (Passing)
//Storyboard Layer 3 (Foreground)
//Storyboard Sound Samples
//Background Colour Transformations
3,100,0,0,0

[TimingPoints]
0,509.800000000002,4,1,0,100,1

[Colours]
Combo1 : 255,255,255
Combo2 : 227,207,255
Combo3 : 238,238,238
Combo4 : 190,190,188

[HitObjects]
128,192,892,1,8
128,256,1147,1,8
128,320,1465,1,8
256,192,2039,2,0,C|256:256|320:320|384:320,1,210
448,64,3377,5,0
448,128,3632,1,0
448,192,3950,1,0
384,64,4460,5,8
384,128,4779,1,8
384,192,5098,1,8
256,192,5416,12,8,6436
128,64,7710,5,8
384,64,8347,1,8
256,64,8921,1,8
192,128,9941,5,14
320,128,10514,1,14
256,320,11024,2,14,C|256:192|320:192|384:192|384:128|384:64,1,385
320,64,12681,1,14
192,192,13509,5,14
256,192,13764,1,14
320,128,14847,1,14
256,128,15166,1,14
192,128,15485,1,14
256,64,16504,5,14
256,128,16823,1,14
256,192,17078,1,14
320,192,17651,2,14,C|256:192,3,52.5
192,192,18798,5,14
256,192,19053,1,14
320,192,19372,1,14
384,128,19882,1,14
320,128,20137,1,14
256,128,20392,1,14
256,64,20965,5,14
192,64,21220,1,14
128,64,21539,1,14
256,192,21921,12,8,22686
256,192,23705,1,0
256,192,24597,12,8,25426
255,194,25872,5,8
192,199,26445,1,8
255,194,26700,1,8
329,192,26955,1,8
192,192,28612,5,8
265,196,28931,1,8
343,192,29249,1,8
217,89,29759,5,14
214,215,30078,1,14
320,128,30333,1,14
384,64,30842,5,14
384,128,31097,1,14
256,64,31480,6,14,C|256:320|256:128|256:192,1,507.5
320,192,34156,1,0
320,128,34411,1,0
320,64,34666,1,0
384,64,35112,5,0
384,128,35813,1,0
320,192,36068,2,0,C|320:128,4,52.5
256,64,37215,5,0
192,64,37470,1,0
128,64,37725,1,0
128,128,37916,2,0,C|192:128,6,52.5
256,128,39636,5,0
256,64,39955,1,0
320,64,40210,1,0
320,128,40529,1,0
256,192,41166,12,0,41739
384,192,42632,1,0
192,128,43779,5,2
256,128,44033,1,2
320,128,44352,1,2
320,192,44607,1,2
448,192,44926,1,2
448,128,45181,1,2
448,192,45435,1,2
448,128,45690,1,2
320,192,46200,5,8
256,192,46519,1,8
192,192,46837,1,8
384,256,47092,5,8
384,192,47347,1,8
384,256,47602,1,8
384,192,47921,1,8
256,192,48494,12,8,52254
