osu file format v14

[General]
AudioFilename: audio.mp3
AudioLeadIn: 0
PreviewTime: 71210
Countdown: 0
SampleSet: Normal
StackLeniency: 0.7
Mode: 0
LetterboxInBreaks: 0
EpilepsyWarning: 1
WidescreenStoryboard: 1

[Editor]
DistanceSpacing: 1
BeatDivisor: 4
GridSize: 4
TimelineZoom: 1.2

[Metadata]
Title:Do!
TitleUnicode:Do!
Artist:Tolvai Reni
ArtistUnicode:Tolvai Reni
Creator:6th
Version:Normal
Source:
Tags:Cun Edit Short Megasztár Hungarian Magyar Gero Irreversible Priti
BeatmapID:915125
BeatmapSetID:423481

[Difficulty]
HPDrainRate:3.5
CircleSize:3
OverallDifficulty:4
ApproachRate:5
SliderMultiplier:1.3
SliderTickRate:1

[Events]
//Background and Video events
0,0,"bg.jpg",0,0
//Break Periods
//Storyboard Layer 0 (Background)
//Storyboard Layer 1 (Fail)
//Storyboard Layer 2 (Pass)
//Storyboard Layer 3 (Foreground)
//Storyboard Sound Samples

[TimingPoints]
1433,444.444444444444,4,2,3,60,1,0
15655,-100,4,2,2,75,0,0
16099,-100,4,2,1,75,0,0
29877,-100,4,2,2,75,0,0
30321,-100,4,2,1,75,0,0
44099,-100,4,2,2,80,0,0
58321,-100,4,1,1,80,0,1
70766,-100,4,1,1,100,0,0
72544,-100,4,1,1,100,0,1
86766,-100,4,1,1,100,0,0

[Colours]
Combo1 : 206,141,241
Combo2 : 107,239,250
Combo3 : 196,215,217
Combo4 : 148,148,207

[HitObjects]
159,192,1433,6,0,P|136:132|158:72,2,130,2|0|2,0:0|0:0|0:0,0:0:0:0:
255,278,2766,1,0,0:0:0:0:
351,192,3210,2,0,P|373:132|351:72,2,130,2|0|2,0:0|0:0|0:0,0:0:0:0:
255,278,4544,1,0,0:0:0:0:
154,360,4988,6,0,L|54:276,2,130,2|0|2,0:0|0:0|0:0,0:0:0:0:
255,278,6321,1,0,0:0:0:0:
354,360,6766,2,0,L|453:276,2,130,2|0|2,0:0|0:0|0:0,0:0:0:0:
255,278,8099,1,0,0:0:0:0:
194,161,8544,6,0,P|255:142|316:161,2,130,2|0|2,0:0|0:0|0:0,0:0:0:0:
84,231,9877,1,0,0:0:0:0:
194,299,10321,2,0,P|255:317|316:298,2,130,2|0|2,0:0|0:0|0:0,0:0:0:0:
84,231,11655,1,0,0:0:0:0:
148,116,12099,6,0,P|88:100|20:116,2,130,2|0|2,0:0|0:0|0:0,0:0:0:0:
217,225,13432,1,0,0:0:0:0:
156,340,13877,2,0,L|292:340,2,130,2|0|2,0:0|0:0|0:0,0:0:0:0:
32,296,15210,1,0,0:0:0:0:
72,172,15655,6,0,P|134:186|198:172,1,130,6|0,0:0|0:0,0:0:0:0:
316,122,16544,2,0,P|379:108|442:122,1,130,8|0,0:0|0:0,0:0:0:0:
444,252,17432,5,2,0:0:0:0:
320,212,17877,1,0,0:0:0:0:
192,212,18321,1,8,0:0:0:0:
68,252,18766,1,0,0:0:0:0:
172,328,19210,6,0,P|240:342|314:321,1,130,2|2,0:0|0:0,0:0:0:0:
411,265,20099,2,0,L|369:194,1,65,8|0,0:0|0:0,0:0:0:0:
316,187,20544,2,0,L|274:116,1,65
221,109,20988,6,0,B|157:101|157:101|92:111,1,130,2|0,0:0|0:0,0:0:0:0:
92,244,21877,2,0,B|156:252|156:252|228:240,1,130,8|0,0:0|0:0,0:0:0:0:
308,144,22766,6,0,P|338:88|317:28,1,130,2|0,0:0|0:0,0:0:0:0:
188,28,23655,2,0,P|167:87|197:143,1,130,8|0,0:0|0:0,0:0:0:0:
244,188,24321,1,0,0:0:0:0:
292,232,24544,6,0,P|300:288|272:356,1,130,2|2,0:0|0:0,0:0:0:0:
168,276,25432,2,0,B|148:248|108:244|108:244|32:244,1,130,8|0,0:0|0:0,0:0:0:0:
12,117,26321,6,0,L|156:117,1,130,2|0,0:0|0:0,0:0:0:0:
192,160,26988,1,0,0:0:0:0:
248,196,27210,2,0,L|392:196,1,130,8|0,0:0|0:0,0:0:0:0:
416,72,28099,6,0,B|380:60|348:72|348:72|312:60|268:76,1,130,2|0,0:0|0:0,0:0:0:0:
165,114,28988,2,0,B|129:126|97:114|97:114|61:126|17:110,1,130,8|0,0:0|0:0,0:0:0:0:
24,180,29655,1,0,0:0:0:0:
44,244,29877,6,0,P|68:288|156:312,1,130,6|0,0:0|0:0,0:0:0:0:
272,316,30766,2,0,P|333:298|367:245,1,130,8|0,0:0|0:0,0:0:0:0:
356,116,31655,6,2,P|316:84|240:124,1,130
224,168,32321,1,0,0:0:0:0:
196,228,32544,2,0,P|139:254|87:220,1,130,8|0,0:0|0:0,0:0:0:0:
28,104,33432,6,0,L|112:96,1,65,2|0,0:0|0:0,0:0:0:0:
148,136,33877,2,0,L|224:128,1,65
268,160,34321,2,0,L|352:152,1,65,8|0,0:0|0:0,0:0:0:0:
388,192,34766,2,0,L|464:184,1,65
500,140,35210,6,2,B|480:184|480:184|488:292,1,130
376,332,36099,2,0,B|348:352|348:352|244:340,1,130,8|0,0:0|0:0,0:0:0:0:
128,304,36988,5,2,0:0:0:0:
36,212,37432,2,0,P|28:164|33:133,2,65,0|0|8,0:0|0:0|0:0,0:0:0:0:
160,172,38321,1,2,0:0:0:0:
284,136,38766,6,0,P|332:128|412:172,2,130,2|2|8,0:0|0:0|0:0,0:0:0:0:
160,172,40099,1,0,0:0:0:0:
192,300,40544,6,0,P|240:308|320:264,1,130,2|0,0:0|0:0,0:0:0:0:
352,224,41210,1,2,0:0:0:0:
364,160,41432,2,0,L|360:24,1,130,8|0,0:0|0:0,0:0:0:0:
260,112,42321,6,0,P|204:136|120:96,1,130,2|0,0:0|0:0,0:0:0:0:
80,92,42988,1,2,0:0:0:0:
24,56,43210,2,0,L|48:208,1,130,8|0,0:0|0:0,0:0:0:0:
82,308,44099,6,0,P|134:300|162:284,1,65,6|0,0:0|0:0,0:0:0:0:
204,268,44544,2,0,P|240:256|276:252,1,65
332,260,44988,2,0,P|404:256|448:204,1,130,8|0,0:0|0:0,0:0:0:0:
456,88,45877,6,0,P|416:96|376:92,1,65,2|0,0:0|0:0,0:0:0:0:
332,68,46321,2,0,P|288:60|252:64,1,65
208,84,46766,2,0,P|156:96|72:96,1,130,8|0,0:0|0:0,0:0:0:0:
0,200,47655,6,0,P|28:232|56:240,1,65,2|0,0:0|0:0,0:0:0:0:
100,280,48099,2,0,P|144:284|176:300,1,65
224,268,48544,2,0,B|260:244|260:244|352:228,1,130,8|0,0:0|0:0,0:0:0:0:
440,140,49432,6,0,P|404:132|368:108,1,65,2|0,0:0|0:0,0:0:0:0:
320,92,49877,2,0,P|291:76|259:71,1,65
196,84,50321,2,0,P|140:124|140:188,1,130,8|0,0:0|0:0,0:0:0:0:
168,308,51210,6,0,L|256:304,1,65,2|0,0:0|0:0,0:0:0:0:
294,282,51655,2,0,L|382:278,1,65
424,280,52099,2,0,L|392:136,1,130,8|0,0:0|0:0,0:0:0:0:
308,56,52988,6,0,L|236:48,1,65,2|0,0:0|0:0,0:0:0:0:
178,42,53432,2,0,L|113:49,1,65
52,72,53877,2,0,P|76:128|144:164,1,130,8|0,0:0|0:0,0:0:0:0:
256,120,54766,6,0,L|348:96,2,65,10|0|10,0:0|0:0|0:0,0:0:0:0:
195,140,55432,1,0,0:0:0:0:
133,162,55655,2,0,P|155:226|215:262,1,130,10|10,0:0|0:0,0:0:0:0:
324,208,56544,6,0,P|360:200|412:208,2,65,10|0|10,0:0|0:0|0:0,0:0:0:0:
264,235,57210,1,0,0:0:0:0:
204,259,57432,2,8,P|136:263|52:236,1,130,10|10,0:0|0:0,0:0:0:0:
32,124,58321,6,0,P|80:140|180:116,1,130,6|2,0:0|0:0,0:0:0:0:
272,68,59210,2,0,P|340:50|408:68,1,130,2|2,0:0|0:0,0:0:0:0:
468,172,60099,1,2,0:0:0:0:
396,280,60543,1,2,0:0:0:0:
340,164,60988,1,2,0:0:0:0:
260,268,61432,1,2,0:0:0:0:
129,262,61877,6,0,L|-15:258,1,130,2|2,0:0|0:0,0:0:0:0:
68,148,62766,2,0,L|212:152,1,130,2|2,0:0|0:0,0:0:0:0:
328,152,63655,2,0,P|360:84|340:16,2,130,2|2|2,0:0|0:0|0:0,0:0:0:0:
197,151,64988,2,0,L|170:93,2,43.3333333333333,2|0|0,0:0|0:0|0:0,0:0:0:0:
220,188,65432,6,0,P|236:250|224:313,1,130,6|2,0:0|0:0,0:0:0:0:
89,314,66321,2,0,P|76:250|92:188,1,130,2|2,0:0|0:0,0:0:0:0:
220,188,67210,1,2,0:0:0:0:
328,260,67655,1,2,0:0:0:0:
428,180,68099,1,2,0:0:0:0:
328,104,68544,1,2,0:0:0:0:
221,29,68988,6,0,L|81:33,1,130,2|2,0:0|0:0,0:0:0:0:
17,139,69877,2,0,L|3:268,1,130,2|2,0:0|0:0,0:0:0:0:
108,344,70766,1,2,0:0:0:0:
108,344,72544,5,6,0:0:0:0:
212,268,72988,2,0,L|364:264,1,130,2|2,0:0|0:0,0:0:0:0:
464,312,73877,1,2,0:0:0:0:
476,184,74321,2,0,P|436:133|377:107,1,130,2|2,0:0|0:0,0:0:0:0:
252,80,75210,1,2,0:0:0:0:
124,52,75655,1,2,0:0:0:0:
20,128,76099,5,2,0:0:0:0:
140,176,76544,2,0,L|116:317,1,130,2|2,0:0|0:0,0:0:0:0:
244,268,77432,1,2,0:0:0:0:
348,348,77877,2,0,P|412:355|475:342,2,130,2|2|2,0:0|0:0|0:0,0:0:0:0:
244,270,79210,2,0,L|196:269,2,43.3333333333333,2|0|0,0:0|0:0|0:0,0:0:0:0:
285,255,79655,6,0,P|349:262|412:249,1,130,6|2,0:0|0:0,0:0:0:0:
468,131,80544,2,0,P|403:123|340:136,1,130,2|2,0:0|0:0,0:0:0:0:
285,255,81432,1,2,0:0:0:0:
180,177,81877,1,2,0:0:0:0:
126,295,82321,1,2,0:0:0:0:
51,187,82766,1,2,0:0:0:0:
180,177,83210,6,0,P|228:136|245:52,1,130,6|2,0:0|0:0,0:0:0:0:
116,64,84099,1,2,0:0:0:0:
52,177,84544,1,2,0:0:0:0:
180,177,84988,6,0,L|310:177,1,130,2|2,0:0|0:0,0:0:0:0:
310,48,85877,1,2,0:0:0:0:
180,48,86321,2,0,L|120:48,2,43.3333333333333,2|0|0,0:0|0:0|0:0,0:0:0:0:
208,80,86766,5,6,0:0:0:0:
