osu file format v14

[General]
AudioFilename: audio.mp3
AudioLeadIn: 0
PreviewTime: 71210
Countdown: 0
SampleSet: Normal
StackLeniency: 0.7
Mode: 0
LetterboxInBreaks: 0
EpilepsyWarning: 1
WidescreenStoryboard: 1

[Editor]
DistanceSpacing: 2.8
BeatDivisor: 6
GridSize: 4
TimelineZoom: 2.4

[Metadata]
Title:Do!
TitleUnicode:Do!
Artist:Tolvai Reni
ArtistUnicode:Tolvai Reni
Creator:6th
Version:Insane
Source:
Tags:Cun Edit Short Megasztár Hungarian Magyar Gero Irreversible Priti
BeatmapID:915124
BeatmapSetID:423481

[Difficulty]
HPDrainRate:6
CircleSize:3.8
OverallDifficulty:7
ApproachRate:9
SliderMultiplier:1.7
SliderTickRate:1

[Events]
//Background and Video events
0,0,"bg.jpg",0,0
//Break Periods
//Storyboard Layer 0 (Background)
//Storyboard Layer 1 (Fail)
//Storyboard Layer 2 (Pass)
//Storyboard Layer 3 (Foreground)
//Storyboard Sound Samples

[TimingPoints]
1433,444.444444444444,4,2,3,60,1,0
15655,-100,4,2,2,75,0,0
16099,-100,4,2,1,75,0,0
29877,-100,4,2,2,75,0,0
30321,-100,4,2,1,75,0,0
44099,-100,4,2,2,80,0,0
58321,-80,4,1,1,80,0,1
58618,-80,4,1,1,5,0,1
58766,-80,4,1,1,80,0,1
58914,-80,4,1,1,5,0,1
59062,-80,4,1,1,80,0,1
62173,-80,4,1,1,5,0,1
62321,-80,4,1,1,80,0,1
62470,-80,4,1,1,5,0,1
62618,-80,4,1,1,80,0,1
65729,-80,4,1,1,5,0,1
65877,-80,4,1,1,80,0,1
66025,-80,4,1,1,5,0,1
66173,-80,4,1,1,80,0,1
69284,-80,4,1,1,5,0,1
69432,-80,4,1,1,80,0,1
69581,-80,4,1,1,5,0,1
69729,-80,4,1,1,80,0,1
70766,-133.333333333333,4,1,1,100,0,0
71210,-133.333333333333,4,3,0,70,0,0
72544,-80,4,1,1,100,0,1
72840,-80,4,1,1,45,0,1
72988,-80,4,1,1,100,0,1
73136,-80,4,1,1,45,0,1
73284,-80,4,1,1,100,0,1
76395,-80,4,1,1,45,0,1
76544,-80,4,1,1,100,0,1
76692,-80,4,1,1,45,0,1
76840,-80,4,1,1,100,0,1
79951,-80,4,1,1,45,0,1
80099,-80,4,1,1,100,0,1
80247,-80,4,1,1,45,0,1
80395,-80,4,1,1,100,0,1
83507,-80,4,1,1,45,0,1
83655,-80,4,1,1,100,0,1
83803,-80,4,1,1,45,0,1
83951,-80,4,1,1,100,0,1
86766,-100,4,1,1,100,0,0

[Colours]
Combo1 : 206,141,241
Combo2 : 107,239,250
Combo3 : 196,215,217
Combo4 : 148,148,207

[HitObjects]
114,142,1433,5,2,0:0:0:0:
114,142,1877,6,0,L|226:101,1,85
295,68,2321,1,2,0:0:0:0:
295,68,2766,6,0,L|336:180,1,85
369,249,3210,1,2,0:0:0:0:
369,249,3655,6,0,L|257:290,1,85
188,323,4099,1,2,0:0:0:0:
188,323,4544,6,0,L|147:211,1,85
116,140,4988,1,2,0:0:0:0:
204,11,5432,6,0,B|217:49|217:49|202:90,1,85
116,140,5877,1,2,0:0:0:0:
317,142,6321,6,0,P|361:140|418:90,1,85
440,28,6766,1,2,0:0:0:0:
228,120,7210,6,0,P|230:164|280:221,1,85
328,268,7655,1,2,0:0:0:0:
441,111,8099,1,2,0:0:0:0:
258,19,8544,5,2,0:0:0:0:
92,200,8988,6,0,L|30:265,1,85
127,323,9432,1,2,0:0:0:0:
127,323,9877,6,0,L|192:261,1,85
273,320,10321,1,2,0:0:0:0:
273,320,10766,6,0,L|214:381,1,85
127,323,11210,1,2,0:0:0:0:
304,164,11655,1,2,0:0:0:0:
388,356,12099,5,2,0:0:0:0:
491,163,12544,2,0,P|490:99|476:60,1,85
405,14,12988,1,2,0:0:0:0:
21,163,13432,6,0,P|22:99|36:60,1,85
107,14,13876,1,2,0:0:0:0:
297,220,14321,6,0,B|255:229|255:229|212:220,1,85
256,128,14766,1,2,0:0:0:0:
168,312,15210,1,0,0:0:0:0:
60,300,15432,1,0,0:0:0:0:
36,180,15655,6,0,L|216:200,1,170,6|2,0:0|0:0,0:0:0:0:
264,280,16321,1,2,0:0:0:0:
420,128,16544,2,0,L|240:112,1,170,8|0,0:0|0:0,0:0:0:0:
176,44,17210,1,0,0:0:0:0:
56,192,17432,6,0,L|232:212,1,170,2|2,0:0|0:0,0:0:0:0:
320,176,18099,1,2,0:0:0:0:
180,92,18321,2,0,P|104:120|56:204,1,170,8|0,0:0|0:0,0:0:0:0:
396,208,19210,6,0,P|398:165|385:125,1,85,2|0,0:0|0:0,0:0:0:0:
272,56,19655,2,0,P|258:96|261:138,1,85
320,323,20099,2,0,P|322:280|309:240,1,85,8|0,0:0|0:0,0:0:0:0:
192,172,20544,2,0,P|178:212|181:254,1,85
440,212,20988,6,0,P|400:164|284:156,1,170,2|2,0:0|0:0,0:0:0:0:
224,352,21877,1,8,0:0:0:0:
204,104,22321,2,2,L|196:16,1,85
204,104,22766,6,0,B|280:148|280:148|308:264,1,170,2|0,0:0|0:0,0:0:0:0:
196,236,23432,1,0,0:0:0:0:
180,336,23655,2,0,B|136:316|136:316|89:366|16:340,1,170,8|2,0:0|0:0,0:0:0:0:
64,252,24321,1,2,0:0:0:0:
76,152,24544,6,0,B|128:124|128:124|160:84|160:84|244:56,1,170,2|0,0:0|0:0,0:0:0:0:
256,188,25210,1,2,0:0:0:0:
295,65,25432,2,0,B|352:84|352:84|384:124|384:124|436:152,1,170,8|0,0:0|0:0,0:0:0:0:
440,168,26321,6,0,B|433:255|433:255|373:311,1,170,2|2,0:0|0:0,0:0:0:0:
288,269,26988,1,2,0:0:0:0:
203,311,27210,2,0,B|141:255|141:255|135:167,1,170,8|0,0:0|0:0,0:0:0:0:
124,72,27877,1,2,0:0:0:0:
216,112,28099,6,0,P|268:132|384:104,1,170,2|0,0:0|0:0,0:0:0:0:
464,60,28766,1,0,0:0:0:0:
464,60,28988,2,0,B|472:120|472:120|452:252,1,170,8|0,0:0|0:0,0:0:0:0:
432,328,29655,1,0,0:0:0:0:
296,288,29877,6,0,P|320:228|288:120,1,170,4|0,0:0|0:0,0:0:0:0:
212,68,30544,1,0,0:0:0:0:
212,68,30766,2,0,B|176:80|131:66|131:66|88:52|45:67,1,170,8|0,0:0|0:0,0:0:0:0:
40,172,31432,1,0,0:0:0:0:
40,172,31655,6,0,L|40:276,1,85,2|0,0:0|0:0,0:0:0:0:
124,312,32099,2,0,L|124:227,1,85,2|0,0:0|0:0,0:0:0:0:
199,119,32544,2,0,P|295:191|360:168,1,170,8|0,0:0|0:0,0:0:0:0:
424,132,33210,1,0,0:0:0:0:
298,4,33432,6,0,L|298:89,1,85,2|0,0:0|0:0,0:0:0:0:
307,201,33877,1,0,0:0:0:0:
253,297,34099,1,0,0:0:0:0:
216,140,34321,1,8,0:0:0:0:
160,293,34543,1,0,0:0:0:0:
132,190,34766,1,0,0:0:0:0:
74,277,34988,1,0,0:0:0:0:
74,277,35210,6,2,P|30:249|18:121,1,170
262,141,36099,2,0,P|258:223|196:278,1,170,8|0,0:0|0:0,0:0:0:0:
74,277,36766,1,2,0:0:0:0:
94,121,36988,6,0,B|142:121|142:121|218:141|218:141|270:141,1,170,2|0,0:0|0:0,0:0:0:0:
362,121,37655,1,0,0:0:0:0:
430,25,37877,2,0,B|382:25|382:25|306:45|306:45|254:45,1,170,8|0,0:0|0:0,0:0:0:0:
144,48,38544,1,2,0:0:0:0:
144,48,38766,6,0,P|76:100|92:176,1,170,2|0,0:0|0:0,0:0:0:0:
192,240,39432,1,0,0:0:0:0:
152,124,39655,2,2,P|188:136|252:132,1,85,8|0,0:0|0:0,0:0:0:0:
380,128,40099,1,0,0:0:0:0:
384,244,40321,1,0,0:0:0:0:
380,128,40544,6,0,B|384:80|332:44|332:44|240:48,1,170,2|0,0:0|0:0,0:0:0:0:
164,60,41210,1,2,0:0:0:0:
80,172,41432,2,0,B|76:220|128:252|128:252|199:252,1,170,8|0,0:0|0:0,0:0:0:0:
400,216,42321,6,0,P|452:196|480:296,1,170,2|0,0:0|0:0,0:0:0:0:
392,308,42988,1,2,0:0:0:0:
320,236,43210,2,0,P|324:184|368:144,1,85,8|0,0:0|0:0,0:0:0:0:
432,108,43655,2,0,P|460:68|460:16,1,85
328,88,44099,6,0,L|148:76,1,170,6|0,0:0|0:0,0:0:0:0:
60,160,44766,1,0,0:0:0:0:
60,160,44877,1,0,0:0:0:0:
60,160,44988,2,0,L|56:208,1,42.5,8|0,0:0|0:0,0:0:0:0:
156,320,45321,1,0,0:0:0:0:
172,336,45432,2,0,P|220:339|285:322,1,85
352,288,45766,1,0,0:0:0:0:
372,280,45877,6,0,B|424:324|488:308|488:308|452:268,1,170,2|0,0:0|0:0,0:0:0:0:
384,172,46544,1,0,0:0:0:0:
384,172,46655,1,0,0:0:0:0:
384,172,46766,2,0,L|404:120,1,42.5,8|0,0:0|0:0,0:0:0:0:
324,28,47099,1,0,0:0:0:0:
304,16,47210,2,0,P|258:48|216:59,1,85
132,96,47544,1,0,0:0:0:0:
112,100,47655,6,0,B|106:129|112:156|112:156|164:212|232:180,1,170,2|0,0:0|0:0,0:0:0:0:
340,160,48321,1,0,0:0:0:0:
340,160,48432,1,0,0:0:0:0:
340,160,48544,2,0,L|392:160,1,42.5,8|0,0:0|0:0,0:0:0:0:
464,60,48877,1,0,0:0:0:0:
476,44,48988,2,0,L|354:35,1,85
288,64,49321,1,0,0:0:0:0:
268,76,49432,6,0,P|244:124|284:228,1,170,2|0,0:0|0:0,0:0:0:0:
384,304,50099,1,0,0:0:0:0:
384,304,50210,1,0,0:0:0:0:
384,304,50321,2,0,L|444:328,1,42.5,8|0,0:0|0:0,0:0:0:0:
476,204,50655,1,0,0:0:0:0:
488,184,50766,2,0,L|481:90,1,85
292,128,51099,1,0,0:0:0:0:
304,140,51210,6,0,P|296:96|320:32,2,85,2|0|0,0:0|0:0|0:0,0:0:0:0:
380,232,51877,1,0,0:0:0:0:
388,248,51988,1,0,0:0:0:0:
396,264,52099,2,0,L|432:324,1,42.5,8|0,0:0|0:0,0:0:0:0:
300,364,52432,1,0,0:0:0:0:
280,372,52544,2,0,P|241:354|214:322,1,85
208,188,52877,1,0,0:0:0:0:
212,168,52988,6,0,P|252:164|308:184,2,85,2|0|0,0:0|0:0|0:0,0:0:0:0:
112,248,53655,1,0,0:0:0:0:
100,260,53766,1,0,0:0:0:0:
88,272,53877,2,0,L|88:316,1,42.5,8|0,0:0|0:0,0:0:0:0:
20,220,54210,1,0,0:0:0:0:
32,208,54321,2,0,L|36:120,1,85
216,16,54766,5,10,0:0:0:0:
325,6,54988,1,2,0:0:0:0:
393,92,55210,1,10,0:0:0:0:
284,82,55432,1,2,0:0:0:0:
221,177,55655,5,10,0:0:0:0:
330,167,55877,1,2,0:0:0:0:
398,253,56099,1,10,0:0:0:0:
289,243,56321,1,2,0:0:0:0:
184,189,56544,5,10,0:0:0:0:
148,152,56655,1,0,0:0:0:0:
152,100,56766,1,2,0:0:0:0:
180,56,56877,1,0,0:0:0:0:
228,40,56988,1,10,0:0:0:0:
280,48,57099,1,0,0:0:0:0:
320,76,57210,1,2,0:0:0:0:
348,120,57321,1,0,0:0:0:0:
352,172,57432,5,10,0:0:0:0:
388,136,57544,1,0,0:0:0:0:
436,120,57655,1,2,0:0:0:0:
484,140,57766,1,0,0:0:0:0:
492,192,57877,1,10,0:0:0:0:
456,229,57988,1,0,0:0:0:0:
408,217,58099,1,2,0:0:0:0:
436,173,58210,1,0,0:0:0:0:
436,217,58321,6,0,P|368:241|296:205,1,141.666666666667,6|0,0:0|0:0,0:0:0:0:
216,240,58766,2,0,L|228:164,1,70.8333333333333,2|0,0:0|0:0,0:0:0:0:
248,80,59062,1,0,0:0:0:0:
248,80,59136,1,0,0:0:0:0:
248,80,59210,21,2,0:0:0:0:
316,144,59358,1,0,0:0:0:0:
227,170,59507,1,0,0:0:0:0:
232,64,59655,37,2,0:0:0:0:
300,128,59803,1,0,0:0:0:0:
211,154,59952,1,0,0:0:0:0:
232,64,60099,22,0,P|260:32|304:20,1,70.8333333333333,2|0,0:0|0:0,0:0:0:0:
211,154,60395,2,0,P|168:164|136:156,1,70.8333333333333,0|2,0:0|0:0,0:0:0:0:
300,128,60692,2,0,P|331:142|353:170,1,70.8333333333333
272,328,60988,2,0,L|276:200,1,106.25,2|0,0:0|0:0,0:0:0:0:
276,60,61432,37,2,0:0:0:0:
379,33,61581,1,0,0:0:0:0:
351,134,61729,1,0,0:0:0:0:
276,60,61877,38,0,L|112:64,1,159.375,2|0,0:0|0:0,0:0:0:0:
28,48,62321,2,0,L|32:124,1,70.8333333333333,2|0,0:0|0:0,0:0:0:0:
40,224,62618,1,0,0:0:0:0:
40,224,62692,1,0,0:0:0:0:
40,224,62766,21,2,0:0:0:0:
120,272,62914,1,0,0:0:0:0:
136,180,63062,1,0,0:0:0:0:
36,308,63210,5,2,0:0:0:0:
208,240,63358,1,0,0:0:0:0:
56,132,63507,1,0,0:0:0:0:
36,308,63655,6,0,P|48:336|80:364,1,70.8333333333333,2|0,0:0|0:0,0:0:0:0:
208,240,63951,2,0,P|212:208|200:172,1,70.8333333333333,0|2,0:0|0:0,0:0:0:0:
56,132,64247,2,0,P|52:164|64:200,1,70.8333333333333
128,308,64544,5,2,0:0:0:0:
156,312,64618,1,0,0:0:0:0:
184,316,64692,1,0,0:0:0:0:
212,320,64766,1,0,0:0:0:0:
240,324,64840,1,0,0:0:0:0:
268,328,64914,1,0,0:0:0:0:
296,332,64988,5,2,0:0:0:0:
328,200,65136,1,0,0:0:0:0:
200,236,65284,1,0,0:0:0:0:
296,332,65432,6,0,P|368:333|424:264,1,141.666666666667,6|0,0:0|0:0,0:0:0:0:
308,144,65877,2,0,L|204:152,1,70.8333333333333,2|0,0:0|0:0,0:0:0:0:
72,120,66173,1,0,0:0:0:0:
72,120,66247,1,0,0:0:0:0:
72,120,66321,37,2,0:0:0:0:
80,212,66470,1,0,0:0:0:0:
156,160,66618,1,0,0:0:0:0:
0,176,66766,37,2,0:0:0:0:
164,248,66915,1,0,0:0:0:0:
150,72,67063,1,0,0:0:0:0:
0,176,67210,38,0,L|4:248,1,70.8333333333333,2|0,0:0|0:0,0:0:0:0:
167,318,67507,2,0,L|164:248,1,70.8333333333333,0|2,0:0|0:0,0:0:0:0:
348,248,67803,2,0,L|344:318,1,70.8333333333333
484,248,68099,2,0,L|492:128,1,106.25,2|0,0:0|0:0,0:0:0:0:
171,249,68544,5,2,0:0:0:0:
200,360,68692,1,0,0:0:0:0:
96,320,68840,1,0,0:0:0:0:
272,304,68988,38,0,P|344:264|380:184,1,141.666666666667,2|0,0:0|0:0,0:0:0:0:
168,180,69432,2,0,P|164:220|176:252,1,70.8333333333333,2|0,0:0|0:0,0:0:0:0:
264,212,69729,1,0,0:0:0:0:
264,212,69803,1,0,0:0:0:0:
264,212,69877,21,2,0:0:0:0:
244,116,70025,1,0,0:0:0:0:
168,180,70173,1,0,0:0:0:0:
264,212,70321,5,2,0:0:0:0:
144,92,70470,1,0,0:0:0:0:
100,256,70618,1,0,0:0:0:0:
264,212,70766,1,2,0:0:0:0:
244,128,71507,5,0,0:0:0:0:
244,128,71581,1,0,0:0:0:0:
244,128,71655,1,0,0:0:0:0:
332,152,71803,1,0,0:0:0:0:
420,176,71951,1,0,3:1:0:0:
512,52,72099,1,0,3:0:0:0:
424,76,72247,1,0,3:1:0:0:
448,0,72395,1,0,3:1:0:0:
348,104,72544,38,0,P|292:120|212:76,1,141.666666666667,6|0,0:0|0:0,0:0:0:0:
348,104,72988,2,0,L|352:200,1,70.8333333333333,2|0,0:0|0:0,0:0:0:0:
356,280,73284,1,0,0:0:0:0:
356,280,73358,1,0,0:0:0:0:
356,280,73432,21,2,0:0:0:0:
264,336,73581,1,0,0:0:0:0:
264,228,73729,1,0,0:0:0:0:
355,379,73877,5,2,0:0:0:0:
180,280,74025,1,0,0:0:0:0:
350,174,74173,1,0,0:0:0:0:
224,368,74321,22,0,L|128:360,1,70.8333333333333,2|0,0:0|0:0,0:0:0:0:
72,208,74618,2,0,L|164:216,1,70.8333333333333,0|2,0:0|0:0,0:0:0:0:
248,80,74914,2,0,L|152:72,1,70.8333333333333
272,188,75210,2,0,L|404:200,1,106.25,2|0,0:0|0:0,0:0:0:0:
180,352,75655,5,2,0:0:0:0:
124,268,75803,1,0,0:0:0:0:
196,192,75951,1,0,0:0:0:0:
66,161,76099,6,0,P|138:157|208:207,1,141.666666666667,2|0,0:0|0:0,0:0:0:0:
246,277,76544,2,0,L|343:259,1,70.8333333333333,2|0,0:0|0:0,0:0:0:0:
363,173,76840,1,0,0:0:0:0:
363,173,76914,1,0,0:0:0:0:
363,173,76988,21,2,0:0:0:0:
421,261,77136,1,0,0:0:0:0:
315,264,77284,1,0,0:0:0:0:
464,168,77432,21,2,0:0:0:0:
369,342,77580,1,0,0:0:0:0:
259,175,77728,1,0,0:0:0:0:
464,168,77877,6,0,P|477:203|474:242,1,70.8333333333333,2|0,0:0|0:0,0:0:0:0:
369,342,78173,2,0,P|334:354|295:351,1,70.8333333333333,0|2,0:0|0:0,0:0:0:0:
319,248,78470,1,0,0:0:0:0:
504,244,78618,5,0,0:0:0:0:
477,252,78692,1,0,0:0:0:0:
450,261,78766,1,2,0:0:0:0:
423,270,78840,1,0,0:0:0:0:
396,279,78914,1,0,0:0:0:0:
369,288,78988,1,0,0:0:0:0:
342,296,79062,1,0,0:0:0:0:
315,305,79136,1,0,0:0:0:0:
288,316,79210,21,2,0:0:0:0:
192,244,79358,1,0,0:0:0:0:
148,356,79507,1,0,0:0:0:0:
56,264,79655,38,0,P|64:192|140:144,1,141.666666666667,6|0,0:0|0:0,0:0:0:0:
176,256,80099,2,0,P|208:270|243:272,1,70.8333333333333,2|0,0:0|0:0,0:0:0:0:
332,244,80395,1,0,0:0:0:0:
332,244,80470,1,0,0:0:0:0:
332,244,80544,37,2,0:0:0:0:
323,138,80692,1,0,0:0:0:0:
232,192,80840,1,0,0:0:0:0:
344,252,80988,37,2,0:0:0:0:
316,120,81136,1,0,0:0:0:0:
216,204,81284,1,0,0:0:0:0:
360,260,81432,6,0,L|432:284,1,70.8333333333333,2|0,0:0|0:0,0:0:0:0:
308,96,81729,2,0,L|260:8,1,70.8333333333333,0|2,0:0|0:0,0:0:0:0:
200,216,82025,2,0,L|168:292,1,70.8333333333333
28,348,82321,2,0,L|36:216,1,106.25,2|0,0:0|0:0,0:0:0:0:
48,32,82766,5,2,0:0:0:0:
60,124,82914,1,0,0:0:0:0:
76,216,83062,1,0,0:0:0:0:
92,308,83210,22,0,P|148:320|236:268,1,141.666666666667,6|0,0:0|0:0,0:0:0:0:
316,276,83655,2,0,P|332:232|332:184,1,70.8333333333333,2|0,0:0|0:0,0:0:0:0:
332,116,83951,1,0,0:0:0:0:
332,116,84025,1,0,0:0:0:0:
332,116,84099,21,2,0:0:0:0:
308,28,84247,1,0,0:0:0:0:
240,92,84395,1,0,0:0:0:0:
332,116,84544,5,2,0:0:0:0:
220,8,84692,1,0,0:0:0:0:
268,184,84840,1,0,0:0:0:0:
392,48,84988,5,2,0:0:0:0:
392,48,85136,1,0,0:0:0:0:
492,64,85284,1,0,0:0:0:0:
492,64,85432,2,0,B|500:132|500:132|484:224,1,141.666666666667,2|0,0:0|0:0,0:0:0:0:
412,280,85877,37,2,0:0:0:0:
384,284,85951,1,0,0:0:0:0:
356,288,86025,1,0,0:0:0:0:
328,292,86099,1,0,0:0:0:0:
300,296,86173,1,0,0:0:0:0:
272,300,86247,1,0,0:0:0:0:
244,304,86321,6,0,L|192:308,1,35.4166666666667,2|0,0:0|0:0,0:0:0:0:
76,312,86470,2,0,L|100:284,1,35.4166666666667
141,192,86618,2,0,L|173:232,1,35.4166666666667
136,368,86766,5,6,0:0:0:0:
