osu file format v14

[General]
AudioFilename: audio.mp3
AudioLeadIn: 0
PreviewTime: 71210
Countdown: 0
SampleSet: Normal
StackLeniency: 0.7
Mode: 0
LetterboxInBreaks: 0
EpilepsyWarning: 1
WidescreenStoryboard: 1

[Editor]
DistanceSpacing: 1.2
BeatDivisor: 4
GridSize: 4
TimelineZoom: 1.3

[Metadata]
Title:Do!
TitleUnicode:Do!
Artist:Tolvai Reni
ArtistUnicode:Tolvai Reni
Creator:6th
Version:Hyper
Source:
Tags:Cun Edit Short Megasztár Hungarian Magyar Gero Irreversible Priti
BeatmapID:929874
BeatmapSetID:423481

[Difficulty]
HPDrainRate:5.5
CircleSize:3.5
OverallDifficulty:6.5
ApproachRate:8.5
SliderMultiplier:1.6
SliderTickRate:1

[Events]
//Background and Video events
0,0,"bg.jpg",0,0
//Break Periods
//Storyboard Layer 0 (Background)
//Storyboard Layer 1 (Fail)
//Storyboard Layer 2 (Pass)
//Storyboard Layer 3 (Foreground)
//Storyboard Sound Samples

[TimingPoints]
1433,444.444444444444,4,2,3,60,1,0
15655,-100,4,2,2,70,0,0
16099,-100,4,2,1,75,0,0
29877,-100,4,2,2,75,0,0
30321,-100,4,2,1,75,0,0
44099,-100,4,2,2,80,0,0
56544,-133.333333333333,4,2,2,80,0,0
58321,-80,4,1,1,100,0,1
58618,-80,4,1,1,5,0,1
58766,-80,4,1,1,100,0,1
62173,-80,4,1,1,5,0,1
62321,-80,4,1,1,100,0,1
65729,-80,4,1,1,5,0,1
65877,-80,4,1,1,100,0,1
69284,-80,4,1,1,5,0,1
69432,-80,4,1,1,100,0,1
70766,-80,4,1,1,100,0,0
71210,-80,4,3,0,70,0,0
72544,-80,4,1,1,100,0,1
72840,-80,4,1,1,5,0,1
72988,-80,4,1,1,100,0,1
76395,-80,4,1,1,5,0,1
76544,-80,4,1,1,100,0,1
79951,-80,4,1,1,5,0,1
80099,-80,4,1,1,100,0,1
83507,-80,4,1,1,5,0,1
83655,-80,4,1,1,100,0,1
86766,-80,4,1,1,100,0,0

[Colours]
Combo1 : 206,141,241
Combo2 : 107,239,250
Combo3 : 196,215,217
Combo4 : 148,148,207

[HitObjects]
221,135,1433,6,0,P|156:175|139:266,1,160,2|0,0:0|0:0,0:0:0:0:
239,238,2099,1,0,0:0:0:0:
315,167,2321,2,0,P|312:90|236:32,1,160,2|0,0:0|0:0,0:0:0:0:
221,135,2988,1,0,0:0:0:0:
239,238,3210,6,0,P|284:268|392:236,1,160,2|0,0:0|0:0,0:0:0:0:
315,167,3877,1,0,0:0:0:0:
241,86,4099,2,0,P|315:58|387:85,1,160,2|0,0:0|0:0,0:0:0:0:
315,167,4766,1,0,0:0:0:0:
95,86,4988,6,0,P|137:63|246:90,1,160,2|0,0:0|0:0,0:0:0:0:
168,159,5655,1,0,0:0:0:0:
241,232,5877,2,0,P|314:259|387:231,1,160,2|0,0:0|0:0,0:0:0:0:
316,160,6544,1,0,0:0:0:0:
248,84,6766,6,0,B|180:84|180:84|152:92|152:92|68:92,1,160,2|0,0:0|0:0,0:0:0:0:
16,164,7432,1,0,0:0:0:0:
94,232,7655,2,0,P|168:264|240:231,1,160,2|0,0:0|0:0,0:0:0:0:
168,159,8322,1,0,0:0:0:0:
384,235,8544,6,0,P|310:207|237:234,1,160,2|0,0:0|0:0,0:0:0:0:
311,307,9210,1,0,0:0:0:0:
384,235,9432,2,0,L|404:76,1,160,2|0,0:0|0:0,0:0:0:0:
310,30,10099,1,0,0:0:0:0:
217,75,10321,6,0,L|237:234,1,160,2|0,0:0|0:0,0:0:0:0:
139,271,10988,1,0,0:0:0:0:
40,235,11210,2,0,L|60:76,1,160,2|0,0:0|0:0,0:0:0:0:
139,155,11877,1,0,0:0:0:0:
280,24,12099,6,0,P|363:15|439:50,1,160,2|0,0:0|0:0,0:0:0:0:
512,112,12766,1,0,0:0:0:0:
431,44,12988,2,0,P|407:128|457:203,1,160,2|0,0:0|0:0,0:0:0:0:
435,292,13655,1,0,0:0:0:0:
358,221,13877,6,0,B|296:222|296:222|260:230|260:230|198:230,1,160,2|0,0:0|0:0,0:0:0:0:
257,143,14544,1,0,0:0:0:0:
198,56,14766,2,0,B|260:56|260:56|296:64|296:64|358:65,1,160,2|0,0:0|0:0,0:0:0:0:
286,143,15433,1,0,0:0:0:0:
56,184,15655,6,0,P|84:208|208:200,1,160,6|0,0:0|0:0,0:0:0:0:
276,148,16321,1,0,0:0:0:0:
276,148,16544,2,0,B|332:148|332:148|392:164|392:164|448:164,1,160,8|0,0:0|0:0,0:0:0:0:
500,236,17210,1,0,0:0:0:0:
432,304,17432,6,0,B|390:304|390:304|330:288|330:288|274:288,1,160,2|0,0:0|0:0,0:0:0:0:
180,312,18099,1,0,0:0:0:0:
180,312,18321,2,0,L|164:132,1,160,8|0,0:0|0:0,0:0:0:0:
332,60,19210,6,2,P|396:84|432:84,1,80,2|0,0:0|0:0,0:0:0:0:
292,140,19655,2,0,P|228:164|192:164,1,80,2|2,0:0|0:0,0:0:0:0:
332,220,20099,2,0,P|396:244|428:244,1,80,8|0,0:0|0:0,0:0:0:0:
292,300,20544,1,0,0:0:0:0:
196,320,20766,1,0,0:0:0:0:
104,292,20988,6,2,P|128:240|96:132,1,160
344,144,21877,2,0,P|319:218|345:292,1,160,8|0,0:0|0:0,0:0:0:0:
436,320,22544,1,2,0:0:0:0:
424,224,22766,6,0,L|240:220,1,160,2|2,0:0|0:0,0:0:0:0:
298,126,23432,1,2,0:0:0:0:
208,136,23655,2,0,L|48:149,1,160,8|0,0:0|0:0,0:0:0:0:
112,224,24321,1,0,0:0:0:0:
8,236,24544,6,0,P|44:305|118:329,1,160,2|0,0:0|0:0,0:0:0:0:
212,288,25210,1,0,0:0:0:0:
308,329,25432,2,0,P|382:304|418:235,1,160,8|0,0:0|0:0,0:0:0:0:
211,128,26321,6,0,L|212:296,1,160,2|2,0:0|0:0,0:0:0:0:
140,364,26988,1,2,0:0:0:0:
72,284,27210,2,0,P|56:236|112:140,1,160,8|0,0:0|0:0,0:0:0:0:
196,180,27877,1,2,0:0:0:0:
280,136,28099,6,0,B|360:116|360:116|460:120,1,160,2|0,0:0|0:0,0:0:0:0:
492,200,28766,1,0,0:0:0:0:
436,276,28988,2,0,B|358:278|358:278|278:258,1,160,8|0,0:0|0:0,0:0:0:0:
200,200,29655,1,0,0:0:0:0:
200,200,29877,6,0,B|164:196|164:196|120:200|120:200|72:196|72:196|24:200,1,160,4|0,0:0|0:0,0:0:0:0:
84,284,30544,1,0,0:0:0:0:
168,328,30766,2,0,P|248:352|320:308,1,160,8|0,0:0|0:0,0:0:0:0:
236,260,31432,1,0,0:0:0:0:
328,232,31655,6,2,P|364:152|332:88,1,160
264,156,32321,1,0,0:0:0:0:
248,68,32544,2,0,P|188:60|148:64,1,80,8|0,0:0|0:0,0:0:0:0:
87,126,32988,1,0,0:0:0:0:
87,230,33210,1,0,0:0:0:0:
168,296,33432,6,0,P|212:300|256:292,1,80,2|0,0:0|0:0,0:0:0:0:
228,180,33877,2,2,P|188:174|148:178,1,80
300,232,34321,2,0,P|344:236|388:228,1,80,8|0,0:0|0:0,0:0:0:0:
457,174,34766,1,0,0:0:0:0:
410,81,34988,1,0,0:0:0:0:
228,180,35210,6,2,P|208:232|272:316,1,160
392,180,36099,2,0,P|408:255|357:312,1,160,8|0,0:0|0:0,0:0:0:0:
259,336,36766,1,2,0:0:0:0:
163,312,36988,6,0,P|138:238|164:164,1,160,2|0,0:0|0:0,0:0:0:0:
236,100,37655,1,0,0:0:0:0:
130,204,37877,2,0,P|164:133|235:100,1,160,8|0,0:0|0:0,0:0:0:0:
332,108,38544,1,2,0:0:0:0:
183,106,38766,6,0,P|257:81|331:107,1,160,2|2,0:0|0:0,0:0:0:0:
392,180,39433,1,0,0:0:0:0:
288,74,39655,2,0,P|358:108|391:179,1,160,8|0,0:0|0:0,0:0:0:0:
152,284,40544,6,2,B|207:295|256:292|256:292|264:312|208:324,1,160
136,372,41210,1,2,0:0:0:0:
68,304,41432,2,0,P|88:232|184:200,1,160,8|0,0:0|0:0,0:0:0:0:
352,192,42321,6,2,P|422:159|444:85,1,160
348,96,42988,1,2,0:0:0:0:
352,192,43210,2,0,L|384:360,1,160,8|0,0:0|0:0,0:0:0:0:
152,348,44099,6,0,L|181:190,1,160,6|0,0:0|0:0,0:0:0:0:
205,56,44766,2,0,L|200:96,1,40
240,124,44988,2,0,P|288:116|344:128,1,80,8|0,0:0|0:0,0:0:0:0:
360,140,45321,1,0,0:0:0:0:
396,164,45432,2,0,P|404:204|388:256,1,80
360,272,45766,1,0,0:0:0:0:
320,292,45877,6,0,P|276:296|228:292,1,80,2|0,0:0|0:0,0:0:0:0:
136,272,46321,1,0,0:0:0:0:
1,317,46544,2,0,L|40:300,1,40
60,260,46766,2,0,P|72:216|64:160,1,80,8|0,0:0|0:0,0:0:0:0:
64,132,47099,1,0,0:0:0:0:
64,132,47210,2,0,P|64:88|76:48,1,80
120,28,47544,1,0,0:0:0:0:
120,28,47655,6,0,P|168:40|220:32,1,80,2|0,0:0|0:0,0:0:0:0:
300,36,48099,1,0,0:0:0:0:
443,20,48321,2,0,L|404:24,1,40
384,72,48544,2,0,L|408:156,1,80,8|0,0:0|0:0,0:0:0:0:
388,196,48877,1,0,0:0:0:0:
372,244,48988,2,0,L|396:328,1,80
348,336,49321,1,0,0:0:0:0:
300,348,49432,6,0,B|260:336|192:348,1,80,2|0,0:0|0:0,0:0:0:0:
120,348,49877,1,0,0:0:0:0:
16,280,50099,2,0,L|26:318,1,40
40,364,50321,2,0,L|72:256,1,80,8|0,0:0|0:0,0:0:0:0:
84,240,50655,1,0,0:0:0:0:
84,240,50766,2,0,L|160:176,1,80
199,157,51099,1,0,0:0:0:0:
199,157,51210,6,0,P|251:161|308:140,1,80,2|0,0:0|0:0,0:0:0:0:
368,104,51655,2,0,P|407:96|446:101,1,80
480,140,51988,1,0,0:0:0:0:
500,188,52099,2,0,L|500:276,1,80,8|0,0:0|0:0,0:0:0:0:
472,312,52432,1,0,0:0:0:0:
428,344,52544,2,0,P|392:351|348:344,1,80
316,308,52877,1,0,0:0:0:0:
283,267,52988,6,0,L|171:275,1,80,2|0,0:0|0:0,0:0:0:0:
115,328,53432,1,0,0:0:0:0:
44,240,53655,2,0,L|40:192,1,40
88,176,53877,2,0,P|132:172|192:180,1,80,8|0,0:0|0:0,0:0:0:0:
220,184,54210,1,0,0:0:0:0:
268,200,54321,2,0,L|359:189,1,80
224,332,54766,6,0,L|384:316,1,160,10|10,0:0|0:0,0:0:0:0:
476,344,55432,1,0,0:0:0:0:
436,256,55655,2,0,P|424:200|440:160,1,80,10|0,0:0|0:0,0:0:0:0:
344,100,56099,2,0,P|356:156|340:192,1,80,10|0,0:0|0:0,0:0:0:0:
276,264,56544,2,2,L|280:312,3,30.0000011444092,10|2|2|2,0:0|0:0|0:0|0:0,0:0:0:0:
168,244,56988,2,2,L|164:196,3,30.0000011444092,10|2|2|2,0:0|0:0|0:0|0:0,0:0:0:0:
83,308,57432,5,10,0:0:0:0:
59,290,57543,1,0,0:0:0:0:
39,267,57655,1,2,0:0:0:0:
24,241,57766,1,0,0:0:0:0:
15,213,57877,1,10,0:0:0:0:
11,183,57988,1,0,0:0:0:0:
13,153,58099,1,2,0:0:0:0:
21,124,58210,1,0,0:0:0:0:
40,92,58321,6,0,L|192:120,1,133.333333333333,6|0,0:0|0:0,0:0:0:0:
256,136,58766,1,2,0:0:0:0:
424,92,59062,6,0,L|418:59,2,33.3333333333333,0|0|2,0:0|0:0|0:0,0:0:0:0:
488,143,59358,1,0,0:0:0:0:
416,180,59507,1,0,0:0:0:0:
324,180,59655,5,2,0:0:0:0:
236,148,59804,1,0,0:0:0:0:
308,92,59951,1,0,0:0:0:0:
324,180,60099,6,0,L|344:276,1,66.6666666666667,2|0,0:0|0:0,0:0:0:0:
252,248,60395,2,0,L|237:345,1,66.6666666666667,0|2,0:0|0:0,0:0:0:0:
156,292,60692,2,0,L|109:378,1,66.6666666666667
52,300,60988,2,0,P|32:232|40:192,1,100,2|0,0:0|0:0,0:0:0:0:
96,56,61432,5,2,0:0:0:0:
104,160,61581,1,0,0:0:0:0:
24,116,61729,1,0,0:0:0:0:
176,108,61877,6,0,L|308:88,1,133.333333333333,2|0,0:0|0:0,0:0:0:0:
392,76,62321,1,2,0:0:0:0:
400,280,62618,6,0,L|404:332,2,33.3333333333333,0|0|2,0:0|0:0|0:0,0:0:0:0:
428,204,62914,1,0,0:0:0:0:
348,220,63062,1,0,0:0:0:0:
256,220,63210,5,2,0:0:0:0:
196,292,63358,1,0,0:0:0:0:
164,204,63507,1,0,0:0:0:0:
256,220,63655,5,2,0:0:0:0:
472,192,63951,1,0,0:0:0:0:
380,164,64099,1,2,0:0:0:0:
400,256,64247,1,0,0:0:0:0:
408,32,64544,5,2,0:0:0:0:
388,29,64618,1,0,0:0:0:0:
369,29,64692,1,0,0:0:0:0:
351,33,64766,1,0,0:0:0:0:
335,41,64840,1,0,0:0:0:0:
318,51,64914,1,0,0:0:0:0:
307,65,64988,1,2,0:0:0:0:
256,188,65136,1,0,0:0:0:0:
205,95,65284,1,0,0:0:0:0:
172,224,65432,6,0,P|200:260|300:264,1,133.333333333333,6|0,0:0|0:0,0:0:0:0:
368,244,65877,1,2,0:0:0:0:
240,128,66173,6,0,L|232:72,2,33.3333333333333,0|0|2,0:0|0:0|0:0,0:0:0:0:
292,192,66470,1,0,0:0:0:0:
212,204,66618,1,0,0:0:0:0:
120,228,66766,5,2,0:0:0:0:
196,280,66914,1,0,0:0:0:0:
108,312,67062,1,0,0:0:0:0:
212,204,67210,6,0,P|248:220|276:268,1,66.6666666666667,2|0,0:0|0:0,0:0:0:0:
136,160,67507,2,0,P|158:136|189:123,1,66.6666666666667,0|2,0:0|0:0,0:0:0:0:
144,244,67803,2,0,P|110:244|80:231,1,66.6666666666667
189,123,68099,2,0,L|289:127,1,100,2|0,0:0|0:0,0:0:0:0:
460,128,68544,5,2,0:0:0:0:
392,192,68692,1,0,0:0:0:0:
396,68,68840,1,0,0:0:0:0:
460,128,68988,6,0,P|491:185|481:250,1,133.333333333333,2|0,0:0|0:0,0:0:0:0:
412,324,69432,1,2,0:0:0:0:
180,252,69729,6,0,L|176:204,2,33.3333333333333,0|0|2,0:0|0:0|0:0,0:0:0:0:
232,312,70025,1,0,0:0:0:0:
152,324,70173,1,0,0:0:0:0:
284,252,70321,5,2,0:0:0:0:
323,339,70470,1,0,0:0:0:0:
232,312,70618,1,0,0:0:0:0:
177,218,70766,1,2,0:0:0:0:
356,352,71507,5,0,0:0:0:0:
356,352,71581,1,0,0:0:0:0:
356,352,71655,2,0,P|312:356|280:352,1,66.6666666666667
136,244,71951,2,0,P|169:242|202:246,1,66.6666666666667,0|0,0:1|0:0,0:0:0:0:
168,332,72247,1,0,0:1:0:0:
40,228,72395,1,0,0:1:0:0:
40,92,72544,6,0,B|196:88,1,133.333333333333,6|0,0:0|0:0,0:0:0:0:
268,88,72988,1,2,0:0:0:0:
456,92,73284,2,0,L|472:140,2,33.3333333333333,0|0|2,0:0|0:0|0:0,0:0:0:0:
448,12,73581,1,0,0:0:0:0:
380,56,73730,1,0,0:0:0:0:
316,100,73877,5,2,0:0:0:0:
236,52,74026,1,0,0:0:0:0:
316,4,74173,1,0,0:0:0:0:
316,100,74322,6,0,L|312:168,1,66.6666666666667,2|0,0:0|0:0,0:0:0:0:
212,236,74618,2,0,L|216:170,1,66.6666666666667,0|2,0:0|0:0,0:0:0:0:
124,92,74915,2,0,L|121:160,1,66.6666666666667
24,232,75211,2,0,L|28:100,1,100,2|0,0:0|0:0,0:0:0:0:
216,56,75655,1,2,0:0:0:0:
380,36,75803,1,0,0:0:0:0:
299,47,75952,1,0,0:0:0:0:
464,24,76100,6,0,P|508:84|496:148,1,133.333333333333,2|0,0:0|0:0,0:0:0:0:
456,220,76544,1,2,0:0:0:0:
296,312,76840,2,0,L|248:340,2,33.3333333333333,0|0|2,0:0|0:0|0:0,0:0:0:0:
376,308,77137,1,0,0:0:0:0:
332,240,77285,1,0,0:0:0:0:
240,240,77433,5,2,0:0:0:0:
172,180,77581,1,0,0:0:0:0:
260,152,77729,1,0,0:0:0:0:
240,240,77878,5,2,0:0:0:0:
384,104,78174,1,0,0:0:0:0:
308,48,78321,1,2,0:0:0:0:
396,16,78470,1,0,0:0:0:0:
168,28,78767,5,2,0:0:0:0:
176,52,78841,1,0,0:0:0:0:
184,76,78915,1,0,0:0:0:0:
192,100,78989,1,0,0:0:0:0:
200,124,79063,1,0,0:0:0:0:
208,148,79137,1,0,0:0:0:0:
216,172,79210,1,2,0:0:0:0:
268,282,79358,1,0,0:0:0:0:
167,253,79507,1,0,0:0:0:0:
332,216,79655,6,0,P|388:212|464:268,1,133.333333333333,6|0,0:0|0:0,0:0:0:0:
488,336,80099,1,2,0:0:0:0:
300,336,80395,2,0,L|252:344,2,33.3333333333333,0|0|2,0:0|0:0|0:0,0:0:0:0:
376,364,80693,1,0,0:0:0:0:
360,284,80841,1,0,0:0:0:0:
412,208,80989,5,2,0:0:0:0:
452,292,81137,1,0,0:0:0:0:
360,284,81284,1,0,0:0:0:0:
500,216,81433,6,0,P|507:177|504:144,1,66.6666666666667,2|0,0:0|0:0,0:0:0:0:
376,68,81729,2,0,P|374:101|381:133,1,66.6666666666667,0|2,0:0|0:0,0:0:0:0:
406,273,82025,2,0,P|413:234|410:201,1,66.6666666666667
282,125,82321,2,0,P|272:160|288:224,1,100,2|0,0:0|0:0,0:0:0:0:
372,368,82766,5,2,0:0:0:0:
406,273,82915,1,0,0:0:0:0:
308,296,83063,1,0,0:0:0:0:
468,344,83210,6,0,P|496:296|472:204,1,133.333333333333,6|0,0:0|0:0,0:0:0:0:
428,148,83655,1,2,0:0:0:0:
268,52,83951,2,0,L|261:19,2,33.3333333333333,0|0|2,0:0|0:0|0:0,0:0:0:0:
316,120,84247,1,0,0:0:0:0:
236,124,84395,1,0,0:0:0:0:
276,204,84544,5,2,0:0:0:0:
316,120,84692,1,0,0:0:0:0:
272,36,84840,1,0,0:0:0:0:
236,124,84988,6,0,L|152:128,2,66.6666666666667,2|0|0,0:0|0:0|0:0,0:0:0:0:
316,120,85432,1,2,0:0:0:0:
348,96,85581,1,0,0:0:0:0:
380,72,85729,1,0,0:0:0:0:
432,36,85877,5,2,0:0:0:0:
435,59,85951,1,0,0:0:0:0:
433,81,86025,1,0,0:0:0:0:
426,103,86099,1,0,0:0:0:0:
415,122,86173,1,0,0:0:0:0:
397,138,86247,1,0,0:0:0:0:
376,150,86321,5,2,0:0:0:0:
268,115,86470,1,0,0:0:0:0:
213,203,86618,1,0,0:0:0:0:
98,172,86766,5,6,0:0:0:0:
