osu file format v14

[General]
AudioFilename: audio.mp3
AudioLeadIn: 0
PreviewTime: 71210
Countdown: 0
SampleSet: Soft
StackLeniency: 0.7
Mode: 0
LetterboxInBreaks: 0
EpilepsyWarning: 1
WidescreenStoryboard: 1

[Editor]
DistanceSpacing: 1.3
BeatDivisor: 3
GridSize: 4
TimelineZoom: 1.7

[Metadata]
Title:Do!
TitleUnicode:Do!
Artist:Tolvai Reni
ArtistUnicode:Tolvai Reni
Creator:6th
Version:Hard
Source:
Tags:Cun Edit Short Megasztár Hungarian Magyar Gero Irreversible Priti
BeatmapID:915244
BeatmapSetID:423481

[Difficulty]
HPDrainRate:5
CircleSize:3.3
OverallDifficulty:6
ApproachRate:8
SliderMultiplier:1.5
SliderTickRate:1

[Events]
//Background and Video events
0,0,"bg.jpg",0,0
//Break Periods
//Storyboard Layer 0 (Background)
//Storyboard Layer 1 (Fail)
//Storyboard Layer 2 (Pass)
//Storyboard Layer 3 (Foreground)
//Storyboard Sound Samples

[TimingPoints]
1433,444.444444444444,4,2,3,70,1,0
15655,-100,4,2,2,75,0,0
16099,-100,4,2,1,75,0,0
29877,-100,4,2,2,75,0,0
30321,-100,4,2,1,75,0,0
44099,-100,4,2,2,80,0,0
58321,-80,4,1,1,100,0,1
58618,-80,4,1,1,5,0,1
58766,-80,4,1,1,100,0,1
62173,-80,4,1,1,5,0,1
62321,-80,4,1,1,100,0,1
65729,-80,4,1,1,5,0,1
65877,-80,4,1,1,100,0,1
69284,-80,4,1,1,5,0,1
69432,-80,4,1,1,100,0,1
70766,-80,4,1,1,100,0,0
71210,-80,4,3,0,70,0,0
72544,-80,4,1,1,100,0,1
72840,-80,4,1,1,5,0,1
72988,-80,4,1,1,100,0,1
76395,-80,4,1,1,5,0,1
76544,-80,4,1,1,100,0,1
79951,-80,4,1,1,5,0,1
80099,-80,4,1,1,100,0,1
83507,-80,4,1,1,5,0,1
83655,-80,4,1,1,100,0,1
86766,-80,4,1,1,100,0,0

[Colours]
Combo1 : 206,141,241
Combo2 : 107,239,250
Combo3 : 196,215,217
Combo4 : 148,148,207

[HitObjects]
50,204,1433,6,0,P|117:232|185:204,1,150,2|0,0:0|0:0,0:0:0:0:
116,133,2099,1,0,0:0:0:0:
185,204,2321,2,0,P|252:232|320:204,1,150,2|0,0:0|0:0,0:0:0:0:
251,133,2987,1,0,0:0:0:0:
185,203,3210,6,0,P|156:271|185:339,1,150,2|0,0:0|0:0,0:0:0:0:
255,272,3876,1,0,0:0:0:0:
325,339,4099,2,0,P|354:271|326:204,1,150,2|0,0:0|0:0,0:0:0:0:
255,272,4765,1,0,0:0:0:0:
326,204,4988,6,0,P|258:175|188:200,1,150,2|0,0:0|0:0,0:0:0:0:
255,272,5654,1,0,0:0:0:0:
189,198,5877,2,0,P|121:169|53:197,1,150,2|0,0:0|0:0,0:0:0:0:
120,268,6543,1,0,0:0:0:0:
189,198,6766,6,0,P|215:136|177:51,1,150,2|0,0:0|0:0,0:0:0:0:
105,10,7432,1,0,0:0:0:0:
88,107,7655,1,2,0:0:0:0:
263,23,8099,2,0,L|352:16,1,75
438,107,8544,6,0,L|438:257,1,150,2|0,0:0|0:0,0:0:0:0:
380,335,9210,1,0,0:0:0:0:
322,257,9432,2,0,L|322:107,1,150,2|0,0:0|0:0,0:0:0:0:
263,28,10099,1,0,0:0:0:0:
206,107,10321,6,0,L|206:257,1,150,2|0,0:0|0:0,0:0:0:0:
142,331,10988,1,0,0:0:0:0:
108,239,11210,1,2,0:0:0:0:
298,280,11655,2,0,L|380:280,1,75
491,239,12099,6,0,P|513:162|468:92,1,150,2|0,0:0|0:0,0:0:0:0:
414,175,12766,1,0,0:0:0:0:
346,245,12988,2,0,P|280:277|211:254,1,150,2|0,0:0|0:0,0:0:0:0:
274,179,13655,1,0,0:0:0:0:
343,110,13877,6,0,P|358:49|277:1,1,150,2|0,0:0|0:0,0:0:0:0:
204,32,14544,1,0,0:0:0:0:
112,0,14766,2,0,P|53:40|65:111,1,150,2|0,0:0|0:0,0:0:0:0:
152,152,15432,1,0,0:0:0:0:
267,136,15655,6,0,P|272:209|223:264,1,150,2|0,0:0|0:0,0:0:0:0:
188,180,16321,1,0,0:0:0:0:
272,212,16544,2,0,P|336:220|404:160,1,150,8|0,0:0|0:0,0:0:0:0:
316,132,17210,1,0,0:0:0:0:
228,140,17432,6,0,P|160:136|112:76,1,150,2|2,0:0|0:0,0:0:0:0:
200,54,18098,1,0,0:0:0:0:
228,140,18321,2,0,B|248:212|248:212|192:272,1,150,8|0,0:0|0:0,0:0:0:0:
112,108,19210,5,2,0:0:0:0:
184,56,19432,1,0,0:0:0:0:
276,56,19655,1,2,0:0:0:0:
348,108,19877,1,2,0:0:0:0:
351,211,20099,1,8,0:0:0:0:
279,263,20321,1,0,0:0:0:0:
187,263,20544,1,0,0:0:0:0:
115,211,20766,1,0,0:0:0:0:
199,189,20988,6,0,L|183:289,1,75,2|0,0:0|0:0,0:0:0:0:
291,338,21432,2,0,L|279:263,1,75,2|0,0:0|0:0,0:0:0:0:
280,172,21877,2,0,P|312:104|400:88,1,150,8|2,0:0|0:0,0:0:0:0:
371,173,22544,1,0,0:0:0:0:
224,72,22766,6,0,B|160:88|104:80|104:80|124:112,1,150,2|0,0:0|0:0,0:0:0:0:
160,184,23432,1,0,0:0:0:0:
264,164,23655,6,0,B|328:180|384:172|384:172|364:204,1,150,8|0,0:0|0:0,0:0:0:0:
325,275,24321,1,0,0:0:0:0:
220,252,24544,6,0,B|156:268|100:260|100:260|120:292,1,150,2|2,0:0|0:0,0:0:0:0:
220,336,25210,1,0,0:0:0:0:
220,336,25432,2,0,B|221:252|221:252|172:192,1,150,8|2,0:0|0:0,0:0:0:0:
253,137,26099,1,0,0:0:0:0:
309,215,26321,6,0,P|301:167|369:79,1,150,2|0,0:0|0:0,0:0:0:0:
397,175,26988,1,0,0:0:0:0:
381,271,27210,2,0,P|321:307|233:267,1,150,8|0,0:0|0:0,0:0:0:0:
309,215,27877,1,0,0:0:0:0:
397,175,28099,6,0,P|463:218|477:286,1,150,2|2,0:0|0:0,0:0:0:0:
396,339,28766,1,0,0:0:0:0:
396,339,28988,2,0,B|344:339|344:339|296:327|296:327|244:327,1,150,8|2,0:0|0:0,0:0:0:0:
150,339,29655,1,0,0:0:0:0:
36,232,29877,6,0,P|81:186|166:192,1,150,10|2,0:0|0:0,0:0:0:0:
244,240,30544,1,0,0:0:0:0:
331,276,30766,2,0,P|331:203|280:152,1,150,8|0,0:0|0:0,0:0:0:0:
184,164,31432,1,0,0:0:0:0:
88,188,31655,6,0,P|112:100|168:68,1,150,2|2,0:0|0:0,0:0:0:0:
256,88,32321,1,0,0:0:0:0:
351,109,32544,2,0,B|406:128|462:109|462:109|433:81,1,150,8|2,0:0|0:0,0:0:0:0:
400,272,33432,5,2,0:0:0:0:
432,364,33655,1,0,0:0:0:0:
340,332,33877,1,0,0:0:0:0:
300,244,34100,1,0,0:0:0:0:
264,156,34321,1,8,0:0:0:0:
212,240,34544,1,0,0:0:0:0:
108,248,34766,1,0,0:0:0:0:
152,152,34989,1,0,0:0:0:0:
212,240,35210,6,0,P|232:304|176:360,1,150,2|2,0:0|0:0,0:0:0:0:
104,180,36099,2,2,L|276:172,1,150,8|0,0:0|0:0,0:0:0:0:
304,256,36766,1,2,0:0:0:0:
322,102,36988,6,2,P|251:73|177:108,1,150
155,191,37655,1,0,0:0:0:0:
253,173,37877,2,2,P|229:225|273:309,1,150,8|0,0:0|0:0,0:0:0:0:
362,318,38544,1,2,0:0:0:0:
316,232,38766,6,2,P|384:224|448:270,1,150
362,318,39432,1,0,0:0:0:0:
316,232,39655,2,2,L|340:84,1,150,8|2,0:0|0:0,0:0:0:0:
176,180,40544,6,2,P|100:188|40:128,1,150,2|0,0:0|0:0,0:0:0:0:
131,94,41210,1,2,0:0:0:0:
176,180,41432,2,2,P|240:212|324:168,1,150,8|0,0:0|0:0,0:0:0:0:
444,44,42321,6,2,P|380:12|296:56,1,150,2|0,0:0|0:0,0:0:0:0:
260,120,42988,1,2,0:0:0:0:
260,120,43210,2,2,L|420:124,1,150,8|2,0:0|0:0,0:0:0:0:
372,316,44099,5,4,0:0:0:0:
372,316,44544,2,0,L|276:312,1,75
182,347,44988,2,0,P|132:298|122:231,1,112.5,8|0,0:0|0:0,0:0:0:0:
126,210,45432,2,0,P|107:157|64:121,1,112.5
28,96,45877,5,2,0:0:0:0:
28,96,46321,2,0,L|120:84,1,75
214,137,46766,2,0,P|274:149|334:121,1,112.5,8|0,0:0|0:0,0:0:0:0:
344,88,47210,2,0,L|360:228,1,112.5
360,248,47655,5,2,0:0:0:0:
360,248,48099,2,0,L|264:256,1,75
207,349,48544,2,0,P|151:355|102:329,1,112.5,8|0,0:0|0:0,0:0:0:0:
114,282,48988,2,0,P|163:307|218:300,1,112.5
272,296,49432,5,2,0:0:0:0:
272,296,49877,2,0,L|268:208,1,75
195,124,50321,2,0,L|322:119,1,112.5,8|0,0:0|0:0,0:0:0:0:
340,156,50766,2,0,L|452:160,1,112.5
462,208,51210,5,2,0:0:0:0:
371,244,51432,1,0,0:0:0:0:
279,208,51655,1,2,0:0:0:0:
190,240,51877,1,0,0:0:0:0:
92,200,52099,2,0,L|84:292,1,75,8|0,0:0|0:0,0:0:0:0:
0,324,52544,2,0,L|5:245,1,75
124,208,52988,5,2,0:0:0:0:
217,235,53210,1,0,0:0:0:0:
301,184,53432,1,0,0:0:0:0:
400,208,53655,1,0,0:0:0:0:
400,208,53877,2,0,P|416:168|408:120,1,75,8|0,0:0|0:0,0:0:0:0:
360,56,54321,2,0,L|276:48,1,75
320,160,54766,6,10,P|308:196|192:236,1,150
132,188,55432,1,0,0:0:0:0:
221,148,55655,1,10,0:0:0:0:
344,304,56099,1,10,0:0:0:0:
276,56,56544,6,0,L|212:48,3,37.5,8|0|2|0,0:0|0:0|0:0|0:0,0:0:0:0:
220,96,56988,2,0,L|156:88,3,37.5,8|0|2|0,0:0|0:0|0:0|0:0,0:0:0:0:
148,124,57432,2,0,L|84:116,3,37.5,8|0|2|0,0:0|0:0|0:0|0:0,0:0:0:0:
92,164,57876,2,0,L|28:156,3,37.5,8|0|2|0,0:0|0:0|0:0|0:0,0:0:0:0:
56,200,58321,6,0,L|196:200,1,125,6|0,0:0|0:0,0:0:0:0:
264,200,58766,1,2,0:0:0:0:
400,288,59062,1,0,0:0:0:0:
400,288,59136,1,0,0:0:0:0:
400,288,59210,6,0,P|428:244|436:212,1,62.5,2|0,0:0|0:0,0:0:0:0:
352,196,59507,1,0,0:0:0:0:
252,306,59655,2,0,P|285:312|321:306,1,62.5,2|0,0:0|0:0,0:0:0:0:
400,288,59951,1,0,0:0:0:0:
352,196,60099,6,0,L|356:62,1,125,2|0,0:0|0:0,0:0:0:0:
284,30,60544,1,2,0:0:0:0:
251,104,60692,2,0,L|254:228,1,125,0|2,0:0|0:0,0:0:0:0:
362,285,61210,1,0,0:0:0:0:
472,188,61432,6,0,L|480:96,1,62.5,2|0,0:0|0:0,0:0:0:0:
398,87,61729,1,0,0:0:0:0:
350,161,61877,6,0,L|364:296,1,125,2|0,0:0|0:0,0:0:0:0:
372,372,62321,1,2,0:0:0:0:
200,340,62618,1,0,0:0:0:0:
200,340,62692,1,0,0:0:0:0:
200,340,62766,6,0,L|116:324,1,62.5,2|0,0:0|0:0,0:0:0:0:
76,268,63062,1,0,0:0:0:0:
224,256,63210,2,0,L|140:240,1,62.5,2|0,0:0|0:0,0:0:0:0:
100,184,63506,1,0,0:0:0:0:
248,168,63655,6,0,L|384:152,1,125,2|0,0:0|0:0,0:0:0:0:
424,92,64099,1,2,0:0:0:0:
344,76,64247,1,0,0:0:0:0:
116,92,64544,6,0,L|96:52,4,31.25,2|0|0|0|0,0:0|0:0|0:0|0:0|0:0,0:0:0:0:
48,152,64988,5,2,0:0:0:0:
36,240,65136,1,0,0:0:0:0:
28,332,65284,1,0,0:0:0:0:
28,332,65432,6,0,P|92:320|172:336,1,125,2|0,0:0|0:0,0:0:0:0:
236,356,65877,1,2,0:0:0:0:
396,288,66173,1,0,0:0:0:0:
396,288,66247,1,0,0:0:0:0:
396,288,66321,6,0,L|401:213,1,62.5,2|0,0:0|0:0,0:0:0:0:
316,260,66618,1,0,0:0:0:0:
189,229,66766,2,0,L|194:292,1,62.5,2|0,0:0|0:0,0:0:0:0:
279,260,67062,1,0,0:0:0:0:
396,288,67210,6,0,L|404:144,1,125,2|0,0:0|0:0,0:0:0:0:
342,107,67655,1,2,0:0:0:0:
285,49,67803,2,0,L|291:173,1,125,0|2,0:0|0:0,0:0:0:0:
211,265,68321,1,0,0:0:0:0:
96,152,68544,6,0,L|84:232,1,62.5,2|0,0:0|0:0,0:0:0:0:
87,302,68840,1,0,0:0:0:0:
168,344,68988,6,0,P|232:356|300:344,1,125,2|0,0:0|0:0,0:0:0:0:
372,316,69432,1,2,0:0:0:0:
484,180,69729,1,0,0:0:0:0:
484,180,69803,1,0,0:0:0:0:
484,180,69877,6,0,L|386:175,1,62.5,2|0,0:0|0:0,0:0:0:0:
344,135,70173,1,0,0:0:0:0:
447,37,70321,2,0,L|452:135,1,62.5,2|0,0:0|0:0,0:0:0:0:
484,180,70617,1,0,0:0:0:0:
344,135,70766,1,2,0:0:0:0:
92,132,71507,5,0,0:0:0:0:
92,132,71581,1,0,0:0:0:0:
92,132,71655,2,0,L|84:196,1,62.5
200,148,71951,2,0,L|192:84,1,62.5,0|0,0:1|0:0,0:0:0:0:
285,85,72247,1,0,0:1:0:0:
378,82,72395,1,0,0:1:0:0:
427,194,72544,6,0,L|408:324,1,125,6|0,0:0|0:0,0:0:0:0:
328,352,72988,1,2,0:0:0:0:
152,336,73284,1,0,0:0:0:0:
152,336,73358,1,0,0:0:0:0:
152,336,73432,6,0,L|104:280,1,62.5,2|0,0:0|0:0,0:0:0:0:
120,200,73729,1,0,0:0:0:0:
244,202,73877,2,0,L|203:249,1,62.5,2|0,0:0|0:0,0:0:0:0:
111,288,74173,1,0,0:0:0:0:
32,196,74321,6,0,P|52:144|132:116,1,125,2|0,0:0|0:0,0:0:0:0:
192,132,74766,1,2,0:0:0:0:
264,92,74914,2,0,L|412:104,1,125,0|2,0:0|0:0,0:0:0:0:
336,214,75432,1,0,0:0:0:0:
448,328,75655,6,0,L|376:343,1,62.5,2|0,0:0|0:0,0:0:0:0:
319,294,75951,1,0,0:0:0:0:
336,214,76099,6,0,L|380:78,1,125,2|0,0:0|0:0,0:0:0:0:
417,25,76544,1,2,0:0:0:0:
236,20,76840,1,0,0:0:0:0:
236,20,76914,1,0,0:0:0:0:
236,20,76988,6,0,P|228:60|236:92,1,62.5,2|0,0:0|0:0,0:0:0:0:
266,165,77284,1,0,0:0:0:0:
411,195,77432,2,0,P|371:203|339:195,1,62.5,2|0,0:0|0:0,0:0:0:0:
266,165,77728,1,0,0:0:0:0:
244,264,77877,6,0,P|185:245|126:263,1,125,2|0,0:0|0:0,0:0:0:0:
60,312,78321,1,2,0:0:0:0:
136,344,78470,1,0,0:0:0:0:
388,340,78766,6,0,L|436:364,4,31.25,2|0|0|0|0,0:0|0:0|0:0|0:0|0:0,0:0:0:0:
324,288,79210,5,2,0:0:0:0:
268,228,79358,1,0,0:0:0:0:
288,148,79507,1,0,0:0:0:0:
352,96,79655,6,0,L|227:103,1,125,6|0,0:0|0:0,0:0:0:0:
148,108,80099,1,2,0:0:0:0:
44,232,80395,1,0,0:0:0:0:
44,232,80470,1,0,0:0:0:0:
44,232,80544,6,0,L|52:304,1,62.5,2|0,0:0|0:0,0:0:0:0:
176,364,80840,1,0,0:0:0:0:
124,228,80988,2,0,L|132:300,1,62.5,2|0,0:0|0:0,0:0:0:0:
260,360,81284,1,0,0:0:0:0:
204,220,81432,6,0,B|231:296|324:281,1,125,2|0,0:0|0:0,0:0:0:0:
362,230,81877,1,2,0:0:0:0:
291,189,82025,6,0,B|153:184,1,125,0|2,0:0|0:0,0:0:0:0:
43,184,82544,1,0,0:0:0:0:
170,88,82766,6,0,L|238:90,1,62.5,2|0,0:0|0:0,0:0:0:0:
303,50,83062,1,0,0:0:0:0:
324,152,83210,6,0,P|368:188|448:172,1,125,6|0,0:0|0:0,0:0:0:0:
396,108,83655,1,2,0:0:0:0:
236,112,83951,1,0,0:0:0:0:
236,112,84025,1,0,0:0:0:0:
236,112,84099,6,0,L|144:108,1,62.5,2|0,0:0|0:0,0:0:0:0:
92,108,84395,1,0,0:0:0:0:
1,196,84544,2,0,L|93:192,1,62.5,2|0,0:0|0:0,0:0:0:0:
145,192,84840,1,0,0:0:0:0:
236,112,84988,6,0,P|294:124|320:195,1,125,2|0,0:0|0:0,0:0:0:0:
271,243,85432,2,0,L|196:244,1,62.5,2|0,0:0|0:0,0:0:0:0:
145,192,85729,1,0,0:0:0:0:
92,254,85877,6,0,L|56:292,4,31.25,2|0|0|0|0,0:0|0:0|0:0|0:0|0:0,0:0:0:0:
145,192,86321,1,2,0:0:0:0:
200,130,86470,1,0,0:0:0:0:
268,174,86618,1,0,0:0:0:0:
221,268,86767,5,6,0:0:0:0:
