osu file format v14

[General]
AudioFilename: audio.mp3
AudioLeadIn: 0
PreviewTime: 71210
Countdown: 0
SampleSet: Normal
StackLeniency: 0.7
Mode: 0
LetterboxInBreaks: 0
EpilepsyWarning: 1
WidescreenStoryboard: 1

[Editor]
DistanceSpacing: 1.5
BeatDivisor: 3
GridSize: 4
TimelineZoom: 1.3

[Metadata]
Title:Do!
TitleUnicode:Do!
Artist:Tolvai Reni
ArtistUnicode:Tolvai Reni
Creator:6th
Version:Advanced
Source:
Tags:Cun Edit Short Megasztár Hungarian Magyar Gero Irreversible Priti
BeatmapID:915120
BeatmapSetID:423481

[Difficulty]
HPDrainRate:4.5
CircleSize:3.3
OverallDifficulty:5
ApproachRate:6.5
SliderMultiplier:1.4
SliderTickRate:1

[Events]
//Background and Video events
0,0,"bg.jpg",0,0
//Break Periods
//Storyboard Layer 0 (Background)
//Storyboard Layer 1 (Fail)
//Storyboard Layer 2 (Pass)
//Storyboard Layer 3 (Foreground)
//Storyboard Sound Samples

[TimingPoints]
1433,444.444444444444,4,2,3,60,1,0
15655,-100,4,2,2,75,0,0
16099,-100,4,2,1,75,0,0
29877,-100,4,2,2,75,0,0
30321,-100,4,2,1,75,0,0
44099,-100,4,2,2,80,0,0
58321,-80,4,1,1,100,0,1
58618,-80,4,1,1,5,0,1
58766,-80,4,1,1,100,0,1
62173,-80,4,1,1,5,0,1
62321,-80,4,1,1,100,0,1
65729,-80,4,1,1,5,0,1
65877,-80,4,1,1,100,0,1
69284,-80,4,1,1,5,0,1
69432,-80,4,1,1,100,0,1
70766,-80,4,1,1,100,0,0
71210,-80,4,3,0,70,0,0
72544,-80,4,1,1,100,0,1
72840,-80,4,1,1,5,0,1
72988,-80,4,1,1,100,0,1
76395,-80,4,1,1,5,0,1
76544,-80,4,1,1,100,0,1
79951,-80,4,1,1,5,0,1
80099,-80,4,1,1,100,0,1
83507,-80,4,1,1,5,0,1
83655,-80,4,1,1,100,0,1
86766,-80,4,1,1,100,0,0

[Colours]
Combo1 : 206,141,241
Combo2 : 107,239,250
Combo3 : 196,215,217
Combo4 : 148,148,207

[HitObjects]
53,272,1433,6,0,P|121:285|189:274,1,140,2|0,0:0|0:0,0:0:0:0:
258,238,2099,1,0,0:0:0:0:
327,271,2321,2,0,P|395:282|463:268,1,140,2|0,0:0|0:0,0:0:0:0:
463,114,3210,6,0,P|394:100|326:111,1,140,2|0,0:0|0:0,0:0:0:0:
257,145,3876,1,0,0:0:0:0:
189,109,4099,2,0,P|120:97|52:111,1,140,2|0,0:0|0:0,0:0:0:0:
51,265,4988,6,0,L|198:281,1,140,2|0,0:0|0:0,0:0:0:0:
255,320,5655,1,0,0:0:0:0:
320,280,5877,2,0,L|459:264,1,140,2|0,0:0|0:0,0:0:0:0:
458,110,6766,6,0,L|318:94,1,140,2|0,0:0|0:0,0:0:0:0:
254,55,7432,1,0,0:0:0:0:
189,95,7655,2,0,L|49:110,1,140,2|0,0:0|0:0,0:0:0:0:
143,232,8544,5,2,0:0:0:0:
79,372,8988,2,0,L|163:365,1,70
216,328,9432,2,0,P|284:315|353:327,1,140,2|0,0:0|0:0,0:0:0:0:
506,300,10321,5,2,0:0:0:0:
468,150,10766,2,0,L|471:74,1,70
497,8,11210,2,0,P|439:45|361:47,1,140,2|0,0:0|0:0,0:0:0:0:
215,43,12099,6,0,P|145:46|87:83,1,140,2|0,0:0|0:0,0:0:0:0:
66,157,12766,1,0,0:0:0:0:
87,231,12988,2,0,P|145:268|214:271,1,140,2|0,0:0|0:0,0:0:0:0:
290,260,13655,1,0,0:0:0:0:
364,240,13877,6,0,P|316:188|241:200,1,140,2|0,0:0|0:0,0:0:0:0:
290,260,14544,1,0,0:0:0:0:
249,325,14766,2,0,B|100:326,1,140,2|0,0:0|0:0,0:0:0:0:
52,272,15432,1,0,0:0:0:0:
12,204,15655,6,0,P|84:220|168:200,1,140,6|0,0:0|0:0,0:0:0:0:
224,176,16321,1,0,0:0:0:0:
300,144,16544,2,0,P|368:132|436:148,1,140,8|0,0:0|0:0,0:0:0:0:
480,220,17210,1,0,0:0:0:0:
436,292,17432,6,0,P|367:303|299:287,1,140,2|0,0:0|0:0,0:0:0:0:
219,261,18099,1,0,0:0:0:0:
164,324,18321,2,0,L|152:156,1,140,8|0,0:0|0:0,0:0:0:0:
300,104,19210,6,0,P|356:104|396:120,1,70,2|0,0:0|0:0,0:0:0:0:
418,176,19655,2,0,P|406:208|370:240,1,70,2|2,0:0|0:0,0:0:0:0:
297,234,20099,2,0,P|272:209|260:176,1,70,8|0,0:0|0:0,0:0:0:0:
215,104,20544,1,0,0:0:0:0:
137,72,20766,1,0,0:0:0:0:
52,80,20988,6,2,B|35:124|35:124|44:168|44:168|28:224,2,140,2|2|8,0:0|0:0|0:0,0:0:0:0:
192,172,22321,1,2,0:0:0:0:
192,172,22766,6,0,P|264:184|312:132,1,140,2|0,0:0|0:0,0:0:0:0:
328,60,23432,1,0,0:0:0:0:
392,116,23655,2,0,B|420:180|420:180|368:260,1,140,8|0,0:0|0:0,0:0:0:0:
420,320,24321,1,0,0:0:0:0:
420,320,24544,6,2,B|400:352|360:352|360:352|280:332,1,140
216,304,25210,1,0,0:0:0:0:
140,268,25432,1,8,0:0:0:0:
80,112,25877,1,0,0:0:0:0:
80,112,26321,6,2,L|228:104,1,140
304,96,26988,1,0,0:0:0:0:
276,176,27210,2,0,L|424:168,1,140,8|0,0:0|0:0,0:0:0:0:
476,108,27877,1,0,0:0:0:0:
476,108,28099,6,2,P|500:164|444:248,2,140,2|2|8,0:0|0:0|0:0,0:0:0:0:
308,100,29432,1,2,0:0:0:0:
228,128,29655,1,2,0:0:0:0:
152,164,29877,6,0,L|8:180,1,140,6|0,0:0|0:0,0:0:0:0:
48,256,30544,1,0,0:0:0:0:
132,268,30766,2,0,L|276:284,1,140,8|0,0:0|0:0,0:0:0:0:
356,292,31432,1,0,0:0:0:0:
420,348,31655,6,2,B|428:204,1,140
372,152,32321,1,0,0:0:0:0:
372,152,32544,2,0,P|280:160|260:196,1,140,8|0,0:0|0:0,0:0:0:0:
244,276,33210,1,0,0:0:0:0:
168,244,33432,6,0,B|80:208,1,70,2|0,0:0|0:0,0:0:0:0:
152,148,33877,2,0,L|80:120,1,70,2|0,0:0|0:0,0:0:0:0:
40,52,34321,1,8,0:0:0:0:
124,36,34544,1,0,0:0:0:0:
208,36,34766,1,0,0:0:0:0:
292,52,34989,1,0,0:0:0:0:
336,124,35210,6,2,P|368:140|484:120,2,140,2|2|8,0:0|0:0|0:0,0:0:0:0:
200,28,36544,1,2,0:0:0:0:
200,28,36988,6,0,L|176:184,1,140,2|0,0:0|0:0,0:0:0:0:
262,152,37655,1,0,0:0:0:0:
344,140,37877,2,0,L|368:296,1,140,8|0,0:0|0:0,0:0:0:0:
283,260,38544,1,0,0:0:0:0:
204,232,38766,6,0,L|180:388,2,140,2|2|8,0:0|0:0|0:0,0:0:0:0:
284,84,40099,1,2,0:0:0:0:
284,84,40544,6,0,B|320:100|352:88|352:88|396:72|432:88,1,140,2|0,0:0|0:0,0:0:0:0:
392,164,41210,1,0,0:0:0:0:
432,240,41432,2,0,B|396:256|364:244|364:244|320:228|284:244,1,140,8|0,0:0|0:0,0:0:0:0:
188,112,42321,6,0,B|163:100|119:116|119:116|87:128|51:112,2,140,2|0|8,0:0|0:0|0:0,0:0:0:0:
320,216,43655,2,0,L|312:292,1,70
388,324,44099,6,0,L|404:164,1,140,6|0,0:0|0:0,0:0:0:0:
336,132,44766,1,0,0:0:0:0:
260,96,44988,2,0,L|160:96,1,70,8|0,0:0|0:0,0:0:0:0:
108,112,45432,1,0,0:0:0:0:
32,264,45877,6,0,P|64:284|168:268,1,140,2|0,0:0|0:0,0:0:0:0:
224,216,46544,1,0,0:0:0:0:
288,160,46766,2,0,P|324:132|364:112,1,70,8|0,0:0|0:0,0:0:0:0:
424,92,47210,1,0,0:0:0:0:
340,236,47655,6,0,L|180:280,1,140,2|0,0:0|0:0,0:0:0:0:
124,300,48321,1,0,0:0:0:0:
144,216,48544,2,0,P|104:184|56:172,1,70,8|0,0:0|0:0,0:0:0:0:
4,156,48988,1,0,0:0:0:0:
168,124,49432,6,0,P|232:116|316:128,1,140
376,172,50099,1,0,0:0:0:0:
440,120,50321,2,0,P|484:144|516:148,1,70,8|0,0:0|0:0,0:0:0:0:
504,64,50766,1,0,0:0:0:0:
376,172,51210,6,0,P|308:188|220:156,1,140,2|0,0:0|0:0,0:0:0:0:
216,92,51877,1,0,0:0:0:0:
216,92,52099,2,0,P|168:132|176:220,1,140,8|0,0:0|0:0,0:0:0:0:
244,356,52988,6,0,B|308:352|308:352|384:360,1,140,2|0,0:0|0:0,0:0:0:0:
468,360,53655,1,0,0:0:0:0:
468,360,53877,2,0,P|453:294|488:232,1,140,8|0,0:0|0:0,0:0:0:0:
376,108,54766,6,10,P|304:68|232:88,1,140
188,132,55432,1,0,0:0:0:0:
188,132,55655,2,10,B|188:200|188:200|204:292,1,140
56,176,56544,6,0,L|12:188,3,35,10|0|2|0,0:0|0:0|0:0|0:0,0:0:0:0:
36,144,56988,2,0,L|2:134,3,35,10|0|2|0,0:0|0:0|0:0|0:0,0:0:0:0:
28,100,57432,2,0,L|-9:74,3,35,10|0|2|0,0:0|0:0|0:0|0:0,0:0:0:0:
32,56,57876,2,0,L|17:24,3,35,10|0|2|0,0:0|0:0|0:0|0:0,0:0:0:0:
68,40,58321,6,0,P|124:24|192:48,1,116.666666666667,6|0,0:0|0:0,0:0:0:0:
240,89,58766,2,0,P|295:103|351:87,1,116.666666666667,2|0,0:0|0:0,0:0:0:0:
425,59,59210,2,0,L|433:-1,2,58.3333333333333,2|0|0,0:0|0:0|0:0,0:0:0:0:
502,77,59655,2,0,L|510:17,2,58.3333333333333,2|0|0,0:0|0:0|0:0,0:0:0:0:
448,136,60099,6,0,P|383:146|320:132,1,116.666666666667,2|0,0:0|0:0,0:0:0:0:
257,116,60544,2,0,L|181:120,1,58.3333333333333,2|0,0:0|0:0,0:0:0:0:
44,147,60988,2,0,L|80:251,1,87.5,2|0,0:0|0:0,0:0:0:0:
23,336,61432,2,0,B|-1:272,2,58.3333333333333,2|0|0,0:0|0:0|0:0,0:0:0:0:
100,352,61877,6,0,B|172:352|172:352|236:336,1,116.666666666667,2|0,0:0|0:0,0:0:0:0:
296,341,62321,2,0,B|340:352|340:352|412:352,1,116.666666666667,2|0,0:0|0:0,0:0:0:0:
436,276,62766,2,0,L|456:208,2,58.3333333333333,2|0|0,0:0|0:0|0:0,0:0:0:0:
356,272,63210,2,0,L|336:204,2,58.3333333333333,2|0|0,0:0|0:0|0:0,0:0:0:0:
276,276,63655,6,0,P|212:268|140:280,1,116.666666666667,2|0,0:0|0:0,0:0:0:0:
88,308,64099,2,0,P|56:312|20:308,1,58.3333333333333,2|0,0:0|0:0,0:0:0:0:
60,156,64544,1,2,0:0:0:0:
129,119,64692,1,0,0:0:0:0:
207,119,64840,1,0,0:0:0:0:
276,156,64988,2,0,L|356:156,2,58.3333333333333,2|0|0,0:0|0:0|0:0,0:0:0:0:
209,198,65432,6,0,P|174:246|197:314,1,116.666666666667,6|0,0:0|0:0,0:0:0:0:
246,347,65877,2,0,P|321:333|367:346,1,116.666666666667,2|0,0:0|0:0,0:0:0:0:
432,312,66321,2,0,L|495:329,2,58.3333333333333,2|0|0,0:0|0:0|0:0,0:0:0:0:
434,232,66766,2,0,L|497:249,2,58.3333333333333,2|0|0,0:0|0:0|0:0,0:0:0:0:
432,153,67210,6,0,L|431:25,1,116.666666666667,2|0,0:0|0:0,0:0:0:0:
360,4,67655,2,0,L|289:6,1,58.3333333333333,2|0,0:0|0:0,0:0:0:0:
188,112,68099,2,0,L|296:108,1,87.5,2|0,0:0|0:0,0:0:0:0:
392,84,68544,2,0,L|464:80,2,58.3333333333333,2|0|0,0:0|0:0|0:0,0:0:0:0:
348,148,68988,6,0,P|341:213|392:262,1,116.666666666667,2|0,0:0|0:0,0:0:0:0:
417,315,69432,2,0,P|449:267|440:211,1,116.666666666667,2|0,0:0|0:0,0:0:0:0:
424,133,69877,2,0,L|387:75,2,58.3333333333333,2|0|0,0:0|0:0|0:0,0:0:0:0:
366,185,70321,2,0,L|329:127,2,58.3333333333333,2|0|0,0:0|0:0|0:0,0:0:0:0:
308,238,70766,1,2,0:0:0:0:
240,120,71507,5,0,0:0:0:0:
240,120,71655,2,0,L|238:183,1,58.3333333333333
285,245,71951,2,0,P|225:234|166:247,1,116.666666666667,0|0,0:1|0:1,0:1:0:0:
101,282,72395,1,0,0:1:0:0:
106,202,72544,6,0,L|111:79,1,116.666666666667,6|0,0:0|0:0,0:0:0:0:
32,74,72988,2,0,L|27:190,1,116.666666666667,2|0,0:0|0:0,0:0:0:0:
56,263,73432,2,0,L|52:329,2,58.3333333333333,2|0|0,0:0|0:0|0:0,0:0:0:0:
106,202,73877,2,0,L|110:136,2,58.3333333333333,2|0|0,0:0|0:0|0:0,0:0:0:0:
135,274,74321,6,0,P|185:284|253:270,1,116.666666666667,2|0,0:0|0:0,0:0:0:0:
318,234,74766,2,0,P|348:231|397:239,1,58.3333333333333,2|0,0:0|0:0,0:0:0:0:
476,112,75210,2,0,L|368:108,1,87.5,2|0,0:0|0:0,0:0:0:0:
293,37,75655,2,0,L|373:37,2,58.3333333333333,2|0|0,0:0|0:0|0:0,0:0:0:0:
257,107,76099,6,0,P|199:95|131:115,1,116.666666666667,2|0,0:0|0:0,0:0:0:0:
67,88,76544,2,0,B|56:127|83:159|83:159|72:184|49:218,1,116.666666666667,2|0,0:0|0:0,0:0:0:0:
26,264,76988,2,0,L|-18:335,2,58.3333333333333,2|0|0,0:0|0:0|0:0,0:0:0:0:
104,263,77432,2,0,L|148:334,2,58.3333333333333,2|0|0,0:0|0:0|0:0,0:0:0:0:
63,195,77877,6,0,P|46:140|66:74,1,116.666666666667,2|0,0:0|0:0,0:0:0:0:
122,36,78321,2,0,L|188:34,1,58.3333333333333,2|0,0:0|0:0,0:0:0:0:
338,31,78766,1,2,0:0:0:0:
367,103,78914,1,0,0:0:0:0:
338,176,79062,1,0,0:0:0:0:
367,248,79210,2,0,L|432:253,2,58.3333333333333,2|0|0,0:0|0:0|0:0,0:0:0:0:
293,276,79655,6,0,P|231:288|157:265,1,116.666666666667,6|0,0:0|0:0,0:0:0:0:
175,198,80099,2,0,P|237:186|311:209,1,116.666666666667,2|0,0:0|0:0,0:0:0:0:
357,158,80544,2,0,L|420:160,2,58.3333333333333,2|0|0,0:0|0:0|0:0,0:0:0:0:
297,106,80988,2,0,L|231:106,2,58.3333333333333,2|0|0,0:0|0:0|0:0,0:0:0:0:
324,31,81432,6,0,L|186:31,1,116.666666666667,2|0,0:0|0:0,0:0:0:0:
129,16,81877,2,0,L|60:16,1,58.3333333333333,2|0,0:0|0:0,0:0:0:0:
56,172,82321,2,0,L|142:172,1,87.5,2|0,0:0|0:0,0:0:0:0:
256,180,82766,2,0,L|308:228,2,58.3333333333333,2|0|0,0:0|0:0|0:0,0:0:0:0:
204,124,83210,6,0,P|242:121|294:57,1,116.666666666667,6|0,0:0|0:0,0:0:0:0:
240,5,83655,2,0,P|202:8|150:72,1,116.666666666667,2|0,0:0|0:0,0:0:0:0:
125,138,84099,2,0,L|57:114,2,58.3333333333333,2|0|0,0:0|0:0|0:0,0:0:0:0:
204,124,84544,2,0,L|272:100,2,58.3333333333333,2|0|0,0:0|0:0|0:0,0:0:0:0:
176,197,84988,6,0,L|168:325,1,116.666666666667,2|0,0:0|0:0,0:0:0:0:
220,372,85432,1,2,0:0:0:0:
288,232,85729,1,0,0:0:0:0:
288,231,85877,2,0,P|343:216|398:231,1,116.666666666667,2|0,0:0|0:0,0:0:0:0:
467,281,86321,5,2,0:0:0:0:
473,193,86470,1,0,0:0:0:0:
478,105,86618,1,0,0:0:0:0:
480,17,86766,1,6,0:0:0:0:
