osu file format v14

[General]
AudioFilename: Tokyo Mew Mew- Koi wa a la Mode [TV-size].mp3
AudioLeadIn: 2000
PreviewTime: 49975
Countdown: 0
SampleSet: Soft
StackLeniency: 0.7
Mode: 0
LetterboxInBreaks: 0
WidescreenStoryboard: 0

[Editor]
DistanceSpacing: 1
BeatDivisor: 4
GridSize: 4
TimelineZoom: 1.6

[Metadata]
Title:Koi wa a la Mode
TitleUnicode:恋はア・ラ・モード
Artist:Tokyo Mew Mew
ArtistUnicode:東京ミュウミュウ
Creator:-Nya-
Version:Hard
Source:東京ミュウミュウ
Tags:Tokyo Myu mew ending Ichigo momomiya mint aizawa Lettuce Midorikawa Pudding Fong Zakuro Fujiwara Yumi Kakazu Kumi Sakuma Hisayo Mochizuki Junko Noda
BeatmapID:554080
BeatmapSetID:239679

[Difficulty]
HPDrainRate:6
CircleSize:4
OverallDifficulty:6
ApproachRate:7
SliderMultiplier:1.5
SliderTickRate:1

[Events]
//Background and Video events
0,0,"Mew.jpg",0,0
Video,445,"Ending.avi"
//Break Periods
//Storyboard Layer 0 (Background)
//Storyboard Layer 1 (Fail)
//Storyboard Layer 2 (Pass)
//Storyboard Layer 3 (Foreground)
//Storyboard Sound Samples

[TimingPoints]
475,375,6,2,2,40,1,0
2725,375,4,2,2,40,1,0
5725,375,4,2,2,40,1,0
49225,-100,4,2,2,25,0,0
49975,375,4,2,2,60,1,1
61975,-100,4,2,2,60,0,0
67225,-100,4,2,2,60,0,1
79225,-100,4,2,2,60,0,0

[Colours]
Combo1 : 187,119,255
Combo2 : 255,140,255
Combo3 : 53,154,255
Combo4 : 130,255,130
Combo5 : 255,255,132
SliderBorder : 255,255,255

[HitObjects]
256,64,475,6,0,P|320:76|348:104,1,75,4|0,0:2|0:0,0:0:0:0:
328,156,850,2,0,P|292:172|252:175,1,75,0|0,0:0|0:0,0:0:0:0:
204,120,1225,1,0,0:0:0:0:
48,88,1600,5,2,0:0:0:0:
116,132,1787,1,0,0:0:0:0:
48,168,1975,2,0,L|20:248,1,75,2|0,0:0|0:0,0:0:0:0:
8,312,2350,1,2,0:0:0:0:
8,312,2537,1,0,0:0:0:0:
80,336,2725,5,4,0:2:0:0:
148,304,2912,1,0,0:0:0:0:
224,312,3100,2,0,P|220:272|168:236,1,75,0|0,0:0|0:0,0:0:0:0:
136,204,3475,2,0,L|184:136,1,75,2|0,0:0|0:0,0:0:0:0:
220,80,3850,1,2,0:0:0:0:
220,80,4037,1,0,0:0:0:0:
300,64,4225,6,0,L|280:136,1,75,4|0,0:2|0:0,0:0:0:0:
376,80,4600,2,0,L|356:152,1,75,4|0,0:2|0:0,0:0:0:0:
324,220,4975,1,4,0:2:0:0:
264,268,5162,1,0,0:0:0:0:
208,316,5350,2,0,P|192:284|196:240,1,75,4|0,0:2|0:0,0:0:0:0:
136,108,5725,6,0,P|104:152|12:180,2,150,4|0|2,0:2|0:0|0:0,0:0:0:0:
204,76,6662,1,0,0:0:0:0:
272,108,6850,2,0,P|304:152|396:180,1,150,0|2,0:0|0:0,0:0:0:0:
468,172,7412,1,0,0:0:0:0:
448,244,7600,2,0,P|428:280|448:384,1,150,0|2,0:0|0:2,0:0:0:0:
364,380,8162,1,0,0:0:0:0:
280,380,8350,2,0,P|300:320|288:272,1,112.5,0|0,0:0|0:0,0:0:0:0:
276,236,8725,2,0,L|312:156,1,75,4|0,0:2|0:2,0:2:0:0:
208,120,9100,6,0,L|136:88,1,75,0|0,0:0|0:0,0:0:0:0:
208,204,9475,2,0,L|120:204,1,75,2|0,0:0|0:0,0:0:0:0:
208,288,9850,2,0,L|136:320,1,75,0|0,0:0|0:0,0:0:0:0:
44,344,10225,2,0,B|32:300|60:260|60:260|60:176,1,150,2|0,0:0|0:0,0:0:0:0:
84,128,10787,2,0,P|120:128|160:164,1,75,2|0,0:0|0:0,0:0:0:0:
208,204,11162,2,0,L|256:204,2,37.5
172,268,11537,1,0,0:0:0:0:
212,332,11724,1,4,0:2:0:0:
412,92,12287,5,0,0:0:0:0:
412,92,12475,1,2,0:0:0:0:
412,92,12662,2,0,P|392:144|408:240,1,150,0|0,0:0|0:0,0:0:0:0:
404,312,13225,2,0,P|336:296|236:332,1,150,2|2,0:2|0:0,0:0:0:0:
192,352,13787,1,0,0:0:0:0:
140,296,13975,2,0,P|120:268|116:220,1,75,2|0,0:0|0:0,0:0:0:0:
112,152,14350,2,0,P|140:132|188:128,1,75,2|0,0:0|0:0,0:0:0:0:
256,132,14725,6,0,P|296:144|420:116,2,150,2|0|2,0:2|0:0|0:0,0:0:0:0:
228,200,15662,1,0,0:0:0:0:
228,276,15850,1,0,0:0:0:0:
268,340,16037,1,0,0:0:0:0:
268,340,16225,2,0,P|308:328|432:356,2,150,2|0|2,0:2|0:0|0:0,0:0:0:0:
192,348,17162,1,2,0:1:0:0:
120,324,17350,2,0,L|96:248,1,75,2|2,0:2|0:1,0:0:0:0:
72,180,17725,1,2,0:0:0:0:
260,68,18287,5,0,0:0:0:0:
260,68,18475,1,0,0:0:0:0:
332,44,18662,2,0,P|368:56|405:98,1,75,2|0,0:0|0:0,0:0:0:0:
416,152,19037,2,0,P|332:212|208:192,1,225,2|2,0:0|0:0,0:0:0:0:
304,136,19787,1,0,0:0:0:0:
304,136,19975,2,0,L|344:288,1,150,0|0,0:0|0:0,0:0:0:0:
116,320,20725,6,0,P|76:304|60:272,1,75,2|0,0:2|0:0,0:0:0:0:
128,248,21100,2,0,P|154:213|188:206,1,75,2|0,0:2|0:0,0:0:0:0:
200,280,21475,2,0,P|226:314|224:350,2,75,2|0|0,0:2|0:0|0:0,0:0:0:0:
400,76,22225,5,2,0:2:0:0:
400,76,22412,1,2,0:0:0:0:
400,76,22600,2,0,P|436:88|484:128,1,75,0|0,0:0|0:0,0:0:0:0:
432,176,22975,2,0,P|361:141|289:145,1,150,2|2,0:1|0:1,0:0:0:0:
288,220,23537,1,0,0:0:0:0:
224,179,23725,1,4,0:2:0:0:
72,88,24287,5,0,0:0:0:0:
72,88,24475,1,0,0:0:0:0:
72,88,24662,2,0,P|120:104|228:84,2,150,0|0|2,0:0|0:0|0:0,0:0:0:0:
72,168,25600,2,0,P|152:180|224:168,2,150,2|2|2,0:0|0:0|0:0,0:0:0:0:
220,169,26725,6,0,L|276:117,1,75,2|0,0:2|0:0,0:0:0:0:
348,140,27100,2,0,P|352:100|332:68,1,75,2|0,0:0|0:0,0:0:0:0:
264,44,27475,2,0,L|234:21,2,37.5,0|0|2,0:0|0:0|0:2,0:0:0:0:
200,88,27850,1,0,0:0:0:0:
68,44,28225,6,0,P|52:80|64:124,1,75,2|0,0:2|0:0,0:0:0:0:
128,140,28600,2,0,P|144:176|132:220,1,75,2|0,0:0|0:0,0:0:0:0:
100,276,28975,2,0,L|68:240,2,37.5,2|0|2,0:0|0:0|0:2,0:0:0:0:
156,324,29350,1,0,0:0:0:0:
224,352,29537,1,2,0:0:0:0:
300,360,29725,1,0,0:0:0:0:
368,144,30287,6,0,L|420:84,2,75,0|0|2,0:0|0:0|0:0,0:0:0:0:
316,200,30850,1,0,0:0:0:0:
316,200,31037,2,0,P|304:240|144:300,1,225
72,296,31787,1,0,0:0:0:0:
88,220,31975,2,0,L|88:140,1,75,2|0,0:0|0:0,0:0:0:0:
108,64,32350,1,0,0:0:0:0:
256,32,32725,6,0,P|304:44|408:32,1,150,2|0,0:2|0:0,0:0:0:0:
472,64,33287,1,0,0:0:0:0:
436,128,33475,2,0,P|424:176|436:280,1,150,2|0,0:2|0:0,0:0:0:0:
296,340,34037,5,0,0:0:0:0:
296,340,34131,1,0,0:0:0:0:
296,340,34225,2,0,P|307:266|294:193,1,150,2|0,0:2|0:0,0:0:0:0:
248,132,34787,2,0,L|208:176,2,37.5,2|0|2,0:0|0:0|0:2,0:0:0:0:
208,68,35162,1,0,0:0:0:0:
136,52,35350,1,0,0:0:0:0:
136,52,35537,1,0,0:0:0:0:
136,52,35725,6,0,B|88:76|76:128|76:128|12:128,1,150,4|0,0:2|0:0,0:0:0:0:
24,204,36287,2,0,P|84:252|108:328,1,150,0|0,0:0|0:0,0:0:0:0:
180,340,36850,1,2,0:0:0:0:
248,312,37037,5,0,0:0:0:0:
320,332,37225,2,0,P|316:280|220:240,1,150,0|2,0:0|0:0,0:0:0:0:
212,164,37787,2,0,P|144:138|129:67,1,150,2|2,0:0|0:0,0:0:0:0:
76,12,38350,1,0,0:0:0:0:
16,56,38537,1,0,0:0:0:0:
40,128,38725,6,0,P|36:168|56:204,1,75,2|0,0:2|0:0,0:0:0:0:
28,272,39100,2,0,P|59:298|97:310,1,75,2|0,0:2|0:0,0:0:0:0:
152,352,39475,2,0,P|188:359|235:347,1,75,2|0,0:2|0:0,0:0:0:0:
300,352,39850,2,0,P|332:334|357:291,1,75,2|0,0:2|0:0,0:0:0:0:
400,224,40225,6,0,P|352:232|292:148,1,150,4|0,0:2|0:0,0:0:0:0:
256,96,40787,1,0,0:0:0:0:
216,160,40975,2,0,P|178:221|107:222,1,150,0|2,0:0|0:0,0:0:0:0:
96,148,41537,1,0,0:0:0:0:
20,148,41725,6,0,P|48:88|136:84,1,150,4|0,0:2|0:0,0:0:0:0:
188,116,42287,1,0,0:0:0:0:
188,116,42475,2,0,P|260:136|340:108,1,150,2|2,0:0|0:0,0:0:0:0:
400,88,43037,1,0,0:0:0:0:
468,124,43225,6,0,P|448:168|472:276,1,150,2|0,0:2|0:0,0:0:0:0:
428,332,43787,1,2,0:0:0:0:
352,336,43975,2,0,P|280:316|208:336,1,150,0|0,0:0|0:0,0:0:0:0:
136,320,44537,1,2,0:0:0:0:
140,244,44725,6,0,B|124:200|140:172|140:172|140:88,1,150,4|4,0:2|0:2,0:0:0:0:
192,40,45287,1,0,0:0:0:0:
264,20,45475,2,0,L|344:20,2,75,0|2|0,0:0|0:0|0:0,0:0:0:0:
396,328,46225,6,0,L|440:236,2,75,4|2|0,0:2|0:0|0:0,0:0:0:0:
320,332,46787,1,0,0:0:0:0:
244,332,46975,2,0,L|200:240,1,75,2|0,0:0|0:0,0:0:0:0:
180,196,47350,1,2,0:0:0:0:
180,196,47537,1,0,0:0:0:0:
180,196,47725,1,0,0:0:0:0:
180,120,47912,5,0,0:0:0:0:
180,120,48100,2,0,L|268:92,1,75,2|0,0:2|0:0,0:0:0:0:
336,72,48475,1,2,0:2:0:0:
424,96,48662,1,0,0:0:0:0:
472,172,48850,1,2,0:2:0:0:
472,260,49037,1,0,0:0:0:0:
400,316,49225,6,0,B|336:280|268:352|268:352|208:300|184:280,1,225,0|0,0:0|0:0,0:0:0:0:
128,204,49975,6,0,L|188:120,1,75,4|0,0:2|0:0,0:0:0:0:
216,80,50350,1,0,0:0:0:0:
264,24,50537,2,0,P|268:100|336:140,1,150,0|0,0:0|0:0,0:0:0:0:
400,156,51100,1,2,0:0:0:0:
460,200,51287,1,0,0:0:0:0:
440,272,51475,2,0,P|436:320|460:368,1,75,0|0,0:0|0:0,0:0:0:0:
344,344,51850,2,0,P|353:307|348:271,1,75,2|0,0:0|0:0,0:0:0:0:
348,271,52225,1,2,0:2:0:0:
200,188,52600,1,0,0:0:0:0:
200,188,52975,6,0,L|144:280,2,75,4|0|2,0:2|0:0|0:0,0:0:0:0:
236,124,53537,1,0,0:0:0:0:
200,56,53725,2,0,B|256:32|296:76|296:76|360:80,1,150,2|0,0:0|0:0,0:0:0:0:
412,104,54287,1,0,0:0:0:0:
412,104,54475,2,0,P|392:136|400:200,1,75,2|0,0:2|0:0,0:0:0:0:
387,248,54850,2,0,P|423:240|452:216,1,75
320,216,55225,2,0,P|322:287|384:324,1,150,2|0,0:2|0:0,0:0:0:0:
192,40,55975,5,4,0:2:0:0:
132,88,56162,2,0,P|124:128|140:168,1,75,2|0,0:0|0:0,0:0:0:0:
200,124,56537,2,0,P|200:196|140:235,1,150,2|0,0:0|0:0,0:0:0:0:
92,292,57100,2,0,L|158:326,1,75,2|0,0:0|0:0,0:0:0:0:
228,356,57474,1,0,0:0:0:0:
228,356,57662,2,0,L|294:321,1,75,2|2,0:0|0:2,0:0:0:0:
364,292,58037,1,0,0:0:0:0:
412,232,58225,1,2,0:2:0:0:
256,56,58600,5,2,0:0:0:0:
256,56,58787,1,2,0:0:0:0:
256,56,58975,2,0,B|280:116|216:160|272:216,1,150,4|0,0:2|0:0,0:0:0:0:
324,240,59537,2,0,P|260:276|192:236,1,150
152,184,60100,1,0,0:0:0:0:
152,184,60287,1,2,0:0:0:0:
80,64,60475,5,2,0:2:0:0:
324,136,60850,1,2,0:2:0:0:
156,216,61225,1,2,0:2:0:0:
237,11,61600,1,2,0:2:0:0:
231,216,61975,6,0,L|156:216,1,75,4|0,0:2|0:0,0:0:0:0:
312,284,62350,2,0,L|388:284,1,75,4|0,0:2|0:0,0:0:0:0:
492,284,62725,1,0,0:0:0:0:
448,144,63100,5,2,0:0:0:0:
412,120,63287,1,0,0:0:0:0:
376,96,63475,1,2,0:0:0:0:
340,72,63662,1,0,0:0:0:0:
176,28,64225,6,0,P|192:64|180:112,1,75,4|0,0:2|0:0,0:0:0:0:
136,196,64600,2,0,P|120:232|132:280,1,75,4|0,0:2|0:0,0:0:0:0:
208,320,64975,1,0,0:0:0:0:
476,120,65350,6,0,B|456:156|456:156|468:208,1,75,2|2,0:0|0:0,0:0:0:0:
468,264,65725,1,4,0:2:0:0:
420,320,65912,1,2,0:0:0:0:
348,340,66100,2,0,P|344:304|372:264,2,75,0|2|4,0:0|0:0|0:2,0:0:0:0:
272,344,66662,1,2,0:0:0:0:
152,368,66850,1,0,0:0:0:0:
132,252,67037,1,2,0:0:0:0:
132,252,67225,6,0,P|152:216|152:160,1,75,4|0,0:2|0:0,0:0:0:0:
156,108,67600,1,0,0:0:0:0:
92,68,67787,2,0,P|160:32|220:68,1,150,2|0,0:0|0:0,0:0:0:0:
264,124,68350,2,0,P|240:160|236:200,1,75,0|2,0:0|0:0,0:0:0:0:
280,252,68725,1,2,0:0:0:0:
280,252,68912,1,2,0:1:0:0:
356,239,69100,2,0,P|351:276|332:308,1,75,0|2,0:0|0:1,0:0:0:0:
395,364,69475,2,0,P|434:300|438:226,1,150,2|2,0:0|0:0,0:0:0:0:
416,48,70225,5,4,0:2:0:0:
348,80,70412,1,2,0:0:0:0:
280,112,70600,2,0,B|192:160|192:160|156:232,1,150,0|0,0:0|0:0,0:0:0:0:
156,280,71162,1,2,0:0:0:0:
176,352,71350,2,0,P|216:324|228:292,1,75,0|2,0:0|0:0,0:0:0:0:
300,288,71725,2,0,P|272:240|244:228,1,75,2|2,0:0|0:1,0:0:0:0:
188,204,72100,1,2,0:0:0:0:
188,204,72287,1,2,0:1:0:0:
116,240,72475,2,0,B|88:168|152:132|152:132|152:76,1,150,2|2,0:0|0:0,0:0:0:0:
332,48,73225,5,4,0:2:0:0:
332,48,73412,1,2,0:0:0:0:
332,124,73600,1,0,0:0:0:0:
332,124,73787,2,0,P|320:200|344:268,1,150,2|0,0:0|0:0,0:0:0:0:
288,320,74350,2,0,P|268:284|252:236,1,75,2|2,0:0|0:0,0:0:0:0:
236,180,74725,5,0,0:0:0:0:
220,108,74912,2,0,P|184:128|164:164,1,75,2|2,0:1|0:0,0:0:0:0:
176,232,75287,1,2,0:1:0:0:
128,292,75475,2,0,B|76:264|76:216|76:216|24:176,1,150,2|2,0:0|0:0,0:0:0:0:
24,108,76037,1,2,0:0:0:0:
172,56,76225,6,0,P|232:32|320:72,1,150,4|0,0:2|0:0,0:0:0:0:
356,128,76787,1,0,0:0:0:0:
316,204,76975,2,0,P|247:231|176:211,1,150,0|0,0:0|0:0,0:0:0:0:
112,160,77537,1,2,0:0:0:0:
64,284,77725,6,0,L|32:320,2,37.5,2|0|0,0:2|0:0|0:0,0:0:0:0:
208,284,78100,2,0,L|208:332,2,37.5,2|0|0,0:2|0:0|0:0,0:0:0:0:
352,284,78475,2,0,L|352:324,2,37.5,2|0|0,0:2|0:0|0:0,0:0:0:0:
484,284,78850,2,0,L|516:320,2,37.5,2|0|0,0:2|0:0|0:0,0:0:0:0:
336,108,79225,6,0,L|296:44,1,75,4|0,0:2|0:0,0:0:0:0:
176,108,79600,2,0,L|216:44,1,75,4|2,0:2|0:0,0:0:0:0:
256,176,79975,1,0,0:0:0:0:
396,232,80350,5,0,0:0:0:0:
308,264,80537,1,2,0:0:0:0:
216,264,80725,1,0,0:0:0:0:
128,232,80912,1,2,0:0:0:0:
96,32,81475,6,0,P|40:48|24:68,2,75,4|2|4,0:2|0:0|0:2,0:0:0:0:
184,40,82037,1,2,0:0:0:0:
392,276,82600,6,0,P|368:304|328:324,1,75,2|0,0:2|0:0,0:0:0:0:
252,340,82975,1,4,0:2:0:0:
252,340,83162,1,2,0:0:0:0:
256,256,83350,2,0,L|320:188,1,75
376,152,83725,1,4,0:2:0:0:
320,92,83912,1,2,0:0:0:0:
272,24,84100,2,0,P|248:48|236:88,1,75,0|2,0:0|0:0,0:0:0:0:
144,184,84475,6,0,P|100:164|80:128,1,75,2|0,0:2|0:0,0:0:0:0:
58,226,84850,2,0,P|87:249|124:256,1,75,2|0,0:1|0:0,0:0:0:0:
304,188,85225,2,0,P|348:168|368:132,1,75,2|0,0:2|0:0,0:0:0:0:
384,236,85600,2,0,P|352:256|308:264,1,75,2|0,0:1|0:0,0:0:0:0:
228,176,85975,6,0,L|228:332,2,150,2|2|2,0:2|0:1|0:2,0:0:0:0:
144,52,87100,1,2,0:1:0:0:
316,52,87475,1,4,0:2:0:0:
