osu file format v14

[General]
AudioFilename: Tokyo Mew Mew- Koi wa a la Mode [TV-size].mp3
AudioLeadIn: 2000
PreviewTime: 49975
Countdown: 0
SampleSet: Soft
StackLeniency: 0.7
Mode: 0
LetterboxInBreaks: 0
WidescreenStoryboard: 0

[Editor]
DistanceSpacing: 1
BeatDivisor: 4
GridSize: 4
TimelineZoom: 1.6

[Metadata]
Title:Koi wa a la Mode
TitleUnicode:恋はア・ラ・モード
Artist:Tokyo Mew Mew
ArtistUnicode:東京ミュウミュウ
Creator:-Nya-
Version:Easy
Source:東京ミュウミュウ
Tags:Tokyo Myu mew ending Ichigo momomiya mint aizawa Lettuce Midorikawa Pudding Fong Zakuro Fujiwara Yumi Kakazu Kumi Sakuma Hisayo Mochizuki Junko Noda
BeatmapID:554079
BeatmapSetID:239679

[Difficulty]
HPDrainRate:2
CircleSize:2.5
OverallDifficulty:2
ApproachRate:3
SliderMultiplier:1
SliderTickRate:1

[Events]
//Background and Video events
0,0,"Mew.jpg",0,0
Video,445,"Ending.avi"
//Break Periods
//Storyboard Layer 0 (Background)
//Storyboard Layer 1 (Fail)
//Storyboard Layer 2 (Pass)
//Storyboard Layer 3 (Foreground)
//Storyboard Sound Samples

[TimingPoints]
475,375,6,2,2,40,1,0
2725,375,4,2,2,40,1,0
5725,375,4,2,2,40,1,0
49975,375,4,2,2,60,1,1
61975,-100,4,2,2,60,0,0
67225,-100,4,2,2,60,0,1
79225,-100,4,2,2,60,0,0

[Colours]
Combo1 : 187,119,255
Combo2 : 255,140,255
Combo3 : 53,154,255
Combo4 : 130,255,130
Combo5 : 255,255,132
SliderBorder : 255,255,255

[HitObjects]
88,120,475,6,0,P|152:132|304:112,1,200,4|0,0:2|0:0,0:0:0:0:
380,80,1600,1,2,0:0:0:0:
444,156,1975,2,0,P|432:208|432:272,1,100,2|2,0:0|0:0,0:0:0:0:
408,352,2725,6,0,B|340:336|328:256|328:256|276:196,1,200,4|2,0:2|0:0,0:0:0:0:
220,132,3850,1,2,0:0:0:0:
184,224,4225,2,0,P|136:184|120:140,2,100,4|4|4,0:2|0:2|0:2,0:0:0:0:
264,288,5350,1,4,0:2:0:0:
320,204,5725,6,0,B|368:216|368:216|424:200,1,100,4|0,0:2|0:0,0:0:0:0:
416,104,6475,2,0,B|367:90|367:90|319:102,1,100
240,164,7225,2,0,P|220:120|224:64,2,100,2|0|2,0:0|0:0|0:2,0:0:0:0:
296,248,8350,1,0,0:0:0:0:
356,328,8725,6,0,P|388:284|392:228,1,100,4|0,0:2|0:0,0:0:0:0:
448,156,9475,2,0,P|400:140|336:160,1,100
256,168,10225,1,2,0:0:0:0:
172,220,10600,1,0,0:0:0:0:
136,312,10975,2,0,P|96:284|72:228,1,100,4|4,0:2|0:2,0:0:0:0:
104,144,11725,5,4,0:2:0:0:
272,36,12475,2,0,B|336:56|384:32|384:32|460:88,1,200,2|2,0:0|0:2,0:0:0:0:
472,180,13600,2,0,P|484:228|460:292,1,100,0|2,0:0|0:0,0:0:0:0:
400,344,14350,1,0,0:0:0:0:
348,260,14725,6,0,P|312:296|300:344,2,100,2|0|2,0:2|0:0|0:0,0:0:0:0:
380,164,15850,1,0,0:0:0:0:
308,96,16225,2,0,P|272:60|260:12,2,100,2|0|2,0:2|0:0|0:0,0:0:0:0:
380,164,17350,1,0,0:2:0:0:
376,264,17725,5,4,0:2:0:0:
192,344,18475,2,0,B|176:252|176:252|104:276|60:224,1,200,2|2,0:0|0:0,0:0:0:0:
136,160,19600,2,0,P|164:132|228:120,1,100,0|2,0:0|0:0,0:0:0:0:
320,120,20350,1,0,0:0:0:0:
396,184,20725,6,0,P|352:216|292:212,1,100,2|0,0:2|0:2,0:0:0:0:
244,296,21475,2,0,P|212:256|212:196,1,100,2|0,0:2|0:0,0:0:0:0:
120,164,22225,2,0,P|156:124|204:112,1,100,2|0,0:2|0:0,0:0:0:0:
300,104,22975,2,0,P|352:112|408:100,1,100,2|0,0:2|0:0,0:0:0:0:
348,16,23725,5,4,0:2:0:0:
168,104,24475,2,0,B|144:148|188:196|188:196|148:244|188:304,1,200,2|2,0:0|0:0,0:0:0:0:
268,328,25600,1,0,0:0:0:0:
368,328,25975,2,0,P|356:280|308:236,1,100,2|0,0:0|0:0,0:0:0:0:
240,188,26725,6,0,P|192:164|160:128,1,100,2|0,0:0|0:0,0:0:0:0:
156,28,27475,2,0,P|108:40|68:96,1,100,2|0,0:0|0:0,0:0:0:0:
64,176,28225,2,0,P|92:220|144:256,1,100,2|0,0:2|0:0,0:0:0:0:
224,276,28975,1,2,0:0:0:0:
280,192,29350,6,0,P|316:228|324:292,1,100,0|2,0:0|0:0,0:0:0:0:
456,120,30475,2,0,P|445:72|409:38,1,100,2|0,0:0|0:0,0:0:0:0:
308,40,31225,1,2,0:0:0:0:
208,44,31600,2,0,B|160:60|160:60|104:44,1,100,0|2,0:0|0:0,0:0:0:0:
20,84,32350,1,0,0:0:0:0:
64,176,32725,6,0,P|100:208|152:216,2,100,2|0|2,0:2|0:0|0:2,0:0:0:0:
148,120,33850,1,0,0:0:0:0:
180,24,34225,2,0,P|228:13|274:31,1,100,2|0,0:2|0:0,0:0:0:0:
328,116,34975,2,0,P|376:128|440:108,1,100,2|0,0:2|0:0,0:0:0:0:
472,204,35725,6,0,B|444:272|444:272|468:352|396:388,1,200,4|2,0:2|0:0,0:0:0:0:
312,348,36850,1,0,0:0:0:0:
220,312,37225,2,0,B|120:312|120:312|20:252,1,200,2|2,0:0|0:0,0:0:0:0:
28,160,38350,1,0,0:0:0:0:
92,84,38725,6,0,P|140:108|168:168,2,100,2|0|2,0:2|0:0|0:0,0:0:0:0:
28,160,39850,1,0,0:2:0:0:
32,260,40225,2,0,P|64:308|120:324,1,100,4|0,0:0|0:0,0:0:0:0:
192,368,40975,2,0,P|236:347|261:304,1,100,2|0,0:0|0:0,0:0:0:0:
272,204,41725,6,0,P|320:268|440:264,1,200,4|2,0:2|0:0,0:0:0:0:
460,172,42850,1,0,0:0:0:0:
460,72,43225,2,0,B|380:76|360:144|360:144|296:80,1,200,2|2,0:2|0:0,0:0:0:0:
224,48,44350,1,0,0:0:0:0:
140,100,44725,6,0,L|76:180,1,100,4|4,0:2|0:2,0:0:0:0:
84,276,45475,2,0,L|148:356,1,100,2|0,0:0|0:0,0:0:0:0:
248,360,46225,2,0,P|300:352|364:368,1,100,4|0,0:2|0:0,0:0:0:0:
428,300,46975,2,0,P|419:250|427:201,1,100,2|0,0:0|0:0,0:0:0:0:
444,104,47725,5,2,0:0:0:0:
344,116,48100,2,0,B|288:88|224:124|224:124|168:80|92:100,1,250,0|0,0:2|0:0,0:0:0:0:
232,312,49975,6,0,P|286:323|340:304,1,100,4|0,0:2|0:0,0:0:0:0:
408,252,50725,2,0,P|419:198|400:144,1,100,2|0,0:0|0:0,0:0:0:0:
320,204,51475,1,2,0:0:0:0:
220,204,51850,1,0,0:0:0:0:
132,252,52225,2,0,P|120:198|140:144,1,100,2|0,0:2|0:0,0:0:0:0:
192,76,52975,6,0,B|232:100|232:100|292:100,1,100,4|0,0:2|0:0,0:0:0:0:
384,100,53725,2,0,B|437:100|437:100|477:124,1,100,2|0,0:0|0:0,0:0:0:0:
496,224,54475,2,0,P|504:276|484:332,2,100,2|0|2,0:2|0:0|0:2,0:0:0:0:
404,268,55600,1,0,0:0:0:0:
328,204,55975,6,0,P|305:273|337:339,2,150,4|2|0,0:2|0:0|0:0,0:0:0:0:
248,148,57475,2,0,P|332:108|420:164,1,200,2|2,0:2|0:2,0:0:0:0:
460,252,58600,1,0,0:0:0:0:
500,344,58975,6,0,B|432:360|388:320|388:320|304:332,1,200,4|2,0:2|0:0,0:0:0:0:
216,296,60100,1,0,0:0:0:0:
128,248,60475,2,0,B|156:200|208:196|208:196|262:111,1,200,2|2,0:2|0:2,0:0:0:0:
336,44,61600,1,0,0:2:0:0:
392,128,61975,6,0,P|429:88|438:32,2,100,4|4|2,0:2|0:2|0:0,0:0:0:0:
292,120,63100,2,0,B|292:180|344:212|344:212|256:276|256:276,1,200
172,276,64225,6,0,P|112:256|80:208,1,100,4|4,0:2|0:2,0:0:0:0:
84,128,64975,1,2,0:0:0:0:
172,76,65350,6,0,P|184:140|172:176,1,100,0|4,0:0|0:2,0:0:0:0:
92,228,66100,1,0,0:0:0:0:
176,280,66475,2,0,P|220:300|292:300,1,100,4|0,0:2|0:2,0:2:0:0:
364,272,67225,6,0,B|368:228|380:208|380:208|372:160,1,100,4|0,0:2|0:0,0:0:0:0:
396,76,67975,1,2,0:0:0:0:
296,60,68350,2,0,P|248:76|196:56,1,100,0|2,0:0|0:0,0:0:0:0:
140,140,69100,2,0,P|156:188|136:240,1,100,0|2,0:0|0:0,0:0:0:0:
96,324,69850,1,2,0:0:0:0:
196,340,70225,6,0,B|236:328|268:344|268:344|296:312,1,100,4|0,0:2|0:0,0:0:0:0:
368,268,70975,2,0,P|332:236|268:232,1,100,2|0,0:0|0:0,0:0:0:0:
252,132,71725,2,0,P|208:160|180:212,1,100,2|0,0:0|0:0,0:0:0:0:
116,276,72475,2,0,P|160:300|228:288,1,100,2|0,0:0|0:0,0:0:0:0:
300,340,73225,6,0,B|320:288|304:256|284:228|284:228|360:168,1,200,4|2,0:2|0:0,0:0:0:0:
424,116,74350,1,0,0:0:0:0:
344,56,74725,2,0,P|248:48|164:116,1,200,2|2,0:0|0:0,0:0:0:0:
104,184,75850,1,0,0:0:0:0:
16,236,76225,6,0,P|44:268|188:240,1,200,4|2,0:2|0:0,0:0:0:0:
252,172,77350,1,0,0:0:0:0:
324,244,77725,2,0,P|410:284|491:233,1,200,2|2,0:2|0:2,0:0:0:0:
404,184,78850,1,0,0:2:0:0:
452,96,79225,6,0,P|400:84|336:108,1,100,4|4,0:2|0:2,0:0:0:0:
260,132,79975,1,2,0:0:0:0:
200,212,80350,2,0,P|168:176|164:104,1,100,0|2,0:0|0:0,0:0:0:0:
160,28,81100,1,0,0:0:0:0:
260,32,81475,6,0,P|304:44|368:24,2,100,4|4|2,0:2|0:2|0:0,0:0:0:0:
160,28,82600,1,0,0:0:0:0:
76,84,82975,6,0,P|112:119|161:129,1,100,4|0,0:2|0:0,0:0:0:0:
260,116,83725,2,0,P|256:164|224:212,1,100,4|0,0:2|0:0,0:0:0:0:
160,280,84475,6,0,B|188:312|232:308|232:308|244:340,1,100,2|2,0:2|0:1,0:0:0:0:
340,328,85225,2,0,B|346:309|346:309|390:313|418:281,1,100,2|2,0:2|0:1,0:0:0:0:
484,208,85975,2,0,P|436:184|380:192,1,100,2|2,0:2|0:1,0:0:0:0:
292,196,86725,2,0,P|242:198|199:175,1,100,2|2,0:2|0:1,0:0:0:0:
120,112,87475,5,4,0:2:0:0:
