osu file format v14

[General]
AudioFilename: Tokyo Machine - BLAST.mp3
AudioLeadIn: 0
PreviewTime: -1
Countdown: 1
SampleSet: None
StackLeniency: 0.7
Mode: 0
LetterboxInBreaks: 1
WidescreenStoryboard: 0

[Editor]
Bookmarks: 30090
DistanceSpacing: 1
BeatDivisor: 4
GridSize: 4
TimelineZoom: 2

[Metadata]
Title:Blast
TitleUnicode:Blast
Artist:Tokyo Machine
ArtistUnicode:Tokyo Machine
Creator:napie09
Version:
Source:
Tags:
BeatmapID:1238054
BeatmapSetID:584993

[Difficulty]
HPDrainRate:6
CircleSize:4.2
OverallDifficulty:9
ApproachRate:9.5
SliderMultiplier:2.4
SliderTickRate:1

[Events]
//Background and Video events
//Break Periods
//Storyboard Layer 0 (Background)
//Storyboard Layer 1 (Fail)
//Storyboard Layer 2 (Pass)
//Storyboard Layer 3 (Foreground)
//Storyboard Sound Samples

[TimingPoints]
90,468.75,4,1,0,100,1,0
90,-166.666666666667,4,1,0,100,0,0
6183,-200,4,1,0,100,0,0
8058,-166.666666666667,4,1,0,100,0,0
9933,-200,4,1,0,100,0,0
10402,-166.666666666667,4,1,0,100,0,0
17433,-200,4,1,0,100,0,0
19308,-142.857142857143,4,1,0,100,0,0
28449,-200,4,1,0,100,0,0
29386,-66.6666666666667,4,1,0,100,0,0
31027,-50,4,1,0,100,0,0
32902,-58.8235294117647,4,1,0,100,0,0
33371,-50,4,1,0,100,0,0
33840,-100,4,1,0,100,0,0
34308,-50,4,1,0,100,0,0

[HitObjects]
104,59,90,5,0,0:0:0:0:
114,92,207,1,0,0:0:0:0:
131,122,324,1,0,0:0:0:0:
153,150,441,1,0,0:0:0:0:
172,174,558,2,0,P|230:148|265:152,1,71.9999978027345
282,283,1027,1,0,0:0:0:0:
436,161,1261,1,0,0:0:0:0:
285,45,1730,1,0,0:0:0:0:
243,96,1847,1,0,0:0:0:0:
285,45,1965,5,0,0:0:0:0:
309,71,2082,1,0,0:0:0:0:
326,102,2199,1,0,0:0:0:0:
335,137,2316,1,0,0:0:0:0:
333,179,2433,2,0,P|274:171|238:185,1,71.9999978027345
170,223,2902,1,0,0:0:0:0:
247,313,3136,1,0,0:0:0:0:
453,139,3605,1,0,0:0:0:0:
451,62,3840,5,0,0:0:0:0:
71,61,4308,2,0,B|123:72|123:72|123:114,1,71.9999978027345
89,265,4777,1,0,0:0:0:0:
181,221,5011,1,0,0:0:0:0:
419,311,5480,1,0,0:0:0:0:
364,273,5597,1,0,0:0:0:0:
419,311,5715,5,0,0:0:0:0:
432,277,5832,1,0,0:0:0:0:
438,242,5949,1,0,0:0:0:0:
438,206,6066,1,0,0:0:0:0:
431,170,6183,2,0,L|394:162,1,30
388,86,6418,1,0,0:0:0:0:
215,186,6652,1,0,0:0:0:0:
295,57,6886,1,0,0:0:0:0:
52,53,7355,1,0,0:0:0:0:
54,140,7590,5,0,0:0:0:0:
246,96,7824,1,0,0:0:0:0:
266,110,7941,1,0,0:0:0:0:
279,137,8058,2,0,P|291:172|284:216,1,71.9999978027345
287,206,8410,1,0,0:0:0:0:
352,237,8527,1,0,0:0:0:0:
444,97,8761,1,0,0:0:0:0:
113,322,9230,1,0,0:0:0:0:
44,320,9347,1,0,0:0:0:0:
113,322,9465,5,0,0:0:0:0:
121,287,9582,1,0,0:0:0:0:
123,251,9699,1,0,0:0:0:0:
118,215,9816,1,0,0:0:0:0:
106,180,9933,2,0,L|140:161,1,30
155,75,10168,2,0,L|127:98,1,30
30,179,10402,1,0,0:0:0:0:
240,152,10636,1,0,0:0:0:0:
183,317,11105,1,0,0:0:0:0:
274,315,11340,5,0,0:0:0:0:
361,133,11574,1,0,0:0:0:0:
360,158,11632,1,0,0:0:0:0:
361,133,11691,1,0,0:0:0:0:
360,158,11750,1,0,0:0:0:0:
356,128,11808,2,0,L|401:133,1,35.9999989013672
447,152,12043,2,0,P|412:218|413:235,1,71.9999978027345
474,352,12511,1,0,0:0:0:0:
167,72,12980,2,0,P|185:92|194:116,1,35.9999989013672
215,289,13332,6,0,P|235:245|262:213,1,71.9999978027344
387,51,13683,1,0,0:0:0:0:
461,120,13918,1,0,0:0:0:0:
361,241,14152,1,0,0:0:0:0:
456,350,14386,2,0,P|414:340|368:347,1,71.9999978027345
87,66,15090,5,0,0:0:0:0:
120,95,15207,1,0,0:0:0:0:
154,125,15324,1,0,0:0:0:0:
187,155,15441,1,0,0:0:0:0:
221,185,15558,2,0,B|248:216|278:237|278:237|296:202|297:154,1,143.999995605469
364,34,16261,2,0,P|403:94|409:124,1,71.9999978027344
363,324,16730,1,0,0:0:0:0:
295,323,16847,1,0,0:0:0:0:
363,324,16965,5,0,0:0:0:0:
389,300,17082,1,0,0:0:0:0:
410,270,17199,1,0,0:0:0:0:
424,237,17316,1,0,0:0:0:0:
435,199,17433,2,0,L|391:180,1,30
466,315,17668,1,0,0:0:0:0:
433,51,17902,2,0,P|415:86|416:90,1,30
443,115,18136,2,0,P|415:141|354:153,1,90
305,123,18605,2,0,P|320:180|315:208,1,60
102,319,19308,6,0,P|194:319|218:227,1,167.999994873047
35,281,20011,1,0,0:0:0:0:
413,141,20480,1,0,0:0:0:0:
432,172,20597,1,0,0:0:0:0:
439,212,20715,5,0,0:0:0:0:
397,210,20832,1,0,0:0:0:0:
392,236,20949,1,0,0:0:0:0:
367,259,21066,1,0,0:0:0:0:
325,264,21183,2,0,P|340:309|331:336,1,41.9999987182618
324,345,21418,2,0,P|280:307|236:296,1,83.9999974365235
121,260,21886,2,0,P|113:189|184:184,1,125.999996154785
184,217,22355,2,0,P|242:209|263:189,1,83.9999974365235
240,47,22824,5,0,0:0:0:0:
260,52,22882,1,0,0:0:0:0:
279,61,22941,1,0,0:0:0:0:
296,73,22999,1,0,0:0:0:0:
313,89,23058,2,0,B|329:130|312:166|312:166|358:149|423:170,1,167.999994873047
335,272,23761,2,0,P|352:225|376:200,1,83.9999974365235
476,150,24230,1,0,0:0:0:0:
469,86,24347,1,0,0:0:0:0:
476,150,24465,5,0,0:0:0:0:
457,175,24582,1,0,0:0:0:0:
442,203,24699,1,0,0:0:0:0:
433,233,24816,1,0,0:0:0:0:
428,264,24933,2,0,P|458:307|449:350,1,83.9999974365235
325,335,25402,1,0,0:0:0:0:
215,105,25636,2,0,P|237:161|239:200,1,83.9999974365235
130,138,26105,2,0,P|153:194|154:235,1,83.9999974365235
126,330,26574,5,0,0:0:0:0:
146,325,26632,1,0,0:0:0:0:
165,316,26691,1,0,0:0:0:0:
181,302,26749,1,0,0:0:0:0:
193,283,26808,2,0,P|176:241|178:231,1,41.9999987182618
225,167,27043,2,0,P|241:191|246:215,1,41.9999987182618
291,271,27277,2,0,P|334:261|341:250,1,41.9999987182618
352,136,27511,2,0,P|394:134|433:159,1,83.9999974365235
394,346,27980,2,0,P|447:311|462:283,1,83.9999974365235
408,96,28449,2,0,P|412:121|410:135,1,30
359,226,28683,2,0,P|345:204|326:193,1,30
252,170,28918,2,0,P|264:192|267:218,1,30
156,224,29152,2,0,P|171:259|184:272,1,45
202,273,29386,6,0,B|136:357|86:201|26:251,1,180.000006866455
256,32,30090,5,0,0:0:0:0:
256,120,30207,2,0,L|344:156,1,90.0000034332277
256,196,30441,2,0,L|344:232,1,90.0000034332277
396,240,30675,2,0,B|396:256|396:256|380:264|380:264|408:276|408:276|380:288|380:288|408:300|408:300|380:312|380:312|408:320|408:320|392:360,1,180.000006866455
180,293,31027,6,0,L|56:88,1,240
144,96,31379,6,0,L|216:212,1,120
232,96,31613,2,0,L|308:216,1,120
308,304,31965,6,0,P|448:276|464:184,1,240
68,60,32668,1,0,0:0:0:0:
55,161,32902,2,0,B|141:218|141:218|288:193,1,204.000003890991
330,208,33371,2,0,B|251:285|251:285|87:285,1,240
173,202,33840,6,0,L|215:147,1,60
268,105,34074,2,0,P|273:134|290:146,3,30
330,130,34308,2,0,B|316:165|316:165|297:171|278:194|278:194|319:204|317:234|317:234|288:272|161:332,1,240
80,243,34777,2,0,L|219:21,1,240
236,123,35129,2,0,L|286:263,1,120
348,190,35363,2,0,L|464:105,1,120
354,46,35715,6,0,L|432:306,1,240
