osu file format v9

[General]
AudioFilename: Sagamihara.mp3
AudioLeadIn: 0
PreviewTime: -1
Countdown: 0
SampleSet: Normal
StackLeniency: 0.7
Mode: 0
LetterboxInBreaks: 1

[Editor]
DistanceSpacing: 0.8
BeatDivisor: 2
GridSize: 32

[Metadata]
Title:Sagamihara
Artist:Tokyo Hanabi
Creator:jusufkala
Version:Easy
Source:Tokyo Hanabi
Tags:

[Difficulty]
HPDrainRate:3
CircleSize:3
OverallDifficulty:3
ApproachRate:4
SliderMultiplier:1
SliderTickRate:1

[Events]
//Background and Video events
0,0,"cherry_blossoms_and_mount_1024x768.jpg"
//Break Periods
2,106785,116140
2,119535,126640
2,129285,132640
2,135285,141640
//Storyboard Layer 0 (Background)
//Storyboard Layer 1 (Fail)
//Storyboard Layer 2 (Pass)
//Storyboard Layer 3 (Foreground)
//Storyboard Sound Samples
//Background Colour Transformations
3,100,163,162,255

[TimingPoints]
4960,375,4,1,0,70,1,0
16960,-100,4,1,0,75,0,0
22960,-133.333333333333,4,2,0,80,0,0
28960,-100,4,1,0,80,0,0
34960,-133.333333333333,4,2,0,80,0,0
67960,-100,4,1,0,70,0,0
74147,-133.333333333333,4,2,0,80,0,0
79960,-133.333333333333,4,2,0,80,0,0
94960,-100,4,1,0,80,0,0
100960,-133.333333333333,4,1,0,80,0,0
106960,-100,4,1,0,70,0,0
118960,-100,4,1,0,60,0,0
136960,-133.333333333333,4,2,0,50,0,0
142960,-100,4,1,0,50,0,1
154960,-133.333333333333,4,2,0,80,0,0
169960,-100,4,1,0,70,0,0
181960,-100,4,1,0,65,0,0

[Colours]
Combo1 : 128,128,255
Combo2 : 255,255,255
Combo3 : 255,128,192

[HitObjects]
96,64,16960,1,0
192,64,17335,1,8
192,64,17710,2,0,B|320:64|320:64|320:160,1,200
320,224,18835,2,0,B|288:288|224:256,1,100,0|8
96,224,19960,6,0,B|32:192|96:128,1,100,0|8
128,64,20710,2,0,B|160:0|224:64,1,100,0|8
288,64,21460,2,0,B|320:128|384:64,1,100,0|8
448,64,22210,2,0,B|512:96|448:160,1,100,0|8
352,192,22960,5,8
352,192,23335,2,0,B|448:192|416:320,1,149.999995529652,0|2
320,288,24460,2,0,B|224:288|224:224|224:192|224:128|288:128,1,224.999993294478,0|2
160,128,25960,2,0,B|160:32|224:32|256:32|320:32|320:96,1,224.999993294478,0|2
160,224,27460,6,0,B|256:224,1,74.9999977648259,0|12
320,224,28210,2,0,B|416:224,1,74.9999977648259,0|12
416,96,28960,6,0,B|320:64,1,100,0|8
320,64,29710,2,0,B|256:160,1,100,0|8
224,224,30460,1,0
320,224,30835,2,0,B|352:288|416:224,1,100,8|0
416,64,31960,6,0,B|224:64,1,150,0|8
192,64,32710,1,2
128,64,33085,1,0
128,64,33460,2,0,B|32:96|64:224,2,150,8|0|0
256,64,34960,6,0,B|256:192,1,112.499996647239,8|0
256,176,35710,1,2
256,288,36085,1,0
352,288,36460,2,0,B|480:288,2,112.499996647239,2|0|2
352,288,37960,2,0,B|224:288,2,112.499996647239,0|2|2
256,192,39460,5,0
320,192,39835,2,0,B|416:192,1,74.9999977648259,6|0
480,192,40585,2,0,B|480:96,1,74.9999977648259,6|0
96,64,41522,5,2
96,64,41710,2,0,B|32:128|96:224,2,149.999995529652,2|0|0
192,64,43585,1,2
320,64,44335,5,0
384,64,44710,2,0,B|384:224,1,149.999995529652,0|2
384,320,45835,2,2,B|288:320,2,74.9999977648259
128,288,47147,6,0,B|32:288|32:288|32:192,1,187.499994412065,0|2
128,192,48647,1,2
192,192,49022,1,0
256,192,49210,1,0
352,192,49585,1,2
256,192,50147,12,4,52960
192,192,54460,6,0,B|256:256|352:192,2,149.999995529652,0|0|6
128,128,56335,1,0
224,128,56710,1,2
320,128,57085,1,0
416,128,57647,2,0,B|416:256,1,112.499996647239,0|2
256,288,59147,5,0
160,288,59522,2,0,B|96:288|128:224,1,74.9999977648259,0|2
128,160,60272,2,0,B|192:160|160:96,1,74.9999977648259,0|2
256,96,61022,2,0,B|320:96|288:160,1,74.9999977648259,0|2
416,192,62147,5,0
320,192,62522,2,0,B|192:192,1,112.499996647239,0|2
96,192,63460,2,0,B|32:256,1,74.9999977648259,2|0
96,192,64210,2,0,B|160:256,1,74.9999977648259,2|0
96,192,64960,2,0,B|32:128,1,74.9999977648259,2|0
96,192,65710,2,0,B|160:128,1,74.9999977648259,2|0
256,192,66460,6,0,B|320:256,3,74.9999977648259,0|6|0|6
448,256,67960,5,0
448,160,68335,2,0,B|384:32|224:64,1,250,0|8
128,64,69647,2,0,B|128:160,3,50,0|0|8|8
96,192,70960,6,0,B|160:288,1,100,0|8
224,256,71710,2,0,B|288:352,1,100,0|8
288,224,72460,2,0,B|224:128,1,100,0|8
232,140,73210,1,0
384,96,74147,5,0
384,96,74522,2,0,B|448:192|384:288,1,187.499994412065,2|0
288,288,75835,2,0,B|224:288|224:288|192:256,1,74.9999977648259,2|0
192,192,76585,2,0,B|128:192|128:192|96:160,1,74.9999977648259,2|0
96,96,77335,2,0,B|32:96|32:96|0:64,1,74.9999977648259,2|0
256,192,78460,6,0,B|352:192,4,74.9999977648259,0|0|6|0|6
384,64,80522,6,0,B|384:128,4,37.4999988824129,0|0|2|2|2
288,64,81647,2,0,B|288:128,6,37.4999988824129,0|0|0|2|2|2|2
160,64,83335,2,0,B|96:96|160:128,1,74.9999977648259
256,128,84085,2,2,B|224:256|384:320,1,224.999993294478
448,320,85585,1,0
448,224,86147,6,0,B|480:96|352:64,1,187.499994412065
256,64,87647,1,2
192,64,88022,2,0,B|128:128|192:192,1,112.499996647239
256,192,88960,12,4,91960
256,192,93460,5,0
256,192,93835,1,6
256,192,94210,1,0
256,192,94585,1,6
416,192,94960,6,0,B|448:96,2,100,0|8|0
384,256,96085,1,8
320,224,96460,2,0,B|224:160,2,100,0|8|0
96,192,97960,5,0
96,96,98335,2,0,B|128:32|192:96,2,100,8|0|8
192,192,99460,2,0,B|288:352|480:192,1,300,0|0
448,96,101147,5,0
384,96,101522,2,0,B|256:96,1,112.499996647239,8|0
192,96,102460,2,0,B|128:160,2,74.9999977648259,0|8|0
288,96,103960,2,0,B|352:160,2,74.9999977648259,0|8|0
160,192,105460,6,0,B|256:192,1,74.9999977648259,0|2
235,192,106210,2,0,B|320:256,1,74.9999977648259,0|2
256,192,117460,12,0,119335
256,192,127960,5,0
256,192,128335,1,8
256,192,128710,1,0
256,192,129085,1,8
256,192,133960,5,8
256,192,134335,1,0
256,192,134710,1,8
256,192,135085,1,0
128,96,142960,6,0,B|64:128|96:224,1,100,0|8
160,224,143710,2,0,B|192:288|256:224,1,100,0|8
320,192,144460,2,0,B|384:160|320:96,3,100,0|8|0|8
320,288,145960,5,0
256,288,146335,1,8
160,288,146710,2,0,B|96:256|128:160,1,100,0|8
128,96,147460,2,0,B|160:32|224:96,3,100,0|8|0|8
256,192,148960,5,0
320,192,149147,1,8
384,192,149335,1,8
384,288,149710,2,0,B|288:288,2,50,0|8|8
256,288,150460,2,0,B|256:224,2,50,0|8|8
256,288,151210,2,0,B|192:288,2,50,0|8|8
352,96,151960,5,0
256,96,152335,1,8
160,96,152710,1,0
256,192,153085,1,8
160,192,153460,2,0,B|160:320,1,100,0|8
256,288,154210,2,0,B|384:288,1,100,0|8
96,192,155335,6,0,B|160:256,1,74.9999977648259,0|2
224,192,156085,2,0,B|160:128,1,74.9999977648259,0|2
256,96,156835,2,0,B|320:160,1,74.9999977648259,0|2
384,96,157585,2,0,B|320:32,1,74.9999977648259,0|2
384,256,158335,6,0,B|288:256,3,74.9999977648259,0|0|2|2
224,256,159835,2,0,B|160:256|160:256|160:224,1,74.9999977648259
160,160,160585,1,2
256,64,160960,6,0,B|320:96|320:96|288:160,2,112.499996647239,0|8|0
192,128,162647,1,2
128,192,163022,2,0,B|96:224|96:224|160:288,1,112.499996647239
256,192,163960,12,4,166960
192,192,168460,5,0
256,192,168835,1,12
320,192,169210,1,0
256,256,169585,1,12
448,160,169960,6,0,B|416:96|352:96,2,100,0|8|0
448,224,171085,2,0,B|416:288|352:288,3,100,8|0|8|0
256,192,173147,6,0,B|352:256,1,100,0|2
416,224,173897,2,0,B|480:128,1,100,0|2
448,64,174647,2,0,B|352:0,1,100,0|2
288,32,175397,2,0,B|224:128,1,100,0|2
256,192,176147,5,0
320,192,176522,1,2
384,192,176897,1,0
384,256,177272,2,0,B|352:320|352:320|288:288,4,100,2|0|2|0|2
192,256,179147,2,0,B|224:320|224:320|288:288,3,100,0|2|0|2
320,256,180460,5,0
320,192,180835,1,8
320,128,181210,1,0
320,64,181585,1,8
160,64,182147,6,0,B|64:160|64:160|96:288,1,250
256,64,183647,2,0,B|352:160|352:160|320:288,1,250,0|2
192,192,185147,6,0,B|192:320,2,100
192,96,186272,1,0
288,96,186647,2,0,B|352:96|352:160,2,100,2|0|0
192,96,187772,1,2
96,192,188147,6,0,B|96:320|256:320|256:160,1,250,0|8
256,96,189460,2,0,B|384:96,3,100,0|0|0|2
448,96,190960,2,0,B|480:160|416:192,3,100
256,192,192460,12,4,193772
