osu file format v9

[General]
AudioFilename: TokyoNicoNicoLand.mp3
AudioLeadIn: 0
PreviewTime: -1
Countdown: 1
SampleSet: Normal
StackLeniency: 0.7
Mode: 0
LetterboxInBreaks: 1
SkinPreference:Default

[Editor]
Bookmarks: 28250,33250,241250,242000,242250,242500
DistanceSpacing: 0.8
BeatDivisor: 6
GridSize: 8

[Metadata]
Title:Tokyo NicoNico Land Electrical Parade
Artist:Tokyo Disneyland
Creator:youku2011
Version:Hard
Source:
Tags:NicoNico Tokyo Disneyland Electrical Parade

[Difficulty]
HPDrainRate:5
CircleSize:5
OverallDifficulty:10
ApproachRate:5
SliderMultiplier:1.5
SliderTickRate:1

[Events]
//Background and Video events
Video,0,"TokyoNicoNicoLand.avi"
0,0,"TokyoNicoNicoLand.jpg"
//Break Periods
2,76366,88800
2,96450,123800
2,147700,155633
2,168616,187800
2,190533,195633
2,212616,229800
2,256533,259966
//Storyboard Layer 0 (Background)
//Storyboard Layer 1 (Fail)
//Storyboard Layer 2 (Pass)
//Storyboard Layer 3 (Foreground)
//Storyboard Sound Samples
//Background Colour Transformations
3,100,0,0,0

[TimingPoints]
0,500,4,1,0,100,1,0

[Colours]
Combo1 : 0,64,0
Combo2 : 5,240,5
Combo3 : 5,5,240
Combo4 : 240,5,5
Combo5 : 255,150,0
Combo6 : 255,128,255
Combo7 : 64,0,128
Combo8 : 192,192,192

[HitObjects]
256,192,23000,12,8,23583
256,192,24750,5,0
256,192,25250,1,0
256,192,26000,12,0,27500
256,192,29000,5,0
256,192,29750,1,0
120,240,32500,1,0
120,240,32750,6,0,B|480:96|496:80,1,375
448,96,34750,1,8
424,80,35000,1,8
392,80,35250,1,8
472,120,35750,6,0,B|424:184|408:224|208:136|208:136,1,225
80,272,36750,5,0
112,296,37000,1,0
152,304,37250,1,0
184,296,37500,2,2,B|264:328|208:256,1,75
432,112,38000,5,8
408,80,38250,1,0
384,56,38500,2,2,B|392:-8|336:48,1,75
312,40,39000,1,0
272,48,39250,1,0
248,72,39416,1,0
224,104,39583,1,0
296,112,39750,6,2,B|288:184|240:208|192:208|120:184,1,225
112,216,40666,1,0
152,224,41000,1,0
200,216,41250,1,0
232,184,41500,1,0
248,144,41666,5,2
280,128,42000,1,2
320,144,42250,1,2
344,168,42500,1,2
352,208,42666,1,2
336,240,42833,1,2
312,264,42916,1,2
280,264,43083,1,0
248,248,43166,5,2
232,216,43250,1,2
232,184,43333,1,2
232,152,43416,1,2
208,128,43583,1,2
224,88,44666,6,0,B|320:48|392:104|296:224,1,250
280,240,45750,1,0
248,248,46250,1,0
216,232,46750,2,2,B|176:232|184:184,1,50
200,168,47250,2,2,B|192:112|248:144,1,75
272,160,47750,1,8
304,176,48000,2,2,B|408:168|448:120|392:16|344:56,1,225
320,56,48833,5,0
288,72,49000,1,0
264,104,49166,1,0
272,136,49500,1,0
264,168,49666,5,0
240,184,49750,1,0
216,200,49833,1,0
192,216,49916,1,0
160,216,50000,1,0
136,168,50166,1,0
128,136,50250,1,0
136,104,50333,1,0
184,64,50750,6,0,B|320:64,1,125
309,64,51250,2,0,B|256:184,1,125
258,178,51750,1,0
240,200,51833,1,0
160,208,52250,1,0
80,184,52500,1,0
104,128,52750,1,0
128,112,52833,1,0
176,96,53000,1,0
216,88,53166,5,0
240,104,53250,1,0
264,144,53416,1,0
248,184,53666,1,0
280,208,53750,1,0
312,200,54000,5,2
328,152,54250,1,2
320,104,54500,5,0
360,80,54833,1,0
400,136,55250,1,0
392,168,55333,1,0
352,200,55500,1,0
312,200,55583,1,0
288,160,55750,1,0
264,120,55916,1,0
232,128,56000,1,0
208,160,56166,1,0
232,192,56250,1,0
208,272,56750,6,2,B|272:320,1,75
268,317,57250,2,2,B|336:256,1,75,2|8
280,280,58750,5,0
304,264,58833,1,0
328,248,59000,1,0
352,232,59083,2,2,B|496:64,1,200
432,48,60000,5,0
400,48,60083,1,0
344,48,60250,1,0
272,64,60750,5,8
240,96,60916,1,8
224,144,61083,1,0
256,168,61166,5,8
280,208,61333,1,8
288,256,61583,1,0
248,264,61666,5,0
208,256,61833,1,0
160,208,62250,5,8
144,168,62416,1,8
160,136,62583,1,0
184,112,62833,6,8,B|344:64,1,150,8|0
336,88,63666,6,2,B|336:264,1,175
288,88,64749,5,0
288,128,64999,1,0
240,88,65249,5,0
240,128,65750,6,0,B|240:168,11,25
240,152,66750,5,0
240,184,66916,1,0
240,224,67166,1,0
240,256,67250,2,0,B|336:256,1,75
312,200,67750,5,0
312,152,67833,1,0
312,112,67916,1,0
312,80,68000,1,0
312,48,68083,1,0
280,48,68166,2,0,B|152:48,1,125
152,112,68750,5,0
152,168,69000,1,0
152,224,69250,1,0
152,288,69583,1,0
224,288,69750,5,0
272,288,69916,1,0
312,288,70083,1,0
352,288,70166,1,0
384,288,70250,1,0
416,288,70333,1,0
448,288,70416,1,0
448,224,70750,6,0,B|208:224,1,225
223,224,71750,2,0,B|88:40,1,225
89,42,72750,6,2,B|184:40,1,75,2|0
164,40,73083,6,2,B|16:160|16:376|64:368|120:376|144:376|176:368|368:360|504:360|488:192|488:104|488:72,1,925
32,32,90000,6,8,B|32:200,1,150
32,208,90583,1,0
32,208,90666,1,0
32,240,90916,1,0
32,272,91083,1,0
32,304,91250,1,0
40,336,91333,2,0,B|88:360,1,50
144,360,91666,6,0,B|320:360,1,175
352,360,92333,1,0
352,360,92416,2,0,B|128:24,1,400
184,32,93916,5,0
216,32,94000,2,2,B|344:32,1,125
384,32,94750,5,2
416,32,94833,1,2
448,32,94916,1,2
464,56,95000,1,2
464,88,95083,1,2
464,120,95166,1,2
464,184,95500,1,2
464,248,95750,1,2
432,304,96000,1,2
376,336,96250,1,2
464,360,125000,5,2
464,360,125083,1,2
464,360,125166,1,2
464,360,125250,1,2
464,360,125333,1,0
464,360,125500,1,2
464,296,126000,6,0,B|464:136,1,150
464,146,126666,5,2
432,144,126750,6,0,B|280:144,1,150
282,144,127500,6,0,B|280:240|288:240,1,75
256,224,127833,6,0,B|56:224,1,200
256,192,128749,5,0
256,192,128999,1,0
256,192,129249,1,0
256,192,129499,1,0
256,192,129749,1,0
256,192,129999,1,0
256,192,130249,1,0
256,192,130416,1,0
208,168,130749,6,0,B|80:64,1,150
91,73,131250,2,0,B|240:72,1,150
152,56,132750,5,0
216,56,133000,1,0
280,56,133250,1,0
344,56,133500,1,0
408,56,133750,1,0
472,56,134000,1,0
440,88,134083,1,0
208,240,137000,5,8
208,240,137083,1,8
208,240,137500,1,8
208,240,138000,1,8
208,240,138083,1,8
208,240,138500,1,8
208,240,138583,1,8
208,240,138833,1,8
208,240,139416,1,8
208,240,140000,1,8
208,240,140083,1,8
208,240,140166,1,8
272,128,140750,5,0
272,128,141000,1,0
272,128,141083,1,0
272,128,141250,1,0
272,128,141333,1,0
272,128,141666,1,0
264,272,141833,1,0
272,128,142500,1,0
312,208,142750,5,0
312,208,143000,1,0
312,208,143250,1,0
240,200,143416,1,0
240,200,143666,1,0
392,192,145000,5,0
392,192,145583,1,0
256,256,146000,6,0,B|256:288,4,25
320,208,146750,5,0
320,208,147000,1,0
320,208,147250,1,0
208,208,147500,1,0
256,192,156833,5,0
256,192,157166,1,0
256,192,157416,1,0
256,192,157666,1,0
256,192,158000,1,0
256,192,158250,1,0
256,192,158500,1,0
256,192,158583,1,0
256,192,158750,1,0
256,192,159000,1,0
256,192,159416,1,0
256,192,159666,1,0
256,192,159916,1,0
256,192,160166,1,0
256,192,160333,1,0
256,192,160583,1,0
256,192,160750,5,0
256,192,161166,1,0
256,192,161416,1,0
256,192,161833,1,0
256,192,162083,1,0
256,192,162500,1,0
256,192,162833,5,0
256,192,163416,1,0
256,192,163833,1,0
256,192,164416,1,0
256,128,165833,5,0
256,128,166166,1,0
256,256,166333,1,0
256,256,166666,1,0
192,192,166916,1,0
320,192,167083,1,0
192,192,167416,1,0
320,192,167666,1,0
256,192,168166,1,8
256,192,168416,1,2
112,96,189000,5,0
64,96,189333,1,0
24,96,189750,1,0
104,256,190333,1,0
368,304,196833,5,0
336,304,197416,1,0
304,304,197916,1,0
280,288,198083,1,0
264,256,198250,1,0
264,208,198416,1,0
264,176,198583,1,0
264,144,198666,1,0
264,104,198833,1,0
256,64,199000,1,0
256,32,199166,1,0
288,16,199250,1,0
328,8,199333,1,0
360,8,199416,1,0
392,8,199500,1,0
424,8,199583,1,0
456,8,199666,1,0
488,24,199750,1,0
496,64,199833,5,0
496,104,200083,1,0
496,144,200416,1,0
496,176,200583,1,0
488,240,200833,5,0
480,280,201000,1,0
456,312,201250,1,0
408,320,201333,1,0
376,320,201416,1,0
344,320,201500,1,0
296,288,201916,5,0
264,248,202083,1,0
264,216,202166,2,0,B|264:112,1,100
216,120,203000,5,0
176,128,203083,1,0
144,136,203166,1,0
104,160,203333,1,0
80,176,203416,1,0
56,224,203583,1,0
80,248,203666,1,0
112,280,203833,1,0
136,296,203916,1,0
184,312,204083,1,0
224,320,204250,1,0
240,320,204416,2,0,B|416:320,1,150
440,280,204916,5,0
448,248,205083,1,0
448,216,205166,1,0
464,192,205333,1,0
480,152,205500,1,0
480,112,205666,1,0
456,72,205916,1,0
424,64,206083,1,0
392,64,206333,1,0
352,112,206833,5,0
360,160,207000,1,0
400,192,207166,1,0
432,192,207250,1,0
464,232,207416,1,0
464,264,207583,1,0
456,312,207750,1,0
424,336,207916,5,0
376,352,208083,1,0
344,352,208166,1,0
312,352,208250,1,0
272,352,208416,1,0
240,352,208500,6,0,B|144:352,1,75
144,320,208833,1,0
136,280,209083,1,0
96,288,209250,1,0
56,296,209416,1,0
16,304,209583,1,0
8,272,209750,1,0
8,224,209916,5,0
16,176,210166,1,0
24,136,210500,2,0,B|128:16,1,150
160,24,211083,5,0
192,24,211166,1,0
248,24,211416,2,0,B|376:24,1,125
376,56,212000,1,0
384,96,212416,1,0
256,192,231000,5,0
256,192,231916,1,0
256,192,232916,1,0
256,192,235166,1,0
256,192,236416,1,0
256,192,237416,1,0
256,192,238416,1,0
256,192,240416,1,0
48,216,242916,5,0
472,216,243833,1,0
256,272,244833,1,0
144,360,246333,6,0,B|256:264,1,125
192,272,247166,5,8
152,256,247666,1,8
144,224,247750,1,8
144,176,248000,1,8
144,120,248416,1,8
176,72,248750,1,8
224,72,249083,1,8
272,72,249333,1,8
328,72,249666,1,8
384,104,250416,1,8
400,160,250916,1,8
400,216,251666,1,8
392,264,252000,1,8
360,272,252083,1,8
312,272,252333,1,8
280,272,252416,1,8
232,272,252666,1,8
168,272,253333,1,8
144,256,253416,1,8
136,200,253916,1,8
136,136,254416,1,8
152,88,254666,1,8
208,72,255166,1,8
264,72,255666,1,8
320,72,256000,1,8
384,72,256333,1,8
256,192,261166,12,4,261582
