osu file format v14

[General]
AudioFilename: Battle Theme#2.mp3
AudioLeadIn: 0
PreviewTime: 92576
Countdown: 0
SampleSet: Soft
StackLeniency: 0.7
Mode: 0
LetterboxInBreaks: 0
WidescreenStoryboard: 0

[Editor]
Bookmarks: 179058
DistanceSpacing: 0.9
BeatDivisor: 4
GridSize: 8
TimelineZoom: 1

[Metadata]
Title:Battle Theme #2 - Youmu Konpaku
TitleUnicode:Battle Theme#2~魂魄妖夢
Artist:Tokyo Active NEETs
ArtistUnicode:東京アクティブNEETs
Creator:Side
Version:Light Insane
Source:東方 Project
Tags:Touhou, Youmuu Konpaku, Youmu, You Moo, Myon, Danny Phantom with a sword, 東方, Another History ~ 異幻想史
BeatmapID:692888
BeatmapSetID:310019

[Difficulty]
HPDrainRate:6
CircleSize:4
OverallDifficulty:6.5
ApproachRate:8.5
SliderMultiplier:1.6
SliderTickRate:1

[Events]
//Background and Video events
0,0,"2hu ghost.png",0,0
//Break Periods
//Storyboard Layer 0 (Background)
//Storyboard Layer 1 (Fail)
//Storyboard Layer 2 (Pass)
//Storyboard Layer 3 (Foreground)
//Storyboard Sound Samples

[TimingPoints]
300,413.793103448276,4,2,0,100,1,0
39610,-90.9090909090909,4,2,0,100,0,0
66506,-117.647058823529,4,2,0,100,0,0
79748,-100,4,2,0,100,0,0
85541,-83.3333333333333,4,2,0,100,0,0
86368,-100,4,2,0,100,0,0
92575,-86.9565217391304,4,2,0,100,0,0
125679,-80,4,2,0,100,0,0
152575,-100,4,2,0,100,0,0
165817,-86.9565217391304,4,2,0,100,0,0
171610,-80,4,2,0,100,0,0
172437,-86.9565217391304,4,2,0,100,0,0

[HitObjects]
120,148,300,5,2,0:0:0:0:
432,224,1955,1,2,0:0:0:0:
128,256,3610,1,2,0:0:0:0:
256,192,5265,12,2,6093,0:0:0:0:
176,64,6506,5,2,0:0:0:0:
144,72,6610,1,2,0:0:0:0:
120,96,6713,1,2,0:0:0:0:
112,128,6817,1,2,0:0:0:0:
120,160,6920,1,6,0:0:0:0:
348,196,7334,1,0,0:0:0:0:
212,272,7541,2,0,P|228:272|264:292,1,40
272,308,7748,6,2,P|316:288|336:248,1,80,2|0,0:0|0:0,0:0:0:0:
260,148,8162,2,2,P|300:164|352:164,1,80,2|0,0:0|0:0,0:0:0:0:
392,48,8575,2,2,P|404:88|444:136,2,80,6|0|0,0:0|0:0|0:0,0:0:0:0:
120,72,9817,5,4,0:0:0:0:
120,72,10231,2,0,P|164:48|256:116,1,160,4|2,0:0|0:0,0:0:0:0:
84,176,10851,2,0,P|92:156|120:136,1,40
176,128,11058,1,2,0:0:0:0:
224,256,11265,1,0,0:0:0:0:
360,256,11472,2,2,P|400:228|415:181,1,80,2|2,2:0|0:0,0:0:0:0:
432,96,11886,5,4,0:0:0:0:
432,96,12196,2,0,P|380:48|304:48,1,120,0|2,0:0|0:0,0:0:0:0:
120,80,12920,1,2,0:0:0:0:
40,190,13127,1,0,0:0:0:0:
92,317,13334,1,0,0:0:0:0:
208,224,13541,6,0,P|260:192|340:184,1,120,4|0,0:0|0:0,0:0:0:0:
432,332,14162,2,0,P|400:280|400:184,1,160,2|2,0:0|0:0,0:0:0:0:
440,64,14782,1,0,0:0:0:0:
260,160,14989,1,0,0:0:0:0:
196,56,15196,6,0,P|152:96|136:152,1,120,4|0,0:0|0:0,0:0:0:0:
272,264,15817,2,2,P|204:284|116:328,1,160,2|0,0:0|0:0,0:0:0:0:
248,344,16437,1,2,0:0:0:0:
112,248,16644,1,2,0:0:0:0:
104,64,16851,6,0,P|168:132|188:168,2,120,4|0|0,0:0|0:0|0:0,0:0:0:0:
224,68,17679,2,0,P|256:93|296:116,1,80,2|2,0:0|0:0,0:0:0:0:
488,112,18093,2,0,P|456:87|422:66,1,80,2|2,0:0|0:0,0:0:0:0:
256,192,18506,12,4,19334,0:0:0:0:
84,212,19748,6,2,P|99:199|117:190,1,40
216,232,19955,2,2,P|233:222|248:210,1,40
256,104,20162,5,4,0:0:0:0:
408,272,20472,1,0,0:0:0:0:
408,272,20575,2,2,P|364:288|332:288,1,80,2|0,0:0|0:0,0:0:0:0:
176,232,20886,1,0,0:0:0:0:
176,232,20989,2,2,P|220:216|252:216,1,80,2|0,0:0|0:0,0:0:0:0:
440,232,21403,2,2,P|396:248|364:248,1,80,2|0,0:0|0:0,0:0:0:0:
124,160,21817,1,2,0:0:0:0:
272,96,22024,1,0,0:0:0:0:
192,216,22231,1,2,0:0:0:0:
120,240,22437,6,0,P|112:260|116:280,2,40,0|0|2,0:0|0:0|0:0,0:0:0:0:
120,240,22851,1,2,0:0:0:0:
28,84,23058,6,0,B|80:84|80:84|120:48|188:48,1,160,4|4,0:0|0:0,0:0:0:0:
420,44,23886,1,2,0:0:0:0:
472,192,24093,2,0,P|448:236|440:236,1,40
404,276,24300,1,2,0:0:0:0:
256,328,24506,2,2,P|223:279|173:254,2,80,0|2|0,0:0|0:0|0:0,0:0:0:0:
144,328,25127,2,2,B|104:312|104:312|72:232|112:168,1,160,6|2,0:0|0:0,0:0:0:0:
240,96,25748,2,0,L|264:160,2,40,0|0|2,0:0|0:0|0:0,0:0:0:0:
288,32,26162,1,0,0:0:0:0:
112,64,26368,5,2,0:0:0:0:
112,176,26575,2,0,P|140:192|164:196,1,40
216,200,26782,2,0,P|260:168|332:168,1,120,4|0,0:0|0:0,0:0:0:0:
472,40,27403,2,2,L|420:136,1,80,0|2,0:0|0:0,0:0:0:0:
368,200,27817,1,0,0:0:0:0:
272,224,28024,2,2,P|296:268|332:284,1,80
356,120,28437,6,0,B|296:132|296:132|200:112,1,160,4|0,0:0|0:0,0:0:0:0:
48,56,29058,1,0,0:0:0:0:
92,205,29265,2,2,P|100:166|92:128,1,80
92,128,29679,1,2,0:0:0:0:
184,272,29886,1,0,0:0:0:0:
200,284,29989,1,0,0:0:0:0:
216,296,30093,6,0,L|232:168,1,120,4|0,0:0|0:0,0:0:0:0:
230,176,30713,2,2,P|274:176|326:160,1,80,0|2,0:0|0:0,0:0:0:0:
368,24,31127,2,2,P|380:76|412:120,2,80,0|2|2,0:0|0:0|0:0,0:0:0:0:
256,192,31748,12,4,32989,0:0:0:0:
216,200,33403,5,4,0:0:0:0:
448,32,33817,1,2,0:0:0:0:
336,320,34231,2,0,B|356:292|356:264|356:264|384:264|384:264|392:228|428:204,1,160,2|2,0:0|0:0,0:0:0:0:
152,184,35058,2,2,B|132:212|132:240|132:240|104:240|104:240|96:276|60:300,2,160
384,48,36300,1,2,0:0:0:0:
416,176,36713,2,0,B|389:189|352:171|352:171|271:227|101:272|127:163|150:57|341:256|341:256|331:296|348:323,1,560,2|2,0:0|0:0,0:0:0:0:
256,192,38368,12,2,39196,0:0:0:0:
208,68,39610,5,2,0:0:0:0:
176,92,39713,1,2,0:0:0:0:
156,128,39817,1,2,0:0:0:0:
148,168,39920,1,2,0:0:0:0:
156,208,40024,2,0,B|194:219|194:219|232:292|304:304,1,176.000005371094,4|2,0:0|0:0,0:0:0:0:
444,208,40644,6,0,P|432:228|396:244,1,44.0000013427735
336,240,40851,2,2,P|352:188|384:168,1,88.000002685547,2|0,0:0|0:0,0:0:0:0:
512,88,41265,2,2,P|452:96|404:88,1,88.000002685547,2|0,0:0|0:0,0:0:0:0:
188,36,41679,1,2,0:0:0:0:
160,208,41886,1,0,0:0:0:0:
256,64,42093,1,2,0:0:0:0:
104,144,42300,2,0,P|100:172|80:192,2,44.0000013427735,0|0|2,0:0|0:0|0:0,0:0:0:0:
0,56,42713,1,2,0:0:0:0:
28,228,42920,6,4,P|111:237|200:272,1,176.000005371094
320,344,43644,1,0,0:0:0:0:
320,344,43748,2,2,P|360:328|384:272,1,88.000002685547,2|0,0:0|0:0,0:0:0:0:
336,216,44058,1,0,0:0:0:0:
336,216,44162,2,2,P|336:176|360:128,1,88.000002685547,2|0,0:0|0:0,0:0:0:0:
464,64,44575,2,2,P|424:48|368:40,1,88.000002685547,2|0,0:0|0:0,0:0:0:0:
188,32,44989,6,0,P|112:64|68:180,1,176.000005371094,4|2,0:0|0:0,0:0:0:0:
172,304,45610,1,0,0:0:0:0:
172,304,45713,1,0,0:0:0:0:
172,304,45817,1,2,0:0:0:0:
392,348,46024,2,2,P|340:312|304:312,1,88.000002685547,0|2,0:0|0:0,0:0:0:0:
192,216,46437,1,0,0:0:0:0:
200,188,46541,1,0,0:0:0:0:
208,160,46644,6,2,P|272:140|336:152,1,132.00000402832,4|0,0:0|0:0,0:0:0:0:
464,336,47265,2,2,L|456:240,1,88.000002685547,0|0,0:0|0:0,0:0:0:0:
440,96,47679,1,0,0:0:0:0:
248,184,47886,1,2,0:0:0:0:
320,328,48093,2,0,P|272:348|216:340,1,88.000002685547,0|4,0:0|0:0,0:0:0:0:
88,240,48506,2,0,P|104:216|113:196,2,44.0000013427735,0|0|2,0:0|0:0|0:0,0:0:0:0:
0,136,48920,1,0,0:0:0:0:
220,28,49127,6,2,L|192:124,1,88.000002685547,2|0,0:0|0:0,0:0:0:0:
288,120,49541,2,2,L|277:219,1,88.000002685547,2|0,0:0|0:0,0:0:0:0:
372,216,49851,1,0,0:0:0:0:
372,216,49955,6,0,L|380:352,1,132.00000402832,4|0,0:0|0:0,0:0:0:0:
208,304,50575,2,0,P|168:336|88:328,1,132.00000402832
40,268,50989,2,2,P|88:252|134:268,1,88.000002685547,0|2,0:0|0:0,0:0:0:0:
136,268,51403,1,2,0:0:0:0:
298,304,51610,6,0,B|325:328|358:329|358:329|388:280|387:196,1,176.000005371094,4|2,0:0|0:0,0:0:0:0:
72,72,52437,1,2,0:0:0:0:
168,200,52644,1,0,0:0:0:0:
300,76,52851,6,0,L|324:120,1,44.0000013427735,4|2,0:0|0:0,0:0:0:0:
400,148,53058,2,2,L|384:204,1,44.0000013427735
440,256,53265,1,4,0:0:0:0:
272,320,53472,2,2,P|224:304|192:264,1,88.000002685547,0|2,0:0|0:0,0:0:0:0:
80,136,53886,6,0,P|68:168|52:188,1,44.0000013427735
104,280,54093,2,2,P|116:228|152:192,1,88.000002685547,2|0,0:0|0:0,0:0:0:0:
192,24,54506,2,2,P|180:76|144:112,1,88.000002685547,2|0,0:0|0:0,0:0:0:0:
388,160,54920,6,2,P|324:172|280:180,1,88.000002685547,6|0,0:0|0:0,0:0:0:0:
176,264,55334,1,4,0:0:0:0:
276,68,55541,1,0,0:0:0:0:
268,103,55644,1,0,0:0:0:0:
248,128,55748,1,2,0:0:0:0:
144,208,55955,1,0,0:0:0:0:
448,272,56162,6,4,L|256:288,1,176.000005371094
44,248,56886,1,0,0:0:0:0:
44,248,56989,1,2,0:0:0:0:
152,208,57196,2,0,P|168:192|192:184,2,44.0000013427735,0|0|2,0:0|0:0|0:0,0:0:0:0:
94,168,57610,2,2,P|128:136|192:112,2,88.000002685547,0|2|0,0:0|0:0|0:0,0:0:0:0:
216,336,58231,6,0,P|280:288|336:272,1,132.00000402832,4|0,0:0|0:0,0:0:0:0:
496,280,58851,1,0,0:0:0:0:
380,64,59058,2,2,P|332:96|296:132,1,88.000002685547,2|0,0:0|0:0,0:0:0:0:
184,112,59472,2,2,P|172:168|172:219,1,88.000002685547,2|0,0:0|0:0,0:0:0:0:
170,198,59782,1,0,0:0:0:0:
64,208,59886,6,0,P|88:268|160:308,2,132.00000402832,4|0|0,0:0|0:0|0:0,0:0:0:0:
184,200,60713,2,2,P|216:176|280:168,1,88.000002685547,2|0,0:0|0:0,0:0:0:0:
272,304,61127,1,2,0:0:0:0:
262,166,61334,1,0,0:0:0:0:
136,288,61541,6,0,P|172:224|184:160,1,132.00000402832,6|0,0:0|0:0,0:0:0:0:
160,8,62162,1,0,0:0:0:0:
32,136,62368,1,2,0:0:0:0:
32,240,62575,1,0,0:0:0:0:
204,320,62782,2,2,L|204:216,1,88.000002685547,2|0,0:0|0:0,0:0:0:0:
240,96,63093,1,0,0:0:0:0:
240,96,63196,6,0,P|312:72|404:80,1,132.00000402832,4|0,0:0|0:0,0:0:0:0:
392,104,63610,2,2,P|372:160|376:212,1,88.000002685547,2|0,0:0|0:0,0:0:0:0:
480,296,64024,2,2,P|416:312|384:304,1,88.000002685547,2|0,0:0|0:0,0:0:0:0:
288,280,64334,1,0,0:0:0:0:
288,280,64437,2,2,P|224:280|192:288,1,88.000002685547
136,32,64851,6,4,P|120:96|96:120,1,88.000002685547,4|0,0:0|0:0,0:0:0:0:
56,272,65265,2,4,P|72:208|96:176,1,88.000002685547,2|0,0:0|0:0,0:0:0:0:
256,248,65679,1,2,0:0:0:0:
376,112,65886,1,0,0:0:0:0:
216,64,66093,5,4,0:0:0:0:
184,72,66196,1,0,0:0:0:0:
160,96,66300,1,0,0:0:0:0:
152,128,66403,1,0,0:0:0:0:
160,160,66506,2,2,P|152:220|98:281,2,136.000002593994,6|2|2,0:0|0:0|0:0,0:0:0:0:
284,56,67541,1,0,0:0:0:0:
284,56,67644,1,0,0:0:0:0:
284,56,67748,1,2,0:0:0:0:
284,56,67955,1,2,0:0:0:0:
96,168,68162,6,0,P|96:224|104:272,1,102.000001945496,4|0,0:0|0:0,0:0:0:0:
384,208,68782,1,0,0:0:0:0:
372,232,69196,2,2,L|288:248,1,68.0000012969971,0|0,0:0|0:0,0:0:0:0:
248,352,69610,6,0,P|176:328|128:284,1,136.000002593994,6|0,0:0|0:0,0:0:0:0:
64,200,70231,1,2,0:0:0:0:
80,88,70437,1,0,0:0:0:0:
184,32,70644,2,0,P|200:68|228:108,1,68.0000012969971,2|0,0:0|0:0,0:0:0:0:
312,152,71058,1,2,0:0:0:0:
424,160,71265,1,2,0:0:0:0:
464,264,71472,2,0,B|464:328|464:328|400:368|336:320|328:264|256:264,1,272.000005187988,4|2,0:0|0:0,0:0:0:0:
280,266,72713,1,2,0:0:0:0:
205,78,73127,6,0,P|274:73|325:109,2,136.000002593994,4|2|2,0:0|0:0|0:0,0:0:0:0:
76,164,74162,2,0,P|60:192|44:196,2,34.0000006484985,0|0|2,0:0|0:0|0:0,0:0:0:0:
76,164,74575,1,2,0:0:0:0:
136,272,74782,2,0,P|176:316|220:328,1,102.000001945496,4|0,0:0|0:0,0:0:0:0:
280,160,75403,2,2,L|324:224,1,68.0000012969971,0|2,0:0|0:0,0:0:0:0:
408,320,75817,1,2,0:0:0:0:
400,184,76024,1,2,0:0:0:0:
456,32,76231,6,0,P|368:56|304:60,1,136.000002593994,6|0,0:0|0:0,0:0:0:0:
144,32,76851,1,2,0:0:0:0:
192,192,77058,1,0,0:0:0:0:
360,128,77265,2,2,L|408:144,2,34.0000006484985,6|0|0,0:0|0:0|0:0,0:0:0:0:
184,112,77679,1,2,0:0:0:0:
280,256,77886,1,2,0:0:0:0:
256,192,78093,12,4,78920,0:0:0:0:
396,180,79334,5,4,0:0:0:0:
64,272,79748,6,0,B|84:252|116:240|116:240|136:196|148:136,1,160,4|2,0:0|0:0,0:0:0:0:
144,352,80575,1,2,0:0:0:0:
208,224,80782,2,0,P|232:200|260:192,1,40
304,176,80989,1,0,0:0:0:0:
492,88,81196,6,0,B|472:108|440:120|440:120|420:164|408:224,1,160,4|0,0:0|0:0,0:0:0:0:
280,72,81817,2,0,P|384:32|436:48,1,160,6|6,0:0|0:0,0:0:0:0:
492,192,82437,1,0,0:0:0:0:
488,220,82541,1,0,0:0:0:0:
484,248,82644,1,0,0:0:0:0:
416,316,82851,6,0,P|328:316|296:328,1,120,4|0,0:0|0:0,0:0:0:0:
264,344,83265,2,2,P|239:319|224:264,1,80,0|2,0:0|0:0,0:0:0:0:
256,140,83679,1,0,0:0:0:0:
256,140,83886,6,2,L|220:180,1,40,6|2,0:0|0:0,0:0:0:0:
136,168,84093,2,2,P|84:132|36:116,1,80,0|2,0:0|0:0,0:0:0:0:
69,126,84506,1,0,0:0:0:0:
80,48,84713,6,0,L|160:72,1,80,4|2,0:0|0:0,0:0:0:0:
416,48,85127,2,2,L|336:72,1,80,6|2,0:0|0:0,0:0:0:0:
280,312,85541,2,0,B|248:260|248:260|264:212|248:108,1,191.999994140625,6|2,0:0|0:0,0:0:0:0:
251,130,86162,1,0,0:0:0:0:
136,48,86368,6,0,P|80:120|88:200,1,160,4|6,0:0|0:0,0:0:0:0:
82,185,87196,1,6,0:0:0:0:
344,284,87403,1,0,0:0:0:0:
360,256,87506,1,0,0:0:0:0:
352,224,87610,1,0,0:0:0:0:
88,180,87817,2,0,P|168:204|244:220,1,160,4|0,0:0|0:0,0:0:0:0:
424,164,88437,1,6,0:0:0:0:
424,164,88851,1,6,0:0:0:0:
304,24,89058,2,0,L|256:44,2,40
96,76,89472,6,0,P|112:148|72:224,1,160,4|0,0:0|0:0,0:0:0:0:
224,320,90093,2,2,P|224:288|256:244,1,80,2|0,0:0|0:0,0:0:0:0:
392,80,90506,1,6,0:0:0:0:
400,116,90610,1,0,0:0:0:0:
376,144,90713,1,0,0:0:0:0:
128,176,90920,2,2,P|176:188|232:184,1,80
256,192,91334,12,4,92162,0:0:0:0:
412,304,92575,5,4,0:0:0:0:
396,272,92679,1,0,0:0:0:0:
364,256,92782,1,0,0:0:0:0:
328,256,92886,1,0,0:0:0:0:
296,276,92989,2,2,B|260:256|224:272|224:272|248:216|224:160,1,184.000003509522,4|2,0:0|0:0,0:0:0:0:
64,64,93610,6,0,P|80:48|112:40,1,46.0000008773804
128,112,93817,2,2,P|172:148|236:140,1,92.0000017547608,2|0,0:0|0:0,0:0:0:0:
328,48,94231,2,2,P|380:48|424:84,1,92.0000017547608,2|0,0:0|0:0,0:0:0:0:
488,208,94644,2,2,B|488:240|488:240|424:288,1,92.0000017547608,6|0,0:0|0:0,0:0:0:0:
225,330,95058,1,4,0:0:0:0:
154,348,95265,2,0,P|148:319|159:297,2,46.0000008773804,0|0|2,0:0|0:0|0:0,0:0:0:0:
216,156,95679,1,2,0:0:0:0:
225,330,95886,6,4,P|245:258|209:146,1,184.000003509522
92,64,96610,1,0,0:0:0:0:
92,64,96713,1,2,0:0:0:0:
92,64,96920,2,0,P|96:92|84:132,1,46.0000008773804
16,152,97127,2,2,P|16:204|36:252,1,92.0000017547608,2|0,0:0|0:0,0:0:0:0:
136,292,97541,1,6,0:0:0:0:
136,292,97748,2,2,L|232:296,1,92.0000017547608,0|6,0:0|0:0,0:0:0:0:
304,196,98162,6,0,L|316:152,2,46.0000008773804,0|0|2,0:0|0:0|0:0,0:0:0:0:
360,16,98575,1,0,0:0:0:0:
416,248,98782,2,4,P|408:192|376:152,1,92.0000017547608,6|0,0:0|0:0,0:0:0:0:
216,160,99196,2,0,P|192:120|188:75,1,92.0000017547608,6|0,0:0|0:0,0:0:0:0:
392,48,99610,6,0,B|344:36|344:36|304:52|304:52|240:36,1,138.000002632141,4|0,0:0|0:0,0:0:0:0:
236,32,100024,1,2,0:0:0:0:
72,96,100231,1,0,0:0:0:0:
72,96,100334,1,0,0:0:0:0:
72,96,100437,2,2,B|72:144|72:144|48:188,1,92.0000017547608,2|0,0:0|0:0,0:0:0:0:
112,352,100851,2,2,B|112:304|112:304|133:265,1,92.0000017547608,2|0,0:0|0:0,0:0:0:0:
192,328,101265,6,0,P|320:324|396:292,1,184.000003509522,4|2,0:0|0:0,0:0:0:0:
440,236,101886,1,0,0:0:0:0:
440,208,101989,1,0,0:0:0:0:
440,184,102093,1,2,0:0:0:0:
416,72,102300,1,2,0:0:0:0:
400,184,102506,1,2,0:0:0:0:
384,296,102713,1,2,0:0:0:0:
296,340,102920,6,0,B|298:300|298:300|264:248|304:208|304:208|304:152,1,184.000003509522,4|2,0:0|0:0,0:0:0:0:
200,24,103541,2,2,P|236:92|248:116,2,92.0000017547608,0|6|0,0:0|0:0|0:0,0:0:0:0:
48,216,104162,2,2,P|84:284|96:308,1,92.0000017547608,6|0,0:0|0:0,0:0:0:0:
400,248,104575,6,0,P|336:208|280:208,1,92.0000017547608,4|0,0:0|0:0,0:0:0:0:
192,344,104989,1,2,0:0:0:0:
128,200,105196,1,0,0:0:0:0:
112,160,105300,1,0,0:0:0:0:
80,136,105403,1,2,0:0:0:0:
280,192,105610,1,2,0:0:0:0:
336,72,105817,6,2,P|280:96|272:112,1,46.0000008773804,6|0,0:0|0:0,0:0:0:0:
280,192,106024,2,0,P|336:168|344:152,1,46.0000008773804
408,108,106231,1,4,0:0:0:0:
488,192,106437,2,2,P|472:240|416:272,1,92.0000017547608,0|2,0:0|0:0,0:0:0:0:
304,336,106851,5,0,0:0:0:0:
272,346,106955,1,0,0:0:0:0:
240,341,107058,1,6,0:0:0:0:
72,248,107265,2,2,P|68:168|84:140,1,92.0000017547608,0|2,0:0|0:0,0:0:0:0:
156,72,107679,2,2,P|166:116|156:160,1,92.0000017547608,0|6,0:0|0:0,0:0:0:0:
36,288,108093,2,0,P|32:208|48:180,1,92.0000017547608,0|4,0:0|0:0,0:0:0:0:
68,52,108506,5,0,0:0:0:0:
68,52,108610,1,0,0:0:0:0:
68,52,108713,2,2,P|124:44|180:44,1,92.0000017547608
344,200,109127,2,2,P|298:208|252:208,1,92.0000017547608,6|0,0:0|0:0,0:0:0:0:
432,80,109541,6,2,P|392:80|323:91,1,92.0000017547608,6|0,0:0|0:0,0:0:0:0:
320,104,109851,1,0,0:0:0:0:
304,128,109955,1,2,0:0:0:0:
184,288,110162,1,0,0:0:0:0:
160,304,110265,1,0,0:0:0:0:
136,316,110368,2,0,B|108:316|88:316|88:316|72:296|48:276,2,92.0000017547608,4|0|6,0:0|0:0|0:0,0:0:0:0:
152,64,110989,1,2,0:0:0:0:
124,240,111196,1,4,0:0:0:0:
208,184,111403,6,2,L|312:216,1,92.0000017547608,0|2,0:0|0:0,0:0:0:0:
488,176,111817,1,0,0:0:0:0:
448,168,111920,1,0,0:0:0:0:
408,160,112024,1,2,0:0:0:0:
243,39,112231,6,2,L|333:101,1,92.0000017547608,0|6,0:0|0:0,0:0:0:0:
332,112,112541,1,0,0:0:0:0:
344,132,112644,1,0,0:0:0:0:
356,152,112748,1,0,0:0:0:0:
368,172,112851,1,4,0:0:0:0:
136,304,113162,2,2,P|204:276|276:288,1,138.000002632141,0|0,0:0|0:0,0:0:0:0:
448,136,113679,2,2,L|400:56,1,92.0000017547608,2|0,0:0|0:0,0:0:0:0:
248,136,114093,2,2,L|200:56,1,92.0000017547608,2|0,0:0|0:0,0:0:0:0:
56,76,114506,6,0,B|61:107|96:126|96:126|68:155|74:194,1,138.000002632141,4|0,0:0|0:0,0:0:0:0:
136,56,115127,1,0,0:0:0:0:
296,120,115334,1,2,0:0:0:0:
152,188,115541,1,2,0:0:0:0:
252,44,115748,2,2,B|284:28|284:28|356:44,1,92.0000017547608
440,88,116058,1,0,0:0:0:0:
440,88,116162,5,4,0:0:0:0:
440,88,116472,2,2,P|400:140|376:224,1,138.000002632141,0|0,0:0|0:0,0:0:0:0:
432,300,116989,1,2,0:0:0:0:
256,268,117196,2,2,P|304:240|352:256,2,92.0000017547608,0|2|0,0:0|0:0|0:0,0:0:0:0:
136,304,117817,2,4,B|131:268|90:240|90:240|110:175|201:204|201:204|276:136|356:168,1,368.000007019043
360,172,119058,1,4,0:0:0:0:
368,188,119472,5,6,0:0:0:0:
64,120,119886,1,2,0:0:0:0:
280,344,120300,1,2,0:0:0:0:
216,40,120713,1,2,0:0:0:0:
96,328,121127,1,2,0:0:0:0:
392,232,121541,1,2,0:0:0:0:
96,136,121955,1,2,0:0:0:0:
336,336,122368,1,2,0:0:0:0:
256,192,122782,12,2,124024,0:0:0:0:
256,192,124437,12,2,125264,0:0:0:0:
392,56,125679,5,4,0:0:0:0:
376,88,125782,1,0,0:0:0:0:
376,124,125886,1,0,0:0:0:0:
380,160,125989,1,0,0:0:0:0:
396,192,126093,2,0,B|436:208|436:208|416:248|368:268|296:232,1,200,4|2,0:0|0:0,0:0:0:0:
56,192,126713,6,0,P|104:160|132:160,1,50
176,120,126920,2,2,P|190:163|159:218,1,100,2|0,0:0|0:0,0:0:0:0:
64,328,127334,2,2,P|92:352|172:332,1,100,2|0,0:0|0:0,0:0:0:0:
344,304,127748,6,2,P|307:268|262:271,2,100,6|0|6,0:0|0:0|0:0,0:0:0:0:
344,304,128368,1,0,0:0:0:0:
344,304,128472,1,0,0:0:0:0:
344,304,128575,1,2,0:0:0:0:
476,174,128782,2,2,P|460:126|484:62,1,100,2|6,0:0|0:0,0:0:0:0:
472,80,129196,1,0,0:0:0:0:
312,132,129403,5,6,0:0:0:0:
240,320,129610,2,2,B|272:304|272:304|288:240,1,100,0|2,0:0|0:0,0:0:0:0:
224,60,130024,2,0,P|188:88|184:92,2,50,0|0|6,0:0|0:0|0:0,0:0:0:0:
92,200,130437,1,0,0:0:0:0:
272,128,130644,1,6,0:0:0:0:
80,96,130851,1,0,0:0:0:0:
216,240,131058,1,6,0:0:0:0:
256,352,131265,6,2,P|296:272|336:240,1,100,0|2,0:0|0:0,0:0:0:0:
480,128,131679,2,0,P|456:136|400:136,1,50
352,112,131886,1,2,0:0:0:0:
160,144,132093,1,0,0:0:0:0:
280,40,132300,5,6,0:0:0:0:
312,24,132403,1,2,0:0:0:0:
352,24,132506,1,2,0:0:0:0:
384,32,132610,1,2,0:0:0:0:
408,56,132713,6,0,P|352:104|316:196,1,150,4|0,0:0|0:0,0:0:0:0:
424,256,133334,2,2,P|350:312|343:315,1,100,0|2,0:0|0:0,0:0:0:0:
168,232,133748,2,2,P|155:140|157:132,1,100,0|2,0:0|0:0,0:0:0:0:
320,40,134162,2,2,P|405:75|411:80,1,100,0|6,0:0|0:0,0:0:0:0:
352,240,134575,5,0,0:0:0:0:
344,208,134679,1,0,0:0:0:0:
352,176,134782,1,2,0:0:0:0:
232,304,134989,1,0,0:0:0:0:
192,160,135196,1,2,0:0:0:0:
72,32,135403,1,2,0:0:0:0:
248,80,135610,1,2,0:0:0:0:
96,184,135817,1,2,0:0:0:0:
96,184,135920,1,0,0:0:0:0:
96,184,136024,6,0,B|144:180|144:180|176:220|232:228,1,150,4|0,0:0|0:0,0:0:0:0:
384,352,136644,2,2,P|425:332|449:281,1,100,0|2,0:0|0:0,0:0:0:0:
440,112,137058,2,2,P|424:56|376:32,1,100,0|2,0:0|0:0,2:0:0:0:
216,32,137472,1,0,0:0:0:0:
280,192,137679,1,6,0:0:0:0:
96,272,137886,6,2,P|72:288|64:312,2,50,0|0|2,0:0|0:0|0:0,0:0:0:0:
272,70,138300,2,2,P|296:54|304:30,2,50,0|0|6,0:0|0:0|0:0,0:0:0:0:
224,280,138713,1,0,0:0:0:0:
376,216,138920,1,6,0:0:0:0:
404,192,139024,1,0,0:0:0:0:
416,160,139127,1,0,0:0:0:0:
412,124,139231,1,0,0:0:0:0:
396,92,139334,5,6,0:0:0:0:
280,208,139541,2,0,L|216:120,1,100,0|2,0:0|0:0,0:0:0:0:
64,168,139955,2,0,P|68:141|82:124,2,50,0|0|2,0:0|0:0|0:0,0:0:0:0:
56,292,140368,6,0,P|116:260|152:260,1,100,0|2,0:0|0:0,0:0:0:0:
264,344,140782,2,0,P|309:336|352:304,1,100,0|4,0:0|0:0,0:0:0:0:
344,160,141196,2,0,P|404:128|440:128,1,100,0|4,0:0|0:0,0:0:0:0:
512,240,141610,1,0,0:0:0:0:
512,240,141713,1,0,0:0:0:0:
512,240,141817,1,2,0:0:0:0:
384,320,142024,1,2,0:0:0:0:
384,320,142231,6,0,L|352:272,1,50,4|0,0:0|0:0,0:0:0:0:
272,240,142437,2,0,L|240:192,1,50
168,144,142644,1,4,0:0:0:0:
40,32,142851,2,0,L|64:136,1,100,0|2,0:0|0:0,0:0:0:0:
96,312,143265,6,0,P|118:315|152:304,2,50,0|0|6,0:0|0:0|0:0,0:0:0:0:
128,200,143679,2,0,P|184:192|240:248,1,100,0|6,0:0|0:0,0:0:0:0:
400,192,144093,1,0,0:0:0:0:
272,296,144300,1,6,0:0:0:0:
272,296,144506,2,2,L|256:152,1,100,0|2,0:0|0:0,0:0:0:0:
224,64,144920,5,0,0:0:0:0:
256,40,145024,1,0,0:0:0:0:
296,48,145127,1,2,0:0:0:0:
352,192,145334,6,2,P|296:208|240:272,1,100,2|6,0:0|0:0,0:0:0:0:
256,280,145644,1,2,0:0:0:0:
280,320,145748,1,2,0:0:0:0:
328,336,145851,1,2,0:0:0:0:
376,320,145955,1,6,0:0:0:0:
504,240,146265,5,0,0:0:0:0:
504,240,146368,2,2,P|472:184|424:168,1,100,2|0,0:0|0:0,0:0:0:0:
296,144,146782,1,2,0:0:0:0:
424,248,146989,1,0,0:0:0:0:
278,222,147196,2,2,P|235:196|215:151,1,100,2|0,0:0|0:0,0:0:0:0:
240,40,147610,1,6,0:0:0:0:
424,40,147817,5,0,0:0:0:0:
424,40,147920,1,0,0:0:0:0:
424,40,148024,2,2,P|424:96|384:128,1,100,2|0,0:0|0:0,0:0:0:0:
168,192,148437,1,2,0:0:0:0:
272,136,148644,1,2,0:0:0:0:
56,232,148851,2,2,P|23:267|26:316,1,100
128,352,149162,1,0,0:0:0:0:
128,352,149265,6,0,P|192:312|272:296,1,150,4|0,0:0|0:0,0:0:0:0:
304,360,149679,2,2,P|332:330|336:272,1,100,2|0,0:0|0:0,0:0:0:0:
248,200,149989,1,0,0:0:0:0:
248,200,150093,2,0,P|288:168|344:160,1,100,4|0,0:0|0:0,0:0:0:0:
472,232,150506,2,2,P|433:263|385:272,1,100,6|0,0:0|0:0,0:0:0:0:
256,192,150920,12,4,151748,0:0:0:0:
96,80,152162,5,4,0:0:0:0:
400,240,152575,6,0,B|360:256|360:296|360:296|328:336|296:328|272:320,2,160,4|2|2,0:0|0:0|0:0,0:0:0:0:
296,248,153610,2,0,P|280:240|264:224,1,40
240,152,153817,1,2,0:0:0:0:
240,152,154024,1,0,0:0:0:0:
40,120,154231,6,0,B|88:152|88:152|160:144,1,120,4|0,0:0|0:0,0:0:0:0:
280,80,154851,1,0,0:0:0:0:
240,232,155058,1,2,0:0:0:0:
280,80,155265,2,2,L|256:168,1,80
448,152,155679,6,0,B|417:117|417:117|378:126|349:107|349:107|298:134,1,160,4|0,0:0|0:0,0:0:0:0:
360,264,156300,1,2,0:0:0:0:
392,24,156506,1,0,0:0:0:0:
168,96,156713,2,2,P|200:120|208:176,1,80,6|0,0:0|0:0,0:0:0:0:
80,328,157127,2,2,P|48:304|40:248,1,80,6|0,0:0|0:0,0:0:0:0:
256,192,157541,12,2,158782,0:0:0:0:
312,32,159196,6,0,P|400:88|448:160,2,160,4|2|2,0:0|0:0|0:0,0:0:0:0:
96,136,160231,1,0,0:0:0:0:
96,136,160334,1,0,0:0:0:0:
96,136,160437,2,2,P|144:144|176:176,1,80,2|0,0:0|0:0,0:0:0:0:
320,296,160851,2,2,P|272:288|216:224,1,120,6|0,0:0|0:0,0:0:0:0:
48,56,161472,2,2,P|120:48|160:64,1,80,0|2,0:0|0:0,0:0:0:0:
248,128,161886,1,2,0:0:0:0:
184,256,162093,1,2,0:0:0:0:
48,208,162300,6,0,B|32:264|32:264|56:264|64:296|64:296|128:280,1,160,6|0,0:0|0:0,0:0:0:0:
352,152,162920,2,2,L|304:240,1,80,2|0,0:0|0:0,0:0:0:0:
208,96,163334,1,6,0:0:0:0:
232,56,163437,1,0,0:0:0:0:
256,16,163541,1,0,0:0:0:0:
313,222,163748,2,0,L|265:310,1,80,2|0,0:0|0:0,0:0:0:0:
256,192,164162,12,6,164989,0:0:0:0:
344,80,165403,5,4,0:0:0:0:
160,296,165610,5,0,0:0:0:0:
160,296,165713,1,0,0:0:0:0:
160,296,165817,2,2,B|240:256|240:256|336:256,1,184.000003509522,6|2,0:0|0:0,0:0:0:0:
504,168,166437,1,0,0:0:0:0:
504,168,166541,1,0,0:0:0:0:
504,168,166644,2,2,P|448:156|395:162,1,92.0000017547608,2|0,0:0|0:0,0:0:0:0:
288,184,167058,1,2,0:0:0:0:
24,192,167265,6,0,B|23:137|63:129|63:129|103:169|151:185,1,184.000003509522,4|0,0:0|0:0,0:0:0:0:
360,48,167886,1,6,0:0:0:0:
360,48,168093,2,0,P|304:72|296:80,2,46.0000008773804,0|0|2,0:0|0:0|0:0,0:0:0:0:
376,200,168506,1,0,0:0:0:0:
232,144,168713,1,2,0:0:0:0:
273,313,168920,6,0,P|281:249|225:137,1,184.000003509522,4|0,0:0|0:0,0:0:0:0:
288,24,169541,2,2,P|286:69|328:112,1,92.0000017547608,2|0,0:0|0:0,0:0:0:0:
184,288,169955,2,0,P|185:242|144:200,1,92.0000017547608,4|0,0:0|0:0,0:0:0:0:
304,0,170368,2,2,P|302:45|344:88,1,92.0000017547608,2|0,0:0|0:0,0:0:0:0:
160,128,170782,1,6,0:0:0:0:
344,184,170989,1,2,0:0:0:0:
120,160,171196,1,6,0:0:0:0:
384,152,171403,1,2,0:0:0:0:
128,208,171610,2,0,B|160:208|185:219|185:219|248:184|336:176,1,200,4|2,0:0|0:0,0:0:0:0:
319,177,172231,1,2,0:0:0:0:
248,40,172437,5,4,0:0:0:0:
88,296,172851,1,6,0:0:0:0:
296,72,173265,1,6,0:0:0:0:
256,224,173472,1,0,0:0:0:0:
252,248,173575,1,0,0:0:0:0:
248,272,173679,1,2,0:0:0:0:
152,328,173886,6,0,P|144:272|176:208,1,92.0000017547608,4|2,0:0|0:0,0:0:0:0:
288,168,174300,1,0,0:0:0:0:
288,168,174403,1,0,0:0:0:0:
288,168,174506,2,2,B|335:192|376:176|376:176|360:216|383:288,1,184.000003509522,6|6,0:0|0:0,0:0:0:0:
224,104,175127,2,0,P|192:104|152:120,2,46.0000008773804,0|0|2,0:0|0:0|0:0,0:0:0:0:
176,208,175541,6,0,P|200:168|312:104,1,138.000002632141,4|0,0:0|0:0,0:0:0:0:
304,112,175955,1,0,0:0:0:0:
416,128,176162,1,2,0:0:0:0:
488,208,176368,1,0,0:0:0:0:
280,192,176575,6,2,P|291:190|304:192,1,23.0000004386902,6|0,0:0|0:0,0:0:0:0:
432,192,176782,1,2,0:0:0:0:
328,296,176989,1,2,0:0:0:0:
188,240,177196,1,2,0:0:0:0:
212,88,177403,1,4,0:0:0:0:
256,192,177610,12,4,178644,0:0:0:0:
256,192,179058,5,6,0:0:0:0:
