osu file format v13

[General]
AudioFilename: SPiCa x Melt.mp3
AudioLeadIn: 0
PreviewTime: 165449
Countdown: 0
SampleSet: Normal
StackLeniency: 0.7
Mode: 1
LetterboxInBreaks: 0
WidescreenStoryboard: 0

[Editor]
Bookmarks: 105453,117161
DistanceSpacing: 0.8
BeatDivisor: 4
GridSize: 4
TimelineZoom: 1

[Metadata]
Title:SPiCa x Melt
TitleUnicode:SPiCa と メルト
Artist:Toku-P ft. ryo
ArtistUnicode:とくP ft. ryo
Creator:Krisom
Version:lepidon! - Taiko Oni
Source:
Tags:Sure Cyril_Scarlet Hatsune Miku 初音ミク acane_madder Supercell Vocaloid Vocamash lepidopodus ykcarrot SiRiRu S_i_R_i_R_u Deif
BeatmapID:101368
BeatmapSetID:15066

[Difficulty]
HPDrainRate:4
CircleSize:5
OverallDifficulty:6
ApproachRate:5
SliderMultiplier:1.4
SliderTickRate:2

[Events]
//Background and Video events
0,0,"SpicaxMelt.jpg",0,0
//Break Periods
//Storyboard Layer 0 (Background)
Sprite,Background,Centre,"SB\Black.jpg",320,240 F,0,78,809,0,1 S,0,809,,1.62464 M,0,809,7395,320,240
Sprite,Background,Centre,"SB\StarSky.png",320,240 F,0,5931,7395,0,1 M,0,5931,17638,399,299,344,252 R,0,5931,17638,-0.02048035,0.2047998 F,0,7395,,1 M,0,17638,29346,344,252,307,235 S,0,17638,29346,1.02048,0.8771201 R,0,17638,29346,0.2047998,0.02047981 M,0,29346,41053,307,235,294,233 S,0,29346,41053,0.8771201,0.91808 R,0,29346,41053,0.02047981,-0.0819198
Sprite,Background,Centre,"SB\MeltA.jpg",320,240 F,0,41053,,1 S,0,41053,,0.9487999 M,0,41053,64468,331,218,294,214
Sprite,Background,Centre,"SB\Black.jpg",320,240 M,0,61551,,320,240 S,0,61551,,1.64512 F,0,61551,64478,0,1
Sprite,Background,Centre,"SB\StarSky.png",320,240 F,0,64112,64478,0,1 M,0,64112,75819,316,54,316,110 S,0,64478,,1.08192 F,0,64478,68868,1,0.98464 R,0,64844,,-1.57696
Sprite,Background,Centre,"SB\Black.jpg",320,240 F,0,76185,,1 S,0,76185,,1.6656 M,0,76185,105453,320,240,321,240
Sprite,Background,Centre,"SB\Black.jpg",320,240 S,0,174234,,1.6656 F,0,174234,190331,1 M,0,174234,203502,320,240,321,240
Sprite,Background,Centre,"SB\MeltB.jpg",320,240 S,0,174230,,0.88736 M,0,174234,203502,274,338,351,332 P,0,174234,203502,H V,0,174234,203502,1,1 F,0,203502,203868,1,0
Sprite,Background,Centre,"SB\White.jpg",320,240 M,0,102527,,320,240 S,0,102527,,1.62464 F,0,102527,105453,0,1
Sprite,Background,Centre,"SB\White.jpg",320,240 S,0,105453,,1.60416 F,0,105453,105636,1 F,0,105636,111490,1 F,0,111490,114051,1 F,0,114051,117161,1 M,0,117161,,320,240 F,0,117161,117527,1,0
Sprite,Background,Centre,"SB\Black.jpg",320,240 S,0,139844,,1.6144 M,0,139844,143502,320,240
Sprite,Background,Centre,"SB\MeltA.jpg",320,240 F,0,116978,117161,0,1 S,0,117161,,1.02048 R,0,117161,139840,-0.02047997,0.04096001 M,0,117161,139844,393,194,248,201 F,0,117161,139844,1 F,0,139844,141307,1,0
Sprite,Background,Centre,"SpicaxMelt.jpg",320,240 S,0,204962,,0.63136 M,0,204962,237157,320,240 F,0,236791,237157,1,0
//Storyboard Layer 1 (Fail)
//Storyboard Layer 2 (Pass)
//Storyboard Layer 3 (Foreground)
Sprite,Foreground,Centre,"SB\StarsWave.png",320,240 F,0,29346,30809,0,0.2473602 M,0,29346,41053,268,413,364,416
Sprite,Foreground,Centre,"SB\White.jpg",320,240 M,0,39427,39590,320,240 S,0,39590,39600,1.67584,1.6144 F,0,39590,41053,0,1 F,0,41053,41236,1,0
Sprite,Foreground,Centre,"SB\bling3.png",320,240 S,0,64478,,0.8771199 F,0,64478,65209,0,0.3328 M,0,64478,74722,291,356,341,354 F,0,65209,74722,0.3328 F,0,74722,75453,0.3328,0
Sprite,Foreground,Centre,"SB\White.jpg",320,240 S,0,74722,,1.65536 F,0,74722,75819,0,1 F,0,75819,76185,1 F,0,76185,76551,1,0
Sprite,Foreground,Centre,"SB\SpicaB.png",320,240 M,0,64474,74719,321,379,322,358 F,0,64478,65941,0,0.3635201 S,0,64478,74722,0.2729599,0.3343998 F,0,65941,74722,0.3635201 F,0,74722,75453,0.3635201,0
Sprite,Foreground,Centre,"SB\MeltB.jpg",320,240 S,0,76181,,0.8668801 M,0,76181,105453,355,344,276,338 F,0,105087,105453,1,0 F,0,105453,,0
Sprite,Foreground,Centre,"SB\la.png",320,240 F,0,105453,105636,0,1 M,0,105453,105819,152,86,152,89 F,0,105636,108014,1 F,0,108014,108380,1,0
Sprite,Foreground,Centre,"SB\la.png",320,240 F,0,106002,106185,0,1 M,0,106002,106368,199,101,200,96 F,0,106185,108014,1 F,0,108014,108380,1,0
Sprite,Foreground,Centre,"SB\la.png",320,240 F,0,106185,106368,0,1 M,0,106185,106551,249,79,248,85 F,0,106368,108014,1 F,0,108014,108380,1,0
Sprite,Foreground,Centre,"SB\la.png",320,240 F,0,106551,106734,0,1 M,0,106551,106917,290,100,290,96 F,0,106734,108014,1 F,0,108014,108380,1,0
Sprite,Foreground,Centre,"SB\la.png",320,240 F,0,106917,107100,0,1 M,0,106917,107283,341,87,341,92 F,0,107100,108014,1 F,0,108014,108380,1,0
Sprite,Foreground,Centre,"SB\la.png",320,240 F,0,107283,107466,0,1 M,0,107283,107648,388,79,388,85 F,0,107466,108014,1 F,0,108014,108380,1,0
Sprite,Foreground,Centre,"SB\la.png",320,240 F,0,107648,107831,0,1 M,0,107648,108380,435,75,435,88 F,0,107831,108380,1 F,0,108380,108563,1,0
Sprite,Foreground,Centre,"SB\~.png",320,240 F,0,107648,107831,0,1 M,0,107648,108380,479,78,478,92 F,0,107831,108380,1 F,0,108380,108563,1,0
Sprite,Foreground,Centre,"SB\la.png",320,240 F,0,108380,108563,0,1 M,0,108380,108746,288,211,296,211 F,0,108563,110941,1 F,0,110941,111307,1,0
Sprite,Foreground,Centre,"SB\la.png",320,240 F,0,108929,109112,0,1 M,0,108929,109295,345,186,350,186 F,0,109112,110941,1 F,0,110941,111307,1,0
Sprite,Foreground,Centre,"SB\la.png",320,240 F,0,109112,109295,0,1 M,0,109112,109478,391,202,396,202 F,0,109295,110941,1 F,0,110941,111307,1,0
Sprite,Foreground,Centre,"SB\la.png",320,240 F,0,109478,109661,0,0.9590399 M,0,109478,109844,437,223,442,223 F,0,109661,110941,0.9590399 F,0,110941,111307,0.9590399,0 F,0,111307,,0
Sprite,Foreground,Centre,"SB\la.png",320,240 F,0,109844,110027,0,0.8873599 M,0,109844,110209,477,247,484,247 F,0,110027,110941,0.8873599 F,0,110941,111307,0.8873599,0
Sprite,Foreground,Centre,"SB\la.png",320,240 M,0,110205,110571,533,222,538,223 F,0,110209,110392,0,1 F,0,110392,110941,1 F,0,110941,111307,1,0
Sprite,Foreground,Centre,"SB\la.png",320,240 M,0,110571,111303,563,183,574,182 F,0,110575,110758,0,1 F,0,110758,111124,1 F,0,111124,111307,1,0
Sprite,Foreground,Centre,"SB\~.png",320,240 M,0,110571,111303,607,183,619,182 F,0,110575,110758,0,1 F,0,110758,111124,1,0.8448 F,0,111124,111307,0.8448,0
Sprite,Foreground,Centre,"SB\la.png",320,240 F,0,111307,111490,1 M,0,111307,111673,140,258,141,251 F,0,111490,113868,1 F,0,113868,114234,1,0
Sprite,Foreground,Centre,"SB\la.png",320,240 F,0,111856,112039,0,1 M,0,111856,112222,190,249,191,242 F,0,112039,113868,1 F,0,113868,114234,1,0
Sprite,Foreground,Centre,"SB\la.png",320,240 F,0,112039,112222,0,1 M,0,112039,112405,243,231,242,237 F,0,112222,113868,1 F,0,113868,114234,1,0
Sprite,Foreground,Centre,"SB\la.png",320,240 F,0,112405,112587,0,1 M,0,112405,112770,290,237,290,243 F,0,112587,113868,1 F,0,113868,114234,1,0
Sprite,Foreground,Centre,"SB\la.png",320,240 F,0,112770,112953,0,1 M,0,112770,113136,336,243,336,238 F,0,112953,113868,1 F,0,113868,114234,1,0
Sprite,Foreground,Centre,"SB\la.png",320,240 F,0,113136,113319,0,1 M,0,113136,113502,383,240,382,246 F,0,113319,113868,1 F,0,113868,114234,1,0
Sprite,Foreground,Centre,"SB\la.png",320,240 F,0,113502,113685,0,1 M,0,113502,114234,429,247,429,258 F,0,113685,114051,1 F,0,114051,114234,1,0
Sprite,Foreground,Centre,"SB\~.png",320,240 F,0,113502,113685,0,1 M,0,113502,114234,471,253,471,263 F,0,113685,,1 F,0,113685,114051,1 F,0,114051,114234,1,0
Sprite,Foreground,Centre,"SB\la.png",320,240 F,0,114783,114966,0.3600002,1 M,0,114783,115148,295,416,301,416 F,0,114966,116795,1 F,0,116795,117161,1,0
Sprite,Foreground,Centre,"SB\la.png",320,240 F,0,114234,114417,0,1 M,0,114234,114600,243,443,250,443 F,0,114417,116795,1 F,0,116795,117161,1,0
Sprite,Foreground,Centre,"SB\la.png",320,240 F,0,114966,115148,0,1 M,0,114966,115331,338,423,346,423 F,0,115148,116795,1 F,0,116795,117161,1,0
Sprite,Foreground,Centre,"SB\la.png",320,240 F,0,115331,115514,0,1 M,0,115331,115697,382,440,390,440 F,0,115514,116795,1 F,0,116795,117161,1,0
Sprite,Foreground,Centre,"SB\la.png",320,240 F,0,115697,115880,0,1 M,0,115697,116063,437,426,441,426 F,0,115880,116795,1 F,0,116795,117252,1,0
Sprite,Foreground,Centre,"SB\la.png",320,240 F,0,116063,116246,0,1 M,0,116063,116429,487,409,494,409 F,0,116246,116795,1 F,0,116795,117069,1,0 F,0,117069,117161,0
Sprite,Foreground,Centre,"SB\la.png",320,240 F,0,116429,116612,0,1 M,0,116429,117161,536,420,543,421 F,0,116612,,1 F,0,116612,116978,1 F,0,116978,117161,1,0 M,0,117161,,532,375
Sprite,Foreground,Centre,"SB\Sakura.png",320,240 S,0,105453,,0.25248 F,0,105453,105636,0,0.90784 M,0,105453,108380,105,68,108,100 R,0,105453,108380,0,-2.74432 F,0,105636,108197,0.90784 F,0,108197,108380,0.90784,0
Sprite,Foreground,Centre,"SB\Sakura.png",320,240 M,0,108376,111303,483,187,496,203 S,0,108380,,0.2115199 F,0,108380,108563,0,1 R,0,108380,111307,0.6553601,-1.61792 F,0,108563,111124,1 F,0,111124,111307,1,0
Sprite,Foreground,Centre,"SB\Sakura.png",320,240 S,0,108380,,0.1500801 F,0,108380,108563,0,1 M,0,108380,111307,354,229,358,251 R,0,108380,111307,0.47104,5.46816 F,0,108563,111124,1 F,0,111124,111307,1,0
Sprite,Foreground,Centre,"SB\Sakura.png",320,240 S,0,111307,,0.25248 F,0,111307,111490,0,1 M,0,111307,114234,90,236,94,253 R,0,111307,114234,-4.52608,0.75776 F,0,111490,114051,1 F,0,114051,114234,1,0
Sprite,Foreground,Centre,"SB\Sakura.png",320,240 S,0,111307,,0.11936 F,0,111307,111490,0,1 M,0,111307,114234,122,198,124,217 R,0,111307,114234,0,-10.21952 F,0,111490,114051,1 F,0,114051,114234,1,0
Sprite,Foreground,Centre,"SB\Sakura.png",320,240 S,0,111307,,0.1808 F,0,111307,111490,0,1 M,0,111307,114234,261,212,259,227 R,0,111307,114234,9.400321,11.89888 F,0,111490,114051,1 F,0,114051,114234,1,0
Sprite,Foreground,Centre,"SB\Sakura.png",320,240 S,0,114234,,0.1808002 F,0,114234,114417,0,1 M,0,114234,117161,231,412,231,426 R,0,114234,117161,1.45408,-0.6144 F,0,114417,116978,1 F,0,116978,117161,1,0
Sprite,Foreground,Centre,"SB\~.png",320,240 F,0,116429,116612,0.2064,1 M,0,116429,117161,585,420,592,421 F,0,116612,116978,1 F,0,116978,117161,1,0
Sprite,Foreground,Centre,"SB\CuadradoYay.jpg",320,240 F,0,180082,,0.89248 M,0,180082,185936,-28,21,672,21 S,0,180082,185936,0.4470395
Sprite,Foreground,Centre,"SB\Black.jpg",320,240 F,0,151551,,1 S,0,151551,,1.63488 M,0,151551,174234,320,240
Sprite,Foreground,Centre,"SB\StarSky.png",320,240 F,0,142039,143502,0,1 S,0,142039,152283,0.8156801,0.8976002 R,0,142039,152283,0,-0.08192001 F,0,143502,151917,1 F,0,151917,152283,1,0
Sprite,Foreground,Centre,"SB\light.png",320,240 F,0,166917,172770,0,1 S,0,166917,173502,0.6620798,1.33792 R,0,166917,173502,0,1.72032 M,0,169844,,311,167 F,0,172770,,1 F,0,172770,173502,1,0
Sprite,Foreground,Centre,"SB\SpicaB.png",320,240 M,0,165453,,320,240 F,0,165453,166917,0,0.7692555 S,0,165453,173502,0.49824,0.5391998 F,0,166917,172770,0.7692555 F,0,172770,173502,0.7692555,0
Sprite,Foreground,Centre,"SB\bling2.png",320,240 S,0,165453,,0.8054401 F,0,165453,166917,0,1 F,0,166917,172770,1,0.9938524 F,0,172770,173502,0.9938524,0
Sprite,Foreground,Centre,"SB\White.jpg",320,240 M,0,173502,,320,240 S,0,173502,,1.63488 F,0,173502,174234,0,1 F,0,174234,174417,1,0
Sprite,Foreground,Centre,"SB\White.jpg",320,240 F,0,202039,202770,0,0.80032 S,0,202039,204966,1.6144 F,0,202770,203502,0.80032,1 F,0,203502,204966,1 F,0,204966,205327,1,0 F,0,205327,,0
Sprite,Foreground,Centre,"SB\lyrics\Lyric1.png",320,240 F,0,5941,6124,0,1 M,0,5941,8868,116,445,143,444 F,0,6124,8502,1,0.9234973 F,0,8502,8868,0.9234973,0
Sprite,Foreground,Centre,"SB\lyrics\Lyric2.png",320,240 F,0,8868,9600,0,1 M,0,8868,13258,136,438,163,441 F,0,9600,12892,1 F,0,12892,13258,1,0
Sprite,Foreground,Centre,"SB\lyrics\Lyric3.png",320,240 F,0,13990,14356,0,1 M,0,13990,16185,79,440,93,438 F,0,14356,15819,1 F,0,15819,16185,1,0
Sprite,Foreground,Centre,"SB\lyrics\Lyric4.png",320,240 F,0,16917,17283,0,1 M,0,16917,20575,169,436,186,436 F,0,17283,20209,1 F,0,20209,20575,1,0
Sprite,Foreground,Centre,"SB\lyrics\Lyric5.png",320,240 F,0,20575,20941,0,1 M,0,20575,24966,219,427,240,429 F,0,20941,24234,1 F,0,24234,24966,1,0
Sprite,Foreground,Centre,"SB\lyrics\Lyric6.png",320,240 F,0,25697,26063,0,1 M,0,25697,27527,162,449,171,449 F,0,26063,27161,1 F,0,27161,27527,1,0 M,0,27527,,171,449
Sprite,Foreground,Centre,"SB\lyrics\Lyric7.png",320,240 F,0,27527,27892,0,1 M,0,27527,28990,136,443,156,443 F,0,27892,28807,1 F,0,28807,28990,1,0
Sprite,Foreground,Centre,"SB\lyrics\Lyric8.png",320,240 F,0,28990,29356,0,1 M,0,28990,33746,293,443,304,442 F,0,29356,33380,1 F,0,33380,33746,1,0
Sprite,Foreground,Centre,"SB\lyrics\Lyric9.png",320,240 F,0,34478,34844,0,1 M,0,34478,38868,194,441,212,441 F,0,34844,38502,1 F,0,38502,38868,1,0
Sprite,Foreground,Centre,"SB\lyrics\Lyric10.png",320,240 F,0,38868,39051,0,1 M,0,38868,40331,130,445,134,444 F,0,39051,40148,1 F,0,40148,40331,1,0
Sprite,Foreground,Centre,"SB\lyrics\Lyric11.png",320,240 F,0,41063,41246,0,1 M,0,41063,43624,137,442,161,443 F,0,41246,43441,1 F,0,43441,43624,1,0
Sprite,Foreground,Centre,"SB\lyrics\Lyric12.png",320,240 F,0,43624,43990,0,1 M,0,43624,52039,253,447,295,447 F,0,43990,51307,1 F,0,51307,52039,1,0
Sprite,Foreground,Centre,"SB\lyrics\Lyric13.png",320,240 F,0,52770,53136,0,1 M,0,52770,57892,211,444,238,445 F,0,53136,57527,1 F,0,57527,57892,1,0
Sprite,Foreground,Centre,"SB\lyrics\Lyric14.png",320,240 F,0,57892,58258,0,1 M,0,57892,63014,261,444,273,442 F,0,58258,62283,1 F,0,62283,63014,1,0
Sprite,Foreground,Centre,"SB\lyrics\Lyric15.png",320,240 M,0,64478,,315,425 F,0,64478,64844,0,0.8464 S,0,64478,68868,1,1.04096 F,0,64844,68502,0.8464,0.7644801 F,0,68502,68868,0.7644801,0
Sprite,Foreground,Centre,"SB\lyrics\Lyric16.png",320,240 M,0,69600,,315,411 F,0,69600,69966,0,1 S,0,69600,74722,1,1.07168 F,0,69966,74722,1 F,0,74722,75087,1,0
Sprite,Foreground,Centre,"SB\lyrics\Lyric17.png",320,240 F,0,76185,76551,0,1 M,0,76185,80575,423,398,442,398 F,0,76551,80209,1 F,0,80209,80575,1,0
Sprite,Foreground,Centre,"SB\lyrics\Lyric18.png",320,240 S,0,80575,,0.9283197 F,0,80575,80941,0,1 M,0,80575,87892,304,403,333,403 F,0,80941,87527,1 F,0,87527,87892,1,0
Sprite,Foreground,Centre,"SB\lyrics\Lyric19.png",320,240 F,0,87892,88258,0,1 M,0,87892,92283,397,402,412,402 F,0,88258,91917,1 F,0,91917,92283,1,0
Sprite,Foreground,Centre,"SB\lyrics\Lyric20.png",320,240 F,0,92283,92648,0,1 M,0,92283,98868,363,402,395,401 F,0,92648,98502,1 F,0,98502,98868,1,0
Sprite,Foreground,Centre,"SB\lyrics\Lyric21.png",320,240 F,0,99234,99600,0,1 M,0,99234,105453,366,404,379,404 F,0,99600,105087,1 F,0,105087,105453,1,0.11424
Sprite,Foreground,Centre,"SB\lyrics\Lyric22.png",320,240 F,0,117252,117527,0,1 M,0,117252,121185,231,431,249,432 F,0,117527,120819,1 F,0,120819,121185,1,0
Sprite,Foreground,Centre,"SB\lyrics\Lyric23.png",320,240 F,0,121185,121551,0,1 M,0,121185,127405,190,432,226,432 F,0,121551,126673,1 F,0,126673,127405,1,0
Sprite,Foreground,Centre,"SB\lyrics\Lyric24.png",320,240 S,0,128868,,0.7952 F,0,128868,129234,0,1 M,0,128868,134722,315,430,321,441 F,0,129234,134356,1 F,0,134356,134722,1,0
Sprite,Foreground,Centre,"SB\lyrics\Lyric25.png",320,240 F,0,135087,135453,0,1 M,0,135087,139844,251,439,290,439 F,0,135453,139478,1 F,0,139478,139844,1,0
Sprite,Foreground,Centre,"SB\lyrics\Lyric26.png",320,240 M,0,139840,,321,315 F,0,139844,139935,0,0.950246 S,0,139844,141673,1.0512,1.27648 F,0,139935,141673,0.950246,0
Sprite,Foreground,Centre,"SB\lyrics\Lyric26.png",320,240 M,0,139840,,320,316 F,0,139844,140575,1,0 S,0,139844,140575,0.90784,1.52224
Sprite,Foreground,Centre,"SB\lyrics\Lyric27.png",320,240 F,0,141673,142039,0,1 M,0,141673,146429,245,444,272,444 F,0,142039,146063,1 F,0,146063,146429,1,0.06815987
Sprite,Foreground,Centre,"SB\lyrics\Lyric28.png",320,240 F,0,146429,146795,0,1 M,0,146429,153014,205,439,233,439 F,0,146795,152283,1 F,0,152283,153014,1,0
Sprite,Foreground,Centre,"SB\lyrics\Lyric29.png",320,240 M,0,153746,,321,306 F,0,153746,154112,0,0.7696001 S,0,153746,155941,0.71328,0.7951998 F,0,154112,155575,0.7696001,0.79008 F,0,155575,155941,0.79008,0
Sprite,Foreground,Centre,"SB\lyrics\Lyric30.png",320,240 M,0,156307,,316,309 F,0,156307,156673,0,0.5529602 S,0,156307,160697,0.7849603,0.8259204 F,0,156673,160331,0.5529602 F,0,160331,160697,0.5529602,0
Sprite,Foreground,Centre,"SB\lyrics\Lyric31.png",320,240 M,0,160697,,308,308 F,0,160697,161063,0,0.7798399 S,0,160697,165453,0.744,0.8054401 F,0,161063,164722,0.7798399 F,0,164722,165453,0.7798399,0
Sprite,Foreground,Centre,"SB\lyrics\Lyric32.png",320,240 M,0,165453,,322,375 F,0,165453,166185,0,1 S,0,165453,167648,0.8464,0.87712 F,0,166185,167283,1,0.9917976 F,0,167283,167648,0.9917976,0.0009109163
Sprite,Foreground,Centre,"SB\lyrics\Lyric33.png",320,240 M,0,167648,,317,374 F,0,167648,168014,0,1 S,0,167648,170209,0.8463998,0.9385599 F,0,168014,169844,1,0.9612756 F,0,169844,170209,0.9612756,0
Sprite,Foreground,Centre,"SB\lyrics\Lyric34.png",320,240 M,0,170209,,320,374 F,0,170209,170575,0,1 S,0,170209,172770,0.8987198,0.9499198 F,0,170575,172405,1 F,0,172405,172770,1,0.2524799
Sprite,Foreground,Centre,"SB\lyrics\Lyric35.png",320,240 S,0,174234,,1 F,0,174234,174600,0,1 M,0,174234,178624,303,402,336,400 F,0,174600,177892,1 F,0,177892,178624,1,0.02720001
Sprite,Foreground,Centre,"SB\lyrics\Lyric36.png",320,240 F,0,178624,178990,0.2371197,1 M,0,178624,185941,309,399,336,399 F,0,178990,185575,1 F,0,185575,185941,1,0
Sprite,Foreground,Centre,"SB\lyrics\Lyric37.png",320,240 F,0,185941,186307,0,1 M,0,185941,190331,301,401,324,401 F,0,186307,189966,1 F,0,189966,190331,1,0
Sprite,Foreground,Centre,"SB\lyrics\Lyric38.png",320,240 F,0,190331,190697,0,1 M,0,190331,196917,311,401,336,401 F,0,190697,196185,1 F,0,196185,196917,1,0
Sprite,Foreground,Centre,"SB\lyrics\Lyric39.png",320,240 F,0,197283,197648,0,1 M,0,197283,202039,311,401,340,399 F,0,197648,201673,1 F,0,201673,202039,1,0
Sprite,Foreground,Centre,"SB\lyrics\Lyric40.png",320,240 M,0,202401,,317,64 F,0,202405,202587,0,1 F,0,202587,203136,1 F,0,203136,203502,1,0 S,0,203502,,1.13312
//Storyboard Sound Samples
//Background Colour Transformations
3,100,163,228,254

[TimingPoints]
84,365.853658536585,4,1,0,55,1,0
40876,-100,4,1,0,70,0,0
76181,-100,4,1,0,75,0,1
105449,-100,4,1,0,70,0,0
153559,-100,4,1,0,55,0,0
163803,-100,4,1,0,60,0,0
165358,-100,4,1,0,65,0,0
171212,-100,4,1,0,70,0,0
174230,-100,4,1,0,75,0,1
203498,-100,4,1,0,70,0,0
204962,-100,4,1,0,65,0,1
222523,-100,4,1,0,65,0,0

[Colours]
Combo1 : 183,237,255
Combo2 : 5,240,5
Combo3 : 240,5,5
Combo4 : 5,5,240
Combo5 : 249,213,6
SliderBorder : 202,202,202

[HitObjects]
216,196,5937,5,8,0:0:0:0:
325,221,6303,1,0,0:0:0:0:
437,159,6669,1,8,0:0:0:0:
458,155,7401,1,8,0:0:0:0:
433,264,7766,1,0,0:0:0:0:
401,156,8132,1,8,0:0:0:0:
411,136,8864,1,0,0:0:0:0:
494,211,9230,1,0,0:0:0:0:
407,139,9596,1,8,0:0:0:0:
191,200,10327,1,8,0:0:0:0:
301,181,10693,1,0,0:0:0:0:
412,175,11059,1,8,0:0:0:0:
405,100,11303,1,0,0:0:0:0:
386,172,11547,1,0,0:0:0:0:
379,246,11791,5,8,0:0:0:0:
271,215,12157,1,0,0:0:0:0:
371,166,12523,1,8,0:0:0:0:
442,186,12705,1,0,0:0:0:0:
469,20,13254,1,8,0:0:0:0:
435,126,13620,1,0,0:0:0:0:
488,224,13986,1,8,0:0:0:0:
431,225,14169,1,0,0:0:0:0:
469,20,14718,1,0,0:0:0:0:
435,126,15084,1,0,0:0:0:0:
488,224,15450,1,8,0:0:0:0:
431,225,15633,1,0,0:0:0:0:
307,111,16181,1,8,0:0:0:0:
326,163,16547,1,0,0:0:0:0:
437,152,16913,1,8,0:0:0:0:
391,211,17157,1,0,0:0:0:0:
339,265,17401,1,0,0:0:0:0:
364,194,17644,5,8,0:0:0:0:
470,160,18010,1,0,0:0:0:0:
375,99,18376,1,8,0:0:0:0:
409,143,18559,1,0,0:0:0:0:
411,255,18925,1,0,0:0:0:0:
396,200,19108,1,8,0:0:0:0:
470,160,19474,1,0,0:0:0:0:
375,99,19840,1,8,0:0:0:0:
409,143,20023,1,0,0:0:0:0:
411,255,20389,1,0,0:0:0:0:
396,200,20572,1,0,0:0:0:0:
470,160,20937,1,0,0:0:0:0:
375,99,21303,1,8,0:0:0:0:
409,143,21486,1,0,0:0:0:0:
411,255,21852,1,0,0:0:0:0:
396,200,22035,1,8,0:0:0:0:
283,200,22401,1,0,0:0:0:0:
353,113,22766,1,8,0:0:0:0:
384,133,23010,1,0,0:0:0:0:
327,181,23254,1,0,0:0:0:0:
385,134,23498,5,8,0:0:0:0:
410,243,23864,1,0,0:0:0:0:
418,326,24138,1,0,0:0:0:0:
469,148,24230,1,8,0:0:0:0:
427,185,24413,1,0,0:0:0:0:
336,251,24779,1,0,0:0:0:0:
372,208,24962,1,8,0:0:0:0:
332,103,25327,1,0,0:0:0:0:
387,165,25602,1,0,0:0:0:0:
414,164,25693,1,8,0:0:0:0:
450,206,25876,1,0,0:0:0:0:
352,261,26242,1,0,0:0:0:0:
296,267,26425,1,0,0:0:0:0:
247,166,26791,1,0,0:0:0:0:
324,197,27065,1,0,0:0:0:0:
357,150,27157,1,8,0:0:0:0:
397,223,27340,1,0,0:0:0:0:
362,116,27705,1,0,0:0:0:0:
414,136,27888,1,8,0:0:0:0:
506,199,28254,1,0,0:0:0:0:
362,116,28620,1,12,0:0:0:0:
305,164,28864,1,4,0:0:0:0:
276,233,29108,1,4,0:0:0:0:
350,235,29352,5,4,0:0:0:0:
188,188,29901,1,0,0:0:0:0:
197,242,30083,1,0,0:0:0:0:
350,235,30449,1,8,0:0:0:0:
326,125,30815,1,4,0:0:0:0:
438,122,31181,1,8,0:0:0:0:
387,221,31547,1,0,0:0:0:0:
329,207,31913,1,8,0:0:0:0:
275,222,32096,1,0,0:0:0:0:
384,199,32279,1,4,0:0:0:0:
394,87,32644,1,0,0:0:0:0:
388,198,33010,1,8,0:0:0:0:
348,302,33376,1,8,0:0:0:0:
274,217,33742,1,4,0:0:0:0:
428,54,34474,1,0,0:0:0:0:
422,165,34840,1,0,0:0:0:0:
324,220,35205,5,4,0:0:0:0:
380,225,35937,1,0,0:0:0:0:
373,336,36303,1,0,0:0:0:0:
317,238,36669,1,4,0:0:0:0:
463,156,37218,1,8,0:0:0:0:
424,196,37401,1,8,0:0:0:0:
377,297,37766,1,0,0:0:0:0:
291,224,38132,1,4,0:0:0:0:
474,94,38864,1,0,0:0:0:0:
417,190,39230,1,8,0:0:0:0:
363,207,39413,1,8,0:0:0:0:
320,170,39596,1,4,0:0:0:0:
271,270,39962,1,4,0:0:0:0:
271,270,40327,1,4,0:0:0:0:
271,270,40693,1,4,0:0:0:0:
181,203,41059,5,0,0:0:0:0:
291,185,41425,1,8,0:0:0:0:
346,192,41608,1,0,0:0:0:0:
371,202,41699,1,0,0:0:0:0:
396,214,41791,1,0,0:0:0:0:
433,172,41974,1,8,0:0:0:0:
433,115,42157,1,0,0:0:0:0:
433,142,42248,1,0,0:0:0:0:
452,162,42340,1,8,0:0:0:0:
497,194,42523,1,0,0:0:0:0:
452,162,42705,1,8,0:0:0:0:
439,216,42888,1,0,0:0:0:0:
327,202,43254,1,0,0:0:0:0:
379,182,43437,1,8,0:0:0:0:
379,182,43529,1,8,0:0:0:0:
379,182,43620,1,8,0:0:0:0:
402,232,43803,1,8,0:0:0:0:
457,240,43986,1,0,0:0:0:0:
406,139,44352,1,8,0:0:0:0:
429,189,44535,1,0,0:0:0:0:
412,211,44626,1,0,0:0:0:0:
412,211,44718,1,0,0:0:0:0:
437,161,44901,1,8,0:0:0:0:
429,189,45083,1,0,0:0:0:0:
429,189,45175,1,0,0:0:0:0:
437,161,45266,1,8,0:0:0:0:
386,186,45449,1,0,0:0:0:0:
429,189,45632,1,8,0:0:0:0:
434,216,45724,1,8,0:0:0:0:
412,211,45815,1,8,0:0:0:0:
360,233,45998,1,8,0:0:0:0:
250,258,46364,1,8,0:0:0:0:
277,252,46455,1,8,0:0:0:0:
304,246,46547,1,8,0:0:0:0:
304,246,46730,1,8,0:0:0:0:
251,225,46913,5,0,0:0:0:0:
298,194,47096,1,8,0:0:0:0:
353,183,47279,1,0,0:0:0:0:
380,178,47370,1,0,0:0:0:0:
406,169,47462,1,8,0:0:0:0:
461,173,47644,1,0,0:0:0:0:
422,213,47827,1,8,0:0:0:0:
368,195,48010,1,0,0:0:0:0:
368,195,48102,1,0,0:0:0:0:
374,222,48193,1,8,0:0:0:0:
251,225,48376,1,0,0:0:0:0:
298,194,48559,1,8,0:0:0:0:
353,183,48742,1,0,0:0:0:0:
380,178,48833,1,0,0:0:0:0:
406,169,48925,1,8,0:0:0:0:
461,173,49107,1,0,0:0:0:0:
422,213,49290,1,8,0:0:0:0:
368,195,49473,1,0,0:0:0:0:
368,195,49565,1,0,0:0:0:0:
374,222,49656,1,8,0:0:0:0:
319,209,49840,1,0,0:0:0:0:
349,162,50023,1,8,0:0:0:0:
392,197,50205,1,0,0:0:0:0:
410,218,50297,1,0,0:0:0:0:
427,239,50388,1,0,0:0:0:0:
442,185,50571,1,8,0:0:0:0:
394,155,50754,1,0,0:0:0:0:
411,176,50846,1,0,0:0:0:0:
411,176,50937,1,0,0:0:0:0:
435,161,51120,1,8,0:0:0:0:
378,159,51303,1,0,0:0:0:0:
421,193,51486,1,8,0:0:0:0:
427,239,51669,1,0,0:0:0:0:
427,239,51760,1,0,0:0:0:0:
411,262,51852,1,0,0:0:0:0:
376,218,52035,1,8,0:0:0:0:
376,218,52126,1,8,0:0:0:0:
376,218,52218,1,8,0:0:0:0:
376,218,52309,1,8,0:0:0:0:
376,218,52401,1,8,0:0:0:0:
181,203,52766,5,0,0:0:0:0:
291,185,53132,1,8,0:0:0:0:
346,192,53315,1,0,0:0:0:0:
371,202,53406,1,0,0:0:0:0:
396,214,53498,1,0,0:0:0:0:
433,172,53681,1,8,0:0:0:0:
433,115,53864,1,0,0:0:0:0:
433,142,53955,1,0,0:0:0:0:
452,162,54047,1,8,0:0:0:0:
497,194,54230,1,0,0:0:0:0:
452,162,54412,1,8,0:0:0:0:
439,216,54595,1,0,0:0:0:0:
327,202,54961,1,0,0:0:0:0:
379,182,55144,1,8,0:0:0:0:
379,182,55236,1,8,0:0:0:0:
379,182,55327,1,8,0:0:0:0:
402,232,55510,1,8,0:0:0:0:
457,240,55693,1,0,0:0:0:0:
406,139,56059,1,8,0:0:0:0:
429,189,56242,1,0,0:0:0:0:
412,211,56333,1,0,0:0:0:0:
412,211,56425,1,0,0:0:0:0:
437,161,56608,1,8,0:0:0:0:
429,189,56790,1,0,0:0:0:0:
429,189,56882,1,0,0:0:0:0:
437,161,56973,1,8,0:0:0:0:
386,186,57156,1,0,0:0:0:0:
429,189,57339,1,8,0:0:0:0:
434,216,57431,1,8,0:0:0:0:
412,211,57522,1,8,0:0:0:0:
360,233,57705,1,8,0:0:0:0:
250,258,58071,1,8,0:0:0:0:
277,252,58162,1,8,0:0:0:0:
304,246,58254,1,8,0:0:0:0:
304,246,58437,1,8,0:0:0:0:
251,225,58620,5,0,0:0:0:0:
298,194,58803,1,8,0:0:0:0:
353,183,58986,1,0,0:0:0:0:
380,178,59077,1,0,0:0:0:0:
406,169,59169,1,8,0:0:0:0:
461,173,59351,1,0,0:0:0:0:
422,213,59534,1,8,0:0:0:0:
368,195,59717,1,0,0:0:0:0:
368,195,59809,1,0,0:0:0:0:
374,222,59900,1,8,0:0:0:0:
251,225,60083,1,0,0:0:0:0:
298,194,60266,1,8,0:0:0:0:
353,183,60449,1,0,0:0:0:0:
380,178,60540,1,0,0:0:0:0:
406,169,60632,1,8,0:0:0:0:
461,173,60814,1,0,0:0:0:0:
422,213,60997,1,8,0:0:0:0:
368,195,61180,1,0,0:0:0:0:
368,195,61272,1,0,0:0:0:0:
374,222,61363,1,8,0:0:0:0:
319,209,61547,1,0,0:0:0:0:
349,162,61730,1,8,0:0:0:0:
392,197,61912,1,0,0:0:0:0:
410,218,62004,1,0,0:0:0:0:
427,239,62095,1,0,0:0:0:0:
442,185,62278,1,8,0:0:0:0:
394,155,62461,1,0,0:0:0:0:
411,176,62553,1,0,0:0:0:0:
411,176,62644,1,0,0:0:0:0:
435,161,62827,1,8,0:0:0:0:
378,159,63010,1,0,0:0:0:0:
421,193,63193,1,8,0:0:0:0:
427,239,63376,1,0,0:0:0:0:
427,239,63467,1,0,0:0:0:0:
411,262,63559,1,0,0:0:0:0:
376,218,63742,1,8,0:0:0:0:
376,218,63833,1,8,0:0:0:0:
376,218,63925,1,8,0:0:0:0:
376,218,64016,1,8,0:0:0:0:
376,218,64108,1,0,0:0:0:0:
285,152,64474,5,0,0:0:0:0:
452,164,65023,1,8,0:0:0:0:
420,210,65205,1,0,0:0:0:0:
331,278,65571,1,0,0:0:0:0:
362,231,65754,1,8,0:0:0:0:
371,286,65937,1,0,0:0:0:0:
371,229,66120,1,8,0:0:0:0:
365,201,66212,1,8,0:0:0:0:
359,173,66303,1,8,0:0:0:0:
414,164,66486,1,0,0:0:0:0:
361,145,66669,1,8,0:0:0:0:
404,180,66852,1,0,0:0:0:0:
291,176,67218,1,0,0:0:0:0:
267,226,67401,1,0,0:0:0:0:
293,234,67492,1,0,0:0:0:0:
318,244,67583,1,0,0:0:0:0:
414,164,67766,1,8,0:0:0:0:
406,275,68132,1,0,0:0:0:0:
406,275,68224,1,0,0:0:0:0:
406,275,68315,1,0,0:0:0:0:
354,254,68498,1,8,0:0:0:0:
435,176,68864,1,0,0:0:0:0:
426,231,69047,1,0,0:0:0:0:
354,97,69230,1,8,0:0:0:0:
377,112,69321,1,8,0:0:0:0:
380,139,69413,1,0,0:0:0:0:
384,194,69596,1,8,0:0:0:0:
383,221,69687,1,8,0:0:0:0:
376,248,69779,1,8,0:0:0:0:
370,275,69870,1,8,0:0:0:0:
380,248,69962,1,0,0:0:0:0:
384,194,70144,1,8,0:0:0:0:
328,189,70327,5,0,0:0:0:0:
216,203,70693,1,0,0:0:0:0:
270,189,70876,1,8,0:0:0:0:
324,174,71059,1,0,0:0:0:0:
404,252,71425,1,8,0:0:0:0:
466,158,71791,1,0,0:0:0:0:
447,210,71974,1,8,0:0:0:0:
434,235,72065,1,8,0:0:0:0:
434,235,72157,1,8,0:0:0:0:
386,265,72340,1,8,0:0:0:0:
364,213,72523,1,0,0:0:0:0:
351,188,72614,1,0,0:0:0:0:
335,164,72705,1,0,0:0:0:0:
380,131,72888,1,8,0:0:0:0:
282,185,73254,1,0,0:0:0:0:
252,232,73437,1,0,0:0:0:0:
238,256,73529,1,0,0:0:0:0:
386,265,73620,1,8,0:0:0:0:
370,211,73803,1,0,0:0:0:0:
335,164,73986,1,8,0:0:0:0:
384,190,74169,1,8,0:0:0:0:
384,190,74260,1,8,0:0:0:0:
397,214,74352,1,0,0:0:0:0:
434,172,74535,1,8,0:0:0:0:
392,133,74718,1,4,0:0:0:0:
92,195,76181,5,0,0:0:0:0:
146,209,76364,1,0,0:0:0:0:
201,203,76547,1,8,0:0:0:0:
256,201,76730,1,0,0:0:0:0:
283,200,76821,1,0,0:0:0:0:
311,200,76913,1,0,0:0:0:0:
366,191,77096,1,0,0:0:0:0:
417,168,77279,1,8,0:0:0:0:
400,278,77644,1,0,0:0:0:0:
400,249,77736,1,0,0:0:0:0:
400,249,77827,1,0,0:0:0:0:
423,198,78010,1,8,0:0:0:0:
384,157,78193,1,0,0:0:0:0:
417,168,78376,1,8,0:0:0:0:
417,168,78468,1,8,0:0:0:0:
444,173,78559,1,0,0:0:0:0:
444,173,78742,1,8,0:0:0:0:
431,227,78925,1,0,0:0:0:0:
376,239,79108,1,0,0:0:0:0:
320,246,79291,1,0,0:0:0:0:
345,196,79474,1,8,0:0:0:0:
444,173,79657,1,0,0:0:0:0:
444,173,79748,1,0,0:0:0:0:
444,173,79840,1,0,0:0:0:0:
400,207,80023,1,0,0:0:0:0:
417,153,80205,1,8,0:0:0:0:
464,254,80571,1,0,0:0:0:0:
451,228,80663,1,0,0:0:0:0:
438,203,80754,1,0,0:0:0:0:
417,153,80937,1,8,0:0:0:0:
375,190,81120,1,0,0:0:0:0:
444,173,81303,1,8,0:0:0:0:
444,173,81394,1,8,0:0:0:0:
468,187,81486,1,0,0:0:0:0:
468,187,81577,1,0,0:0:0:0:
438,203,81669,1,8,0:0:0:0:
325,200,82035,5,0,0:0:0:0:
269,189,82218,1,0,0:0:0:0:
317,160,82401,1,8,0:0:0:0:
372,163,82583,1,0,0:0:0:0:
400,165,82675,1,0,0:0:0:0:
372,163,82766,1,0,0:0:0:0:
400,211,82949,1,0,0:0:0:0:
443,175,83132,1,8,0:0:0:0:
422,227,83315,1,0,0:0:0:0:
380,264,83498,1,0,0:0:0:0:
324,267,83681,1,0,0:0:0:0:
336,212,83864,1,8,0:0:0:0:
346,157,84047,1,0,0:0:0:0:
346,157,84138,1,0,0:0:0:0:
346,157,84230,1,0,0:0:0:0:
401,166,84413,1,0,0:0:0:0:
443,175,84596,1,8,0:0:0:0:
498,178,84779,1,0,0:0:0:0:
462,221,84962,1,0,0:0:0:0:
438,205,85053,1,8,0:0:0:0:
417,186,85144,1,0,0:0:0:0:
443,175,85327,1,8,0:0:0:0:
401,166,85510,1,0,0:0:0:0:
417,186,85693,1,0,0:0:0:0:
443,175,85785,1,8,0:0:0:0:
469,165,85876,1,0,0:0:0:0:
469,165,86059,1,8,0:0:0:0:
438,205,86242,1,0,0:0:0:0:
399,245,86425,1,0,0:0:0:0:
400,188,86608,1,8,0:0:0:0:
395,215,86699,1,8,0:0:0:0:
395,215,86791,1,8,0:0:0:0:
395,215,86882,1,8,0:0:0:0:
401,166,86974,1,0,0:0:0:0:
401,166,87157,1,8,0:0:0:0:
401,166,87248,1,8,0:0:0:0:
443,175,87340,1,0,0:0:0:0:
497,162,87523,1,8,0:0:0:0:
497,162,87614,1,8,0:0:0:0:
443,175,87705,1,0,0:0:0:0:
92,195,87888,5,0,0:0:0:0:
146,209,88071,1,0,0:0:0:0:
201,203,88254,1,8,0:0:0:0:
256,201,88437,1,0,0:0:0:0:
283,200,88528,1,0,0:0:0:0:
311,200,88620,1,0,0:0:0:0:
366,191,88803,1,0,0:0:0:0:
417,168,88986,1,8,0:0:0:0:
400,278,89351,1,0,0:0:0:0:
400,249,89443,1,0,0:0:0:0:
400,249,89534,1,0,0:0:0:0:
423,198,89717,1,8,0:0:0:0:
384,157,89900,1,0,0:0:0:0:
417,168,90083,1,8,0:0:0:0:
417,168,90175,1,8,0:0:0:0:
444,173,90266,1,0,0:0:0:0:
444,173,90449,1,8,0:0:0:0:
431,227,90632,1,0,0:0:0:0:
376,239,90815,1,0,0:0:0:0:
320,246,90998,1,0,0:0:0:0:
345,196,91181,1,8,0:0:0:0:
444,173,91364,1,0,0:0:0:0:
444,173,91455,1,0,0:0:0:0:
444,173,91547,1,0,0:0:0:0:
400,207,91730,1,0,0:0:0:0:
417,153,91912,1,8,0:0:0:0:
464,254,92278,1,0,0:0:0:0:
451,228,92370,1,0,0:0:0:0:
438,203,92461,1,0,0:0:0:0:
417,153,92644,1,8,0:0:0:0:
375,190,92827,1,0,0:0:0:0:
444,173,93010,1,8,0:0:0:0:
444,173,93101,1,8,0:0:0:0:
468,187,93193,1,0,0:0:0:0:
468,187,93284,1,0,0:0:0:0:
438,203,93376,1,8,0:0:0:0:
325,201,93742,5,0,0:0:0:0:
438,119,94108,1,8,0:0:0:0:
438,203,94291,1,0,0:0:0:0:
444,173,94474,1,8,0:0:0:0:
468,187,94657,1,0,0:0:0:0:
468,187,94840,1,8,0:0:0:0:
452,210,94931,1,8,0:0:0:0:
438,203,95023,1,0,0:0:0:0:
325,201,95205,1,0,0:0:0:0:
423,148,95571,1,8,0:0:0:0:
378,181,95754,1,0,0:0:0:0:
428,155,95937,1,8,0:0:0:0:
423,210,96120,1,0,0:0:0:0:
394,161,96303,1,8,0:0:0:0:
406,185,96394,1,8,0:0:0:0:
378,181,96486,1,0,0:0:0:0:
353,130,96669,1,0,0:0:0:0:
406,185,97035,1,8,0:0:0:0:
461,191,97218,1,0,0:0:0:0:
428,155,97401,1,8,0:0:0:0:
406,185,97583,1,0,0:0:0:0:
461,194,97766,1,8,0:0:0:0:
488,200,97858,1,8,0:0:0:0:
462,210,97949,1,0,0:0:0:0:
410,232,98132,1,0,0:0:0:0:
374,188,98315,1,8,0:0:0:0:
372,216,98407,1,8,0:0:0:0:
350,233,98498,1,8,0:0:0:0:
350,233,98590,1,8,0:0:0:0:
322,233,98681,1,0,0:0:0:0:
347,183,98864,1,8,0:0:0:0:
347,183,98955,1,8,0:0:0:0:
347,183,99047,1,8,0:0:0:0:
347,183,99138,1,8,0:0:0:0:
374,188,99230,1,0,0:0:0:0:
427,172,99413,1,8,0:0:0:0:
380,140,99596,5,0,0:0:0:0:
432,121,99779,1,8,0:0:0:0:
432,177,99962,1,0,0:0:0:0:
426,204,100053,1,0,0:0:0:0:
426,204,100144,1,0,0:0:0:0:
370,211,100327,1,8,0:0:0:0:
370,211,100693,1,8,0:0:0:0:
331,251,100876,1,8,0:0:0:0:
373,214,101059,1,0,0:0:0:0:
432,177,101242,1,8,0:0:0:0:
436,232,101425,1,0,0:0:0:0:
436,232,101516,1,0,0:0:0:0:
436,232,101608,1,0,0:0:0:0:
394,193,101791,1,8,0:0:0:0:
284,169,102157,1,8,0:0:0:0:
338,182,102340,1,8,0:0:0:0:
393,183,102523,1,0,0:0:0:0:
447,172,102705,1,8,0:0:0:0:
468,223,102888,1,0,0:0:0:0:
468,223,102980,1,0,0:0:0:0:
450,201,103071,1,8,0:0:0:0:
422,152,103254,1,0,0:0:0:0:
447,172,103437,1,8,0:0:0:0:
468,223,103620,1,0,0:0:0:0:
468,223,103712,1,0,0:0:0:0:
393,183,103803,1,8,0:0:0:0:
338,195,103986,1,4,0:0:0:0:
289,222,104169,1,4,0:0:0:0:
245,257,104352,1,4,0:0:0:0:
213,303,104535,1,4,0:0:0:0:
256,267,104718,1,8,0:0:0:0:
278,250,104809,1,8,0:0:0:0:
306,247,104901,1,0,0:0:0:0:
333,245,104992,1,0,0:0:0:0:
358,233,105083,1,8,0:0:0:0:
250,201,105449,5,0,0:0:0:0:
356,165,105815,1,8,0:0:0:0:
388,210,105998,1,0,0:0:0:0:
397,236,106090,1,0,0:0:0:0:
397,236,106181,1,0,0:0:0:0:
360,278,106364,1,0,0:0:0:0:
379,225,106547,1,8,0:0:0:0:
356,165,106730,1,0,0:0:0:0:
411,175,106913,1,0,0:0:0:0:
466,166,107096,1,8,0:0:0:0:
427,206,107279,1,0,0:0:0:0:
408,226,107370,1,0,0:0:0:0:
360,278,107462,1,0,0:0:0:0:
320,238,107644,1,0,0:0:0:0:
354,194,107827,1,8,0:0:0:0:
405,172,108010,1,0,0:0:0:0:
460,164,108193,1,8,0:0:0:0:
412,133,108376,1,0,0:0:0:0:
405,172,108742,1,8,0:0:0:0:
406,228,108925,1,0,0:0:0:0:
400,255,109016,1,0,0:0:0:0:
389,281,109108,1,0,0:0:0:0:
332,280,109291,1,0,0:0:0:0:
343,225,109474,1,8,0:0:0:0:
377,148,109657,1,0,0:0:0:0:
321,142,109840,1,0,0:0:0:0:
377,143,110023,1,8,0:0:0:0:
406,228,110205,1,0,0:0:0:0:
406,228,110297,1,0,0:0:0:0:
406,228,110388,1,0,0:0:0:0:
398,172,110571,1,0,0:0:0:0:
454,172,110754,1,8,0:0:0:0:
454,172,110846,1,8,0:0:0:0:
426,177,110937,1,0,0:0:0:0:
380,210,111120,1,8,0:0:0:0:
250,201,111303,5,0,0:0:0:0:
356,165,111669,1,8,0:0:0:0:
388,210,111852,1,0,0:0:0:0:
397,236,111944,1,0,0:0:0:0:
397,236,112035,1,0,0:0:0:0:
360,278,112218,1,0,0:0:0:0:
379,225,112401,1,8,0:0:0:0:
356,165,112584,1,0,0:0:0:0:
411,175,112767,1,0,0:0:0:0:
466,166,112950,1,8,0:0:0:0:
427,206,113133,1,0,0:0:0:0:
408,226,113224,1,0,0:0:0:0:
360,278,113316,1,0,0:0:0:0:
320,238,113498,1,0,0:0:0:0:
354,194,113681,1,8,0:0:0:0:
405,172,113864,1,0,0:0:0:0:
460,164,114047,1,8,0:0:0:0:
412,133,114230,1,0,0:0:0:0:
405,172,114596,1,8,0:0:0:0:
406,228,114779,1,0,0:0:0:0:
400,255,114870,1,0,0:0:0:0:
389,281,114962,1,0,0:0:0:0:
332,280,115145,1,0,0:0:0:0:
343,225,115328,1,8,0:0:0:0:
377,148,115511,1,0,0:0:0:0:
321,142,115694,1,0,0:0:0:0:
377,143,115877,1,8,0:0:0:0:
406,228,116059,1,0,0:0:0:0:
406,228,116151,1,0,0:0:0:0:
406,228,116242,1,0,0:0:0:0:
398,172,116425,1,8,0:0:0:0:
454,172,116608,1,8,0:0:0:0:
454,172,116700,1,8,0:0:0:0:
426,177,116791,1,0,0:0:0:0:
398,182,116882,1,0,0:0:0:0:
380,210,116974,1,8,0:0:0:0:
326,226,117157,5,0,0:0:0:0:
235,160,117523,1,0,0:0:0:0:
398,182,117705,1,8,0:0:0:0:
398,182,117797,1,8,0:0:0:0:
398,182,117888,1,8,0:0:0:0:
417,239,118071,1,0,0:0:0:0:
417,239,118254,1,8,0:0:0:0:
417,239,118346,1,8,0:0:0:0:
406,264,118437,1,0,0:0:0:0:
433,193,118620,1,0,0:0:0:0:
382,168,118803,1,8,0:0:0:0:
417,239,118986,1,0,0:0:0:0:
444,130,119352,1,8,0:0:0:0:
419,180,119535,1,0,0:0:0:0:
405,204,119626,1,0,0:0:0:0:
389,227,119718,1,0,0:0:0:0:
403,172,119901,1,8,0:0:0:0:
370,217,120083,1,0,0:0:0:0:
258,224,120449,1,0,0:0:0:0:
405,204,120632,1,8,0:0:0:0:
405,204,120724,1,8,0:0:0:0:
405,204,120815,1,8,0:0:0:0:
419,180,120998,1,0,0:0:0:0:
419,180,121181,1,8,0:0:0:0:
419,180,121273,1,8,0:0:0:0:
403,202,121364,1,0,0:0:0:0:
347,193,121547,1,0,0:0:0:0:
395,164,121730,1,8,0:0:0:0:
449,174,121913,1,0,0:0:0:0:
449,174,122096,1,8,0:0:0:0:
408,212,122279,1,0,0:0:0:0:
404,267,122462,1,8,0:0:0:0:
382,285,122553,1,8,0:0:0:0:
382,285,122644,1,8,0:0:0:0:
327,298,122827,1,8,0:0:0:0:
290,255,123010,5,0,0:0:0:0:
395,164,123193,1,8,0:0:0:0:
419,214,123376,1,0,0:0:0:0:
432,238,123468,1,0,0:0:0:0:
427,210,123559,1,8,0:0:0:0:
403,159,123742,1,0,0:0:0:0:
395,164,123925,1,8,0:0:0:0:
376,217,124108,1,0,0:0:0:0:
376,217,124199,1,0,0:0:0:0:
399,202,124291,1,8,0:0:0:0:
290,255,124474,1,0,0:0:0:0:
395,164,124657,1,8,0:0:0:0:
419,214,124840,1,0,0:0:0:0:
432,238,124932,1,0,0:0:0:0:
427,210,125023,1,8,0:0:0:0:
403,159,125206,1,0,0:0:0:0:
395,164,125389,1,8,0:0:0:0:
376,217,125572,1,0,0:0:0:0:
376,217,125663,1,0,0:0:0:0:
399,202,125755,1,8,0:0:0:0:
343,193,125937,1,0,0:0:0:0:
368,143,126120,1,8,0:0:0:0:
390,194,126303,1,0,0:0:0:0:
398,220,126394,1,0,0:0:0:0:
396,248,126486,1,0,0:0:0:0:
415,195,126669,1,8,0:0:0:0:
420,250,126852,1,0,0:0:0:0:
420,250,126943,1,0,0:0:0:0:
420,250,127035,1,0,0:0:0:0:
411,223,127218,1,8,0:0:0:0:
363,194,127401,2,0,B|59:260|59:260|92:146,1,420
201,161,128864,5,8,0:0:0:0:
256,164,129047,1,0,0:0:0:0:
283,165,129138,1,0,0:0:0:0:
311,166,129230,1,0,0:0:0:0:
367,165,129413,1,8,0:0:0:0:
409,201,129596,1,0,0:0:0:0:
439,153,129779,1,8,0:0:0:0:
424,176,129870,1,8,0:0:0:0:
409,201,129962,1,0,0:0:0:0:
424,176,130144,1,8,0:0:0:0:
424,176,130327,1,0,0:0:0:0:
424,176,130510,1,8,0:0:0:0:
451,224,130693,1,0,0:0:0:0:
340,206,131059,1,0,0:0:0:0:
380,167,131242,1,8,0:0:0:0:
380,167,131333,1,8,0:0:0:0:
407,171,131425,1,8,0:0:0:0:
458,148,131608,1,8,0:0:0:0:
424,176,131791,1,8,0:0:0:0:
418,231,131974,1,0,0:0:0:0:
411,258,132065,1,0,0:0:0:0:
403,285,132157,1,0,0:0:0:0:
382,233,132340,1,8,0:0:0:0:
407,171,132523,1,0,0:0:0:0:
424,176,132705,1,8,0:0:0:0:
424,176,132797,1,8,0:0:0:0:
447,190,132888,1,0,0:0:0:0:
391,196,133071,1,8,0:0:0:0:
344,165,133254,1,0,0:0:0:0:
424,176,133437,1,8,0:0:0:0:
391,196,133620,1,0,0:0:0:0:
433,160,133803,1,8,0:0:0:0:
447,190,133986,1,0,0:0:0:0:
409,231,134169,1,8,0:0:0:0:
389,250,134260,1,8,0:0:0:0:
389,250,134352,1,8,0:0:0:0:
338,273,134535,1,8,0:0:0:0:
290,255,134718,5,0,0:0:0:0:
395,164,134901,1,8,0:0:0:0:
419,214,135084,1,0,0:0:0:0:
432,238,135176,1,0,0:0:0:0:
427,210,135267,1,8,0:0:0:0:
403,159,135450,1,0,0:0:0:0:
395,164,135633,1,8,0:0:0:0:
376,217,135816,1,0,0:0:0:0:
376,217,135907,1,0,0:0:0:0:
399,202,135999,1,8,0:0:0:0:
290,255,136182,1,0,0:0:0:0:
395,164,136365,1,8,0:0:0:0:
419,214,136548,1,0,0:0:0:0:
432,238,136638,1,0,0:0:0:0:
427,210,136731,1,8,0:0:0:0:
403,159,136914,1,0,0:0:0:0:
395,164,137097,1,8,0:0:0:0:
376,217,137280,1,0,0:0:0:0:
376,217,137371,1,0,0:0:0:0:
399,202,137463,1,8,0:0:0:0:
343,193,137645,1,0,0:0:0:0:
368,143,137828,1,8,0:0:0:0:
312,151,138010,1,0,0:0:0:0:
363,173,138193,1,8,0:0:0:0:
381,225,138376,1,0,0:0:0:0:
390,251,138468,1,0,0:0:0:0:
405,227,138559,1,8,0:0:0:0:
443,186,138742,1,0,0:0:0:0:
443,186,138833,1,0,0:0:0:0:
467,171,138925,1,8,0:0:0:0:
343,193,139108,1,0,0:0:0:0:
308,237,139291,1,0,0:0:0:0:
467,171,139474,1,8,0:0:0:0:
410,171,139657,1,0,0:0:0:0:
381,225,139840,1,8,0:0:0:0:
381,225,139931,1,8,0:0:0:0:
408,220,140023,1,0,0:0:0:0:
435,215,140114,1,0,0:0:0:0:
443,186,140205,1,8,0:0:0:0:
144,210,142035,5,0,0:0:0:0:
255,216,142401,1,0,0:0:0:0:
310,213,142583,1,8,0:0:0:0:
365,215,142766,1,0,0:0:0:0:
468,172,143132,1,8,0:0:0:0:
442,222,143315,1,0,0:0:0:0:
387,208,143498,1,0,0:0:0:0:
410,157,143681,1,8,0:0:0:0:
399,183,143773,1,8,0:0:0:0:
375,168,143864,1,8,0:0:0:0:
376,224,144047,1,0,0:0:0:0:
320,224,144230,1,8,0:0:0:0:
320,224,144321,1,8,0:0:0:0:
340,244,144413,1,0,0:0:0:0:
372,288,144596,1,8,0:0:0:0:
344,240,144779,1,0,0:0:0:0:
292,264,144962,1,0,0:0:0:0:
268,276,145053,1,0,0:0:0:0:
268,276,145144,1,0,0:0:0:0:
296,228,145327,1,8,0:0:0:0:
252,124,145693,1,0,0:0:0:0:
264,152,145785,1,0,0:0:0:0:
264,152,145876,1,0,0:0:0:0:
320,160,146059,1,8,0:0:0:0:
216,200,146425,1,0,0:0:0:0:
184,216,146547,1,0,0:0:0:0:
160,244,146669,1,0,0:0:0:0:
196,240,146791,1,8,0:0:0:0:
252,232,146974,1,0,0:0:0:0:
308,220,147157,1,8,0:0:0:0:
336,216,147248,1,8,0:0:0:0:
364,212,147340,1,8,0:0:0:0:
392,208,147431,1,8,0:0:0:0:
416,196,147523,1,0,0:0:0:0:
440,144,147705,1,8,0:0:0:0:
384,148,147888,5,0,0:0:0:0:
312,232,148254,1,8,0:0:0:0:
368,220,148437,1,0,0:0:0:0:
420,196,148620,1,8,0:0:0:0:
368,296,148986,1,0,0:0:0:0:
260,260,149352,1,0,0:0:0:0:
308,232,149535,1,8,0:0:0:0:
332,220,149626,1,8,0:0:0:0:
356,208,149718,1,8,0:0:0:0:
408,188,149901,1,8,0:0:0:0:
400,244,150083,1,0,0:0:0:0:
392,272,150175,1,0,0:0:0:0:
400,244,150266,1,8,0:0:0:0:
416,188,150449,1,0,0:0:0:0:
468,172,150632,1,8,0:0:0:0:
412,172,150815,1,0,0:0:0:0:
356,172,150998,1,0,0:0:0:0:
328,172,151090,1,0,0:0:0:0:
356,168,151181,1,8,0:0:0:0:
344,112,151364,1,0,0:0:0:0:
380,156,151547,1,8,0:0:0:0:
412,200,151730,1,8,0:0:0:0:
412,200,151821,1,8,0:0:0:0:
440,208,151913,1,0,0:0:0:0:
412,172,152096,1,8,0:0:0:0:
376,216,152279,1,4,0:0:0:0:
196,188,153742,5,8,0:0:0:0:
248,212,153925,1,8,0:0:0:0:
296,244,154108,1,8,0:0:0:0:
248,272,154291,1,8,0:0:0:0:
196,288,154474,1,8,0:0:0:0:
308,280,154840,1,8,0:0:0:0:
364,276,155023,1,8,0:0:0:0:
420,288,155205,1,8,0:0:0:0:
308,296,155571,1,8,0:0:0:0:
252,300,155754,1,8,0:0:0:0:
196,304,155937,1,8,0:0:0:0:
300,260,156303,1,8,0:0:0:0:
352,236,156486,1,8,0:0:0:0:
300,260,156669,1,8,0:0:0:0:
348,288,156852,1,8,0:0:0:0:
308,296,157035,1,8,0:0:0:0:
252,284,157218,1,8,0:0:0:0:
308,296,157401,1,8,0:0:0:0:
420,296,157766,1,8,0:0:0:0:
364,304,157949,1,8,0:0:0:0:
420,308,158132,1,8,0:0:0:0:
380,268,158315,1,8,0:0:0:0:
344,228,158498,1,8,0:0:0:0:
280,176,158773,1,8,0:0:0:0:
300,196,158864,1,8,0:0:0:0:
284,276,159047,1,8,0:0:0:0:
248,232,159230,1,8,0:0:0:0:
212,188,159413,1,8,0:0:0:0:
248,232,159596,5,8,0:0:0:0:
360,356,160144,1,8,0:0:0:0:
360,356,160327,1,8,0:0:0:0:
448,212,160876,1,8,0:0:0:0:
420,260,161059,1,8,0:0:0:0:
368,284,161242,1,8,0:0:0:0:
316,304,161425,1,8,0:0:0:0:
264,324,161608,1,8,0:0:0:0:
376,328,161974,1,8,0:0:0:0:
376,328,162157,1,8,0:0:0:0:
396,276,162340,2,0,B|52:116,1,350
244,280,163986,1,0,0:0:0:0:
264,228,164169,1,0,0:0:0:0:
316,208,164352,1,8,0:0:0:0:
368,192,164535,1,0,0:0:0:0:
396,300,164901,1,0,0:0:0:0:
388,272,164992,1,0,0:0:0:0:
400,248,165083,1,8,0:0:0:0:
384,192,165266,1,0,0:0:0:0:
332,176,165449,5,0,0:0:0:0:
368,132,165632,1,8,0:0:0:0:
416,160,165815,1,0,0:0:0:0:
464,184,165998,1,8,0:0:0:0:
408,196,166181,1,0,0:0:0:0:
352,192,166364,1,0,0:0:0:0:
324,191,166455,1,0,0:0:0:0:
368,132,166547,1,8,0:0:0:0:
389,183,166730,1,0,0:0:0:0:
394,238,166913,1,0,0:0:0:0:
418,187,167096,1,8,0:0:0:0:
469,165,167279,1,0,0:0:0:0:
469,165,167462,1,8,0:0:0:0:
457,219,167644,1,0,0:0:0:0:
403,203,167827,1,8,0:0:0:0:
403,203,167919,1,8,0:0:0:0:
418,187,168010,1,0,0:0:0:0:
368,213,168193,1,8,0:0:0:0:
332,176,168376,1,0,0:0:0:0:
368,132,168559,1,8,0:0:0:0:
416,160,168742,1,0,0:0:0:0:
464,184,168925,1,8,0:0:0:0:
408,196,169108,1,0,0:0:0:0:
352,192,169291,1,0,0:0:0:0:
324,191,169382,1,0,0:0:0:0:
368,132,169474,1,8,0:0:0:0:
389,183,169657,1,8,0:0:0:0:
394,238,169840,1,0,0:0:0:0:
418,187,170023,1,8,0:0:0:0:
469,165,170206,1,0,0:0:0:0:
469,165,170389,1,8,0:0:0:0:
457,219,170571,1,0,0:0:0:0:
403,203,170754,1,8,0:0:0:0:
403,203,170846,1,8,0:0:0:0:
418,187,170937,1,0,0:0:0:0:
424,216,171029,1,0,0:0:0:0:
368,213,171120,1,8,0:0:0:0:
380,158,171303,6,0,B|-35:295,1,420
336,212,172766,1,4,0:0:0:0:
308,260,172949,1,4,0:0:0:0:
288,312,173132,1,4,0:0:0:0:
288,312,173315,1,4,0:0:0:0:
332,276,173498,1,0,0:0:0:0:
356,260,173590,1,0,0:0:0:0:
380,244,173681,1,8,0:0:0:0:
404,228,173773,1,8,0:0:0:0:
424,208,173864,1,8,0:0:0:0:
444,192,173955,1,8,0:0:0:0:
468,176,174047,1,0,0:0:0:0:
414,160,174230,5,0,0:0:0:0:
359,146,174413,1,0,0:0:0:0:
414,160,174596,1,8,0:0:0:0:
444,192,174779,1,0,0:0:0:0:
424,208,174870,1,0,0:0:0:0:
424,208,174962,1,0,0:0:0:0:
369,217,175144,1,0,0:0:0:0:
372,161,175327,1,8,0:0:0:0:
363,216,175510,1,0,0:0:0:0:
307,219,175693,1,0,0:0:0:0:
278,220,175785,1,0,0:0:0:0:
250,221,175876,1,0,0:0:0:0:
291,183,176059,1,8,0:0:0:0:
345,172,176242,1,0,0:0:0:0:
367,120,176425,1,8,0:0:0:0:
367,120,176516,1,8,0:0:0:0:
390,135,176608,1,0,0:0:0:0:
422,180,176791,1,8,0:0:0:0:
438,202,176882,1,8,0:0:0:0:
434,229,176974,1,0,0:0:0:0:
380,245,177157,1,0,0:0:0:0:
326,262,177340,1,0,0:0:0:0:
368,225,177523,1,8,0:0:0:0:
438,202,177705,1,0,0:0:0:0:
438,202,177797,1,0,0:0:0:0:
434,229,177888,1,0,0:0:0:0:
380,245,178071,1,0,0:0:0:0:
392,190,178254,1,8,0:0:0:0:
380,245,178620,1,0,0:0:0:0:
380,245,178712,1,0,0:0:0:0:
353,254,178803,1,0,0:0:0:0:
394,216,178986,1,8,0:0:0:0:
441,185,179169,1,0,0:0:0:0:
404,227,179352,1,8,0:0:0:0:
404,227,179443,1,8,0:0:0:0:
380,245,179535,1,0,0:0:0:0:
380,245,179626,1,0,0:0:0:0:
361,223,179718,1,8,0:0:0:0:
317,258,179901,1,8,0:0:0:0:
268,231,180083,5,0,0:0:0:0:
226,193,180266,1,0,0:0:0:0:
281,185,180449,1,8,0:0:0:0:
441,185,180632,1,0,0:0:0:0:
441,185,180724,1,0,0:0:0:0:
441,185,180815,1,0,0:0:0:0:
424,238,180998,1,0,0:0:0:0:
456,192,181181,1,8,0:0:0:0:
424,238,181364,1,0,0:0:0:0:
374,263,181547,1,0,0:0:0:0:
321,281,181730,1,0,0:0:0:0:
356,237,181913,1,8,0:0:0:0:
407,213,182096,1,0,0:0:0:0:
392,236,182187,1,0,0:0:0:0:
392,236,182279,1,0,0:0:0:0:
392,236,182462,1,0,0:0:0:0:
387,180,182644,1,8,0:0:0:0:
356,237,182827,1,8,0:0:0:0:
304,214,183010,1,0,0:0:0:0:
325,195,183102,1,8,0:0:0:0:
352,192,183193,1,0,0:0:0:0:
380,192,183285,1,0,0:0:0:0:
398,171,183376,1,8,0:0:0:0:
432,214,183559,1,0,0:0:0:0:
435,269,183742,1,0,0:0:0:0:
441,241,183833,1,8,0:0:0:0:
440,212,183925,1,0,0:0:0:0:
440,212,184016,1,0,0:0:0:0:
429,186,184108,1,8,0:0:0:0:
402,235,184291,1,0,0:0:0:0:
349,253,184474,1,0,0:0:0:0:
429,186,184657,1,8,0:0:0:0:
429,186,184748,1,8,0:0:0:0:
429,186,184840,1,8,0:0:0:0:
401,189,184931,1,8,0:0:0:0:
428,181,185023,1,0,0:0:0:0:
483,174,185205,1,8,0:0:0:0:
456,182,185297,1,8,0:0:0:0:
429,186,185388,1,0,0:0:0:0:
402,235,185571,1,8,0:0:0:0:
402,235,185663,1,8,0:0:0:0:
429,231,185754,1,0,0:0:0:0:
414,160,185937,5,0,0:0:0:0:
359,146,186120,1,0,0:0:0:0:
414,160,186303,1,8,0:0:0:0:
444,192,186486,1,0,0:0:0:0:
424,208,186577,1,0,0:0:0:0:
424,208,186669,1,0,0:0:0:0:
369,217,186851,1,0,0:0:0:0:
372,161,187034,1,8,0:0:0:0:
363,216,187217,1,8,0:0:0:0:
388,204,187309,1,8,0:0:0:0:
307,219,187400,1,0,0:0:0:0:
278,220,187492,1,0,0:0:0:0:
250,221,187583,1,0,0:0:0:0:
291,183,187766,1,8,0:0:0:0:
345,172,187949,1,0,0:0:0:0:
367,120,188132,1,8,0:0:0:0:
367,120,188223,1,8,0:0:0:0:
390,135,188315,1,0,0:0:0:0:
422,180,188498,1,8,0:0:0:0:
438,202,188589,1,8,0:0:0:0:
434,229,188681,1,8,0:0:0:0:
392,190,188773,1,8,0:0:0:0:
380,245,188864,1,0,0:0:0:0:
326,262,189047,1,0,0:0:0:0:
368,225,189230,1,8,0:0:0:0:
438,202,189412,1,0,0:0:0:0:
438,202,189504,1,0,0:0:0:0:
434,229,189595,1,0,0:0:0:0:
380,245,189778,1,0,0:0:0:0:
392,190,189961,1,8,0:0:0:0:
380,245,190327,1,0,0:0:0:0:
380,245,190419,1,0,0:0:0:0:
353,254,190510,1,0,0:0:0:0:
394,216,190693,1,8,0:0:0:0:
441,185,190876,1,0,0:0:0:0:
404,227,191059,1,8,0:0:0:0:
404,227,191150,1,8,0:0:0:0:
380,245,191242,1,0,0:0:0:0:
380,245,191333,1,0,0:0:0:0:
361,223,191425,1,8,0:0:0:0:
315,255,191608,1,8,0:0:0:0:
321,199,191791,5,0,0:0:0:0:
424,155,192157,1,8,0:0:0:0:
473,180,192340,1,0,0:0:0:0:
473,180,192523,1,8,0:0:0:0:
473,180,192705,1,0,0:0:0:0:
438,136,192888,1,8,0:0:0:0:
424,155,193071,1,8,0:0:0:0:
424,155,193163,1,8,0:0:0:0:
431,181,193254,1,0,0:0:0:0:
424,155,193620,1,8,0:0:0:0:
473,180,193803,1,0,0:0:0:0:
473,180,193986,1,8,0:0:0:0:
473,180,194168,1,0,0:0:0:0:
438,136,194351,1,8,0:0:0:0:
427,162,194443,1,8,0:0:0:0:
424,155,194534,1,8,0:0:0:0:
424,155,194626,1,8,0:0:0:0:
431,181,194717,1,0,0:0:0:0:
346,254,195083,1,8,0:0:0:0:
393,224,195266,1,0,0:0:0:0:
431,181,195449,1,8,0:0:0:0:
417,205,195541,1,8,0:0:0:0:
431,181,195632,1,0,0:0:0:0:
486,179,195815,1,8,0:0:0:0:
458,171,195907,1,8,0:0:0:0:
448,197,195998,1,0,0:0:0:0:
424,247,196181,1,0,0:0:0:0:
370,229,196364,1,8,0:0:0:0:
370,229,196455,1,8,0:0:0:0:
346,254,196547,1,8,0:0:0:0:
346,254,196638,1,8,0:0:0:0:
372,244,196730,1,0,0:0:0:0:
362,188,196913,1,8,0:0:0:0:
362,188,197004,1,8,0:0:0:0:
366,215,197096,1,8,0:0:0:0:
366,215,197187,1,8,0:0:0:0:
391,203,197279,1,0,0:0:0:0:
442,225,197462,1,8,0:0:0:0:
388,208,197644,5,0,0:0:0:0:
419,161,197827,1,8,0:0:0:0:
424,216,198010,1,0,0:0:0:0:
414,242,198102,1,0,0:0:0:0:
414,242,198193,1,0,0:0:0:0:
366,215,198376,1,8,0:0:0:0:
324,252,198559,1,0,0:0:0:0:
324,252,198651,1,0,0:0:0:0:
324,252,198742,1,0,0:0:0:0:
401,187,198925,1,8,0:0:0:0:
401,187,199108,1,0,0:0:0:0:
453,168,199291,1,8,0:0:0:0:
414,242,199474,1,0,0:0:0:0:
394,261,199565,1,0,0:0:0:0:
394,261,199657,1,0,0:0:0:0:
407,206,199840,1,8,0:0:0:0:
332,289,200205,1,8,0:0:0:0:
278,303,200388,1,8,0:0:0:0:
266,248,200571,1,0,0:0:0:0:
317,225,200754,1,8,0:0:0:0:
361,191,200937,1,0,0:0:0:0:
383,174,201029,1,0,0:0:0:0:
403,154,201120,1,8,0:0:0:0:
438,197,201303,1,0,0:0:0:0:
449,142,201486,1,8,0:0:0:0:
442,169,201577,1,8,0:0:0:0:
454,194,201669,1,0,0:0:0:0:
451,221,201760,1,0,0:0:0:0:
424,212,201852,1,8,0:0:0:0:
368,219,202035,1,4,0:0:0:0:
329,259,202218,1,4,0:0:0:0:
379,235,202401,1,4,0:0:0:0:
329,259,202583,1,4,0:0:0:0:
327,202,202766,1,8,0:0:0:0:
353,191,202858,1,8,0:0:0:0:
327,202,202949,1,8,0:0:0:0:
347,221,203041,1,8,0:0:0:0:
327,202,203132,1,8,0:0:0:0:
228,165,204596,5,12,0:0:0:0:
340,166,204962,5,0,0:0:0:0:
451,167,205327,1,8,0:0:0:0:
471,219,205510,1,0,0:0:0:0:
450,237,205602,1,0,0:0:0:0:
426,252,205693,1,0,0:0:0:0:
371,265,205876,1,0,0:0:0:0:
360,209,206059,1,8,0:0:0:0:
320,169,206242,1,0,0:0:0:0:
372,187,206425,1,4,0:0:0:0:
375,298,206791,1,4,0:0:0:0:
421,196,207157,1,4,0:0:0:0:
365,199,207340,1,0,0:0:0:0:
337,200,207431,1,0,0:0:0:0:
362,188,207523,1,8,0:0:0:0:
410,160,207705,1,8,0:0:0:0:
384,209,207888,1,0,0:0:0:0:
463,129,208254,1,8,0:0:0:0:
447,182,208437,1,0,0:0:0:0:
437,208,208529,1,0,0:0:0:0:
423,232,208620,1,0,0:0:0:0:
375,262,208803,1,0,0:0:0:0:
385,207,208986,1,8,0:0:0:0:
381,262,209169,1,0,0:0:0:0:
408,213,209352,1,12,0:0:0:0:
296,227,209718,1,12,0:0:0:0:
406,244,210083,1,12,0:0:0:0:
438,198,210266,1,8,0:0:0:0:
454,175,210358,1,8,0:0:0:0:
454,175,210449,1,0,0:0:0:0:
406,204,210632,1,8,0:0:0:0:
352,188,210815,5,0,0:0:0:0:
397,155,210998,1,8,0:0:0:0:
450,171,211181,1,0,0:0:0:0:
470,190,211273,1,0,0:0:0:0:
470,190,211364,1,0,0:0:0:0:
438,198,211547,1,8,0:0:0:0:
349,266,211913,1,8,0:0:0:0:
349,266,212096,1,8,0:0:0:0:
384,222,212279,1,0,0:0:0:0:
450,171,212462,1,8,0:0:0:0:
458,226,212644,1,0,0:0:0:0:
458,226,212736,1,0,0:0:0:0:
435,209,212827,1,8,0:0:0:0:
398,251,213010,1,0,0:0:0:0:
343,237,213193,1,0,0:0:0:0:
315,230,213285,1,0,0:0:0:0:
298,207,213376,1,8,0:0:0:0:
274,156,213559,1,8,0:0:0:0:
329,152,213742,1,0,0:0:0:0:
384,154,213925,1,8,0:0:0:0:
433,180,214108,1,0,0:0:0:0:
457,193,214199,1,0,0:0:0:0:
433,180,214291,1,0,0:0:0:0:
488,183,214474,1,8,0:0:0:0:
379,212,214840,1,8,0:0:0:0:
330,240,215023,1,8,0:0:0:0:
433,180,215205,1,0,0:0:0:0:
397,136,215388,1,8,0:0:0:0:
457,193,215571,1,0,0:0:0:0:
433,180,215663,1,0,0:0:0:0:
411,162,215754,1,8,0:0:0:0:
363,191,215937,1,8,0:0:0:0:
314,219,216120,1,8,0:0:0:0:
338,205,216212,1,8,0:0:0:0:
365,206,216303,1,0,0:0:0:0:
418,221,216486,1,8,0:0:0:0:
362,211,216669,5,0,0:0:0:0:
364,155,216852,1,8,0:0:0:0:
457,193,217035,1,0,0:0:0:0:
457,193,217126,1,0,0:0:0:0:
457,193,217218,1,0,0:0:0:0:
405,171,217401,1,8,0:0:0:0:
398,226,217583,1,0,0:0:0:0:
405,171,217766,1,8,0:0:0:0:
352,189,217949,1,0,0:0:0:0:
379,193,218041,1,8,0:0:0:0:
457,193,218132,1,0,0:0:0:0:
420,152,218315,1,8,0:0:0:0:
404,204,218498,1,0,0:0:0:0:
396,232,218590,1,0,0:0:0:0:
392,204,218681,1,8,0:0:0:0:
352,244,218864,1,0,0:0:0:0:
304,272,219047,1,0,0:0:0:0:
280,288,219138,1,0,0:0:0:0:
379,193,219230,1,8,0:0:0:0:
352,189,219413,1,8,0:0:0:0:
362,211,219596,1,0,0:0:0:0:
364,155,219779,1,8,0:0:0:0:
457,193,219962,1,0,0:0:0:0:
457,193,220053,1,0,0:0:0:0:
457,193,220145,1,0,0:0:0:0:
405,171,220328,1,8,0:0:0:0:
398,226,220510,1,0,0:0:0:0:
405,171,220693,1,8,0:0:0:0:
352,189,220876,1,0,0:0:0:0:
379,193,220968,1,8,0:0:0:0:
457,193,221059,1,0,0:0:0:0:
400,188,221242,1,8,0:0:0:0:
380,240,221425,1,0,0:0:0:0:
376,268,221516,1,0,0:0:0:0:
405,171,221608,1,8,0:0:0:0:
405,171,221791,1,8,0:0:0:0:
405,171,221974,1,8,0:0:0:0:
405,171,222065,1,8,0:0:0:0:
457,193,222157,1,0,0:0:0:0:
405,171,222340,1,8,0:0:0:0:
348,168,222523,5,0,0:0:0:0:
476,112,222888,1,8,0:0:0:0:
448,160,223071,1,0,0:0:0:0:
432,184,223163,1,0,0:0:0:0:
416,208,223254,1,0,0:0:0:0:
364,232,223437,1,0,0:0:0:0:
404,192,223620,1,8,0:0:0:0:
432,184,223803,1,8,0:0:0:0:
380,160,223986,1,4,0:0:0:0:
328,184,224169,1,4,0:0:0:0:
280,212,224352,1,4,0:0:0:0:
312,166,224535,1,4,0:0:0:0:
333,217,224718,1,8,0:0:0:0:
339,243,224809,1,8,0:0:0:0:
344,270,224901,1,8,0:0:0:0:
344,270,224992,1,8,0:0:0:0:
344,270,225083,1,8,0:0:0:0:
432,184,225266,5,4,0:0:0:0:
