osu file format v13

[General]
AudioFilename: SPiCa x Melt.mp3
AudioLeadIn: 0
PreviewTime: 165449
Countdown: 0
SampleSet: Soft
StackLeniency: 0.7
Mode: 0
LetterboxInBreaks: 0
WidescreenStoryboard: 0

[Editor]
Bookmarks: 5937,39596,64108,76181,105453,117161,141669,165449,174230,204962
DistanceSpacing: 1
BeatDivisor: 4
GridSize: 4
TimelineZoom: 1

[Metadata]
Title:SPiCa x Melt
TitleUnicode:SPiCa と メルト
Artist:Toku-P ft. ryo
ArtistUnicode:とくP ft. ryo
Creator:Krisom
Version:Insane Collab
Source:
Tags:Sure Cyril_Scarlet Hatsune Miku 初音ミク acane_madder Supercell Vocaloid Vocamash lepidopodus ykcarrot SiRiRu S_i_R_i_R_u Deif
BeatmapID:102871
BeatmapSetID:15066

[Difficulty]
HPDrainRate:6
CircleSize:4
OverallDifficulty:7
ApproachRate:8
SliderMultiplier:2.08
SliderTickRate:2

[Events]
//Background and Video events
0,0,"SpicaxMelt.jpg",0,0
//Break Periods
2,105648,116407
//Storyboard Layer 0 (Background)
Sprite,Background,Centre,"SB\Black.jpg",320,240 F,0,78,809,0,1 S,0,809,,1.62464 M,0,809,7395,320,240
Sprite,Background,Centre,"SB\StarSky.png",320,240 F,0,5931,7395,0,1 M,0,5931,17638,399,299,344,252 R,0,5931,17638,-0.02048035,0.2047998 F,0,7395,,1 M,0,17638,29346,344,252,307,235 S,0,17638,29346,1.02048,0.8771201 R,0,17638,29346,0.2047998,0.02047981 M,0,29346,41053,307,235,294,233 S,0,29346,41053,0.8771201,0.91808 R,0,29346,41053,0.02047981,-0.0819198
Sprite,Background,Centre,"SB\MeltA.jpg",320,240 F,0,41053,,1 S,0,41053,,0.8771199 M,0,41053,64468,336,240,292,238
Sprite,Background,Centre,"SB\Black.jpg",320,240 M,0,61551,,320,240 S,0,61551,,1.64512 F,0,61551,64478,0,1
Sprite,Background,Centre,"SB\StarSky.png",320,240 F,0,64112,64478,0,1 M,0,64112,75819,316,54,316,110 S,0,64478,,1.08192 F,0,64478,68868,1,0.98464 R,0,64844,,-1.57696
Sprite,Background,Centre,"SB\Black.jpg",320,240 F,0,76185,,1 S,0,76185,,1.6656 M,0,76185,105453,320,240,321,240
Sprite,Background,Centre,"SB\Black.jpg",320,240 S,0,174234,,1.6656 F,0,174234,190331,1 M,0,174234,203502,320,240,321,240
Sprite,Background,Centre,"SB\MeltB.jpg",320,240 S,0,174230,174234,1.1536,1.17408 S,0,174234,203498,1.17408 M,0,174234,203502,258,237,410,237 P,0,174234,203502,H V,0,174234,203502,1,1 F,0,203502,203868,1,0
Sprite,Background,Centre,"SB\White.jpg",320,240 M,0,102527,,320,240 S,0,102527,,1.62464 F,0,102527,105453,0,1
Sprite,Background,Centre,"SB\White.jpg",320,240 S,0,105453,,1.60416 F,0,105453,105636,1 F,0,105636,111490,1 F,0,111490,114051,1 F,0,114051,117161,1 M,0,117161,,320,240 F,0,117161,117527,1,0
Sprite,Background,Centre,"SB\Black.jpg",320,240 S,0,139844,,1.6144 M,0,139844,143502,320,240
Sprite,Background,Centre,"SB\MeltA.jpg",320,240 F,0,116978,117161,0,1 S,0,117161,,1.02048 M,0,117161,139844,235,289,285,256 F,0,117161,139844,1 F,0,139844,141307,1,0
Sprite,Background,Centre,"SpicaxMelt.jpg",320,240 S,0,204962,,0.63136 M,0,204962,237157,320,240 F,0,236791,237157,1,0
//Storyboard Layer 1 (Fail)
//Storyboard Layer 2 (Pass)
//Storyboard Layer 3 (Foreground)
Sprite,Foreground,Centre,"SB\CuadradoYay.jpg",320,240 M,0,76185,82039,-28,21,672,21 S,0,76185,82039,0.4470395
Sprite,Foreground,Centre,"SB\CuadradoYay.jpg",320,240 M,0,76550,82404,-28,21,672,21 S,0,76550,82404,0.4470395
Sprite,Foreground,Centre,"SB\CuadradoYay.jpg",320,240 M,0,76916,82770,-28,21,672,21 S,0,76916,82770,0.4470395
Sprite,Foreground,Centre,"SB\CuadradoYay.jpg",320,240 M,0,77281,83135,-28,21,672,21 S,0,77281,83135,0.4470395
Sprite,Foreground,Centre,"SB\CuadradoYay.jpg",320,240 M,0,77647,83501,-28,21,672,21 S,0,77647,83501,0.4470395
Sprite,Foreground,Centre,"SB\CuadradoYay.jpg",320,240 M,0,78012,83866,-28,21,672,21 S,0,78012,83866,0.4470395
Sprite,Foreground,Centre,"SB\CuadradoYay.jpg",320,240 M,0,78378,84232,-28,21,672,21 S,0,78378,84232,0.4470395
Sprite,Foreground,Centre,"SB\CuadradoYay.jpg",320,240 M,0,78743,84597,-28,21,672,21 S,0,78743,84597,0.4470395
Sprite,Foreground,Centre,"SB\CuadradoYay.jpg",320,240 M,0,79109,84963,-28,21,672,21 S,0,79109,84963,0.4470395
Sprite,Foreground,Centre,"SB\CuadradoYay.jpg",320,240 M,0,79474,85328,-28,21,672,21 S,0,79474,85328,0.4470395
Sprite,Foreground,Centre,"SB\CuadradoYay.jpg",320,240 M,0,79840,85694,-28,21,672,21 S,0,79840,85694,0.4470395
Sprite,Foreground,Centre,"SB\CuadradoYay.jpg",320,240 M,0,80205,86059,-28,21,672,21 S,0,80205,86059,0.4470395
Sprite,Foreground,Centre,"SB\CuadradoYay.jpg",320,240 M,0,80571,86425,-28,21,672,21 S,0,80571,86425,0.4470395
Sprite,Foreground,Centre,"SB\CuadradoYay.jpg",320,240 M,0,80936,86790,-28,21,672,21 S,0,80936,86790,0.4470395
Sprite,Foreground,Centre,"SB\CuadradoYay.jpg",320,240 M,0,81302,87156,-28,21,672,21 S,0,81302,87156,0.4470395
Sprite,Foreground,Centre,"SB\CuadradoYay.jpg",320,240 M,0,81667,87521,-28,21,672,21 S,0,81667,87521,0.4470395
Sprite,Foreground,Centre,"SB\CuadradoYay.jpg",320,240 M,0,82033,87887,-28,21,672,21 S,0,82033,87887,0.4470395
Sprite,Foreground,Centre,"SB\CuadradoYay.jpg",320,240 M,0,82398,88252,-28,21,672,21 S,0,82398,88252,0.4470395
Sprite,Foreground,Centre,"SB\CuadradoYay.jpg",320,240 M,0,82764,88618,-28,21,672,21 S,0,82764,88618,0.4470395
Sprite,Foreground,Centre,"SB\CuadradoYay.jpg",320,240 M,0,83129,88983,-28,21,672,21 S,0,83129,88983,0.4470395
Sprite,Foreground,Centre,"SB\CuadradoYay.jpg",320,240 M,0,83495,89349,-28,21,672,21 S,0,83495,89349,0.4470395
Sprite,Foreground,Centre,"SB\CuadradoYay.jpg",320,240 M,0,83860,89714,-28,21,672,21 S,0,83860,89714,0.4470395
Sprite,Foreground,Centre,"SB\CuadradoYay.jpg",320,240 M,0,84226,90080,-28,21,672,21 S,0,84226,90080,0.4470395
Sprite,Foreground,Centre,"SB\CuadradoYay.jpg",320,240 M,0,84591,90445,-28,21,672,21 S,0,84591,90445,0.4470395
Sprite,Foreground,Centre,"SB\CuadradoYay.jpg",320,240 M,0,84957,90811,-28,21,672,21 S,0,84957,90811,0.4470395
Sprite,Foreground,Centre,"SB\CuadradoYay.jpg",320,240 M,0,85322,91176,-28,21,672,21 S,0,85322,91176,0.4470395
Sprite,Foreground,Centre,"SB\CuadradoYay.jpg",320,240 M,0,85688,91542,-28,21,672,21 S,0,85688,91542,0.4470395
Sprite,Foreground,Centre,"SB\CuadradoYay.jpg",320,240 M,0,86053,91907,-28,21,672,21 S,0,86053,91907,0.4470395
Sprite,Foreground,Centre,"SB\CuadradoYay.jpg",320,240 M,0,86419,92273,-28,21,672,21 S,0,86419,92273,0.4470395
Sprite,Foreground,Centre,"SB\CuadradoYay.jpg",320,240 M,0,86784,92638,-28,21,672,21 S,0,86784,92638,0.4470395
Sprite,Foreground,Centre,"SB\CuadradoYay.jpg",320,240 M,0,87150,93004,-28,21,672,21 S,0,87150,93004,0.4470395
Sprite,Foreground,Centre,"SB\CuadradoYay.jpg",320,240 M,0,87515,93369,-28,21,672,21 S,0,87515,93369,0.4470395
Sprite,Foreground,Centre,"SB\CuadradoYay.jpg",320,240 M,0,87881,93735,-28,21,672,21 S,0,87881,93735,0.4470395
Sprite,Foreground,Centre,"SB\CuadradoYay.jpg",320,240 M,0,88246,94100,-28,21,672,21 S,0,88246,94100,0.4470395
Sprite,Foreground,Centre,"SB\CuadradoYay.jpg",320,240 M,0,88612,94466,-28,21,672,21 S,0,88612,94466,0.4470395
Sprite,Foreground,Centre,"SB\CuadradoYay.jpg",320,240 M,0,88977,94831,-28,21,672,21 S,0,88977,94831,0.4470395
Sprite,Foreground,Centre,"SB\CuadradoYay.jpg",320,240 M,0,89343,95197,-28,21,672,21 S,0,89343,95197,0.4470395
Sprite,Foreground,Centre,"SB\CuadradoYay.jpg",320,240 M,0,89708,95562,-28,21,672,21 S,0,89708,95562,0.4470395
Sprite,Foreground,Centre,"SB\CuadradoYay.jpg",320,240 M,0,90074,95928,-28,21,672,21 S,0,90074,95928,0.4470395
Sprite,Foreground,Centre,"SB\CuadradoYay.jpg",320,240 M,0,90439,96293,-28,21,672,21 S,0,90439,96293,0.4470395
Sprite,Foreground,Centre,"SB\CuadradoYay.jpg",320,240 M,0,90805,96659,-28,21,672,21 S,0,90805,96659,0.4470395
Sprite,Foreground,Centre,"SB\CuadradoYay.jpg",320,240 M,0,91170,97024,-28,21,672,21 S,0,91170,97024,0.4470395
Sprite,Foreground,Centre,"SB\CuadradoYay.jpg",320,240 M,0,91536,97390,-28,21,672,21 S,0,91536,97390,0.4470395
Sprite,Foreground,Centre,"SB\CuadradoYay.jpg",320,240 M,0,91901,97755,-28,21,672,21 S,0,91901,97755,0.4470395
Sprite,Foreground,Centre,"SB\CuadradoYay.jpg",320,240 M,0,92267,98121,-28,21,672,21 S,0,92267,98121,0.4470395
Sprite,Foreground,Centre,"SB\CuadradoYay.jpg",320,240 M,0,92632,98486,-28,21,672,21 S,0,92632,98486,0.4470395
Sprite,Foreground,Centre,"SB\CuadradoYay.jpg",320,240 M,0,92998,98852,-28,21,672,21 S,0,92998,98852,0.4470395
Sprite,Foreground,Centre,"SB\CuadradoYay.jpg",320,240 M,0,93363,99217,-28,21,672,21 S,0,93363,99217,0.4470395
Sprite,Foreground,Centre,"SB\CuadradoYay.jpg",320,240 M,0,93729,99583,-28,21,672,21 S,0,93729,99583,0.4470395
Sprite,Foreground,Centre,"SB\CuadradoYay.jpg",320,240 M,0,94094,99948,-28,21,672,21 S,0,94094,99948,0.4470395
Sprite,Foreground,Centre,"SB\CuadradoYay.jpg",320,240 M,0,94460,100314,-28,21,672,21 S,0,94460,100314,0.4470395
Sprite,Foreground,Centre,"SB\CuadradoYay.jpg",320,240 M,0,94825,100679,-28,21,672,21 S,0,94825,100679,0.4470395
Sprite,Foreground,Centre,"SB\CuadradoYay.jpg",320,240 M,0,95191,101045,-28,21,672,21 S,0,95191,101045,0.4470395
Sprite,Foreground,Centre,"SB\CuadradoYay.jpg",320,240 M,0,95556,101410,-28,21,672,21 S,0,95556,101410,0.4470395
Sprite,Foreground,Centre,"SB\CuadradoYay.jpg",320,240 M,0,95922,101776,-28,21,672,21 S,0,95922,101776,0.4470395
Sprite,Foreground,Centre,"SB\CuadradoYay.jpg",320,240 M,0,96287,102141,-28,21,672,21 S,0,96287,102141,0.4470395
Sprite,Foreground,Centre,"SB\CuadradoYay.jpg",320,240 M,0,96653,102507,-28,21,672,21 S,0,96653,102507,0.4470395
Sprite,Foreground,Centre,"SB\CuadradoYay.jpg",320,240 M,0,97018,102872,-28,21,672,21 S,0,97018,102872,0.4470395
Sprite,Foreground,Centre,"SB\CuadradoYay.jpg",320,240 M,0,97384,103238,-28,21,672,21 S,0,97384,103238,0.4470395
Sprite,Foreground,Centre,"SB\CuadradoYay.jpg",320,240 M,0,97749,103603,-28,21,672,21 S,0,97749,103603,0.4470395
Sprite,Foreground,Centre,"SB\CuadradoYay.jpg",320,240 M,0,98115,103969,-28,21,672,21 S,0,98115,103969,0.4470395
Sprite,Foreground,Centre,"SB\CuadradoYay.jpg",320,240 M,0,98480,104334,-28,21,672,21 S,0,98480,104334,0.4470395
Sprite,Foreground,Centre,"SB\CuadradoYay.jpg",320,240 M,0,98846,104700,-28,21,672,21 S,0,98846,104700,0.4470395
Sprite,Foreground,Centre,"SB\CuadradoYay.jpg",320,240 M,0,99211,105065,-28,21,672,21 S,0,99211,105065,0.4470395
Sprite,Foreground,Centre,"SB\CuadradoYay.jpg",320,240 S,0,76185,,0.4470395 M,0,76185,82039,672,456,-28,456
Sprite,Foreground,Centre,"SB\CuadradoYay.jpg",320,240 S,0,76551,,0.4470395 M,0,76551,82405,672,456,-28,456
Sprite,Foreground,Centre,"SB\CuadradoYay.jpg",320,240 S,0,76916,,0.4470395 M,0,76916,82770,672,456,-28,456
Sprite,Foreground,Centre,"SB\CuadradoYay.jpg",320,240 S,0,77282,,0.4470395 M,0,77282,83136,672,456,-28,456
Sprite,Foreground,Centre,"SB\CuadradoYay.jpg",320,240 S,0,77648,,0.4470395 M,0,77648,83502,672,456,-28,456
Sprite,Foreground,Centre,"SB\CuadradoYay.jpg",320,240 S,0,78014,,0.4470395 M,0,78014,83868,672,456,-28,456
Sprite,Foreground,Centre,"SB\CuadradoYay.jpg",320,240 S,0,78379,,0.4470395 M,0,78379,84233,672,456,-28,456
Sprite,Foreground,Centre,"SB\CuadradoYay.jpg",320,240 S,0,78745,,0.4470395 M,0,78745,84599,672,456,-28,456
Sprite,Foreground,Centre,"SB\CuadradoYay.jpg",320,240 S,0,79111,,0.4470395 M,0,79111,84965,672,456,-28,456
Sprite,Foreground,Centre,"SB\CuadradoYay.jpg",320,240 S,0,79477,,0.4470395 M,0,79477,85331,672,456,-28,456
Sprite,Foreground,Centre,"SB\CuadradoYay.jpg",320,240 S,0,79842,,0.4470395 M,0,79842,85696,672,456,-28,456
Sprite,Foreground,Centre,"SB\CuadradoYay.jpg",320,240 S,0,80208,,0.4470395 M,0,80208,86062,672,456,-28,456
Sprite,Foreground,Centre,"SB\CuadradoYay.jpg",320,240 S,0,80574,,0.4470395 M,0,80574,86428,672,456,-28,456
Sprite,Foreground,Centre,"SB\CuadradoYay.jpg",320,240 S,0,80940,,0.4470395 M,0,80940,86794,672,456,-28,456
Sprite,Foreground,Centre,"SB\CuadradoYay.jpg",320,240 S,0,81305,,0.4470395 M,0,81305,87159,672,456,-28,456
Sprite,Foreground,Centre,"SB\CuadradoYay.jpg",320,240 S,0,81671,,0.4470395 M,0,81671,87525,672,456,-28,456
Sprite,Foreground,Centre,"SB\CuadradoYay.jpg",320,240 S,0,82037,,0.4470395 M,0,82037,87891,672,456,-28,456
Sprite,Foreground,Centre,"SB\CuadradoYay.jpg",320,240 S,0,82403,,0.4470395 M,0,82403,88257,672,456,-28,456
Sprite,Foreground,Centre,"SB\CuadradoYay.jpg",320,240 S,0,82768,,0.4470395 M,0,82768,88622,672,456,-28,456
Sprite,Foreground,Centre,"SB\CuadradoYay.jpg",320,240 S,0,83134,,0.4470395 M,0,83134,88988,672,456,-28,456
Sprite,Foreground,Centre,"SB\CuadradoYay.jpg",320,240 S,0,83500,,0.4470395 M,0,83500,89354,672,456,-28,456
Sprite,Foreground,Centre,"SB\CuadradoYay.jpg",320,240 S,0,83866,,0.4470395 M,0,83866,89720,672,456,-28,456
Sprite,Foreground,Centre,"SB\CuadradoYay.jpg",320,240 S,0,84231,,0.4470395 M,0,84231,90085,672,456,-28,456
Sprite,Foreground,Centre,"SB\CuadradoYay.jpg",320,240 S,0,84597,,0.4470395 M,0,84597,90451,672,456,-28,456
Sprite,Foreground,Centre,"SB\CuadradoYay.jpg",320,240 S,0,84963,,0.4470395 M,0,84963,90817,672,456,-28,456
Sprite,Foreground,Centre,"SB\CuadradoYay.jpg",320,240 S,0,85329,,0.4470395 M,0,85329,91183,672,456,-28,456
Sprite,Foreground,Centre,"SB\CuadradoYay.jpg",320,240 S,0,85694,,0.4470395 M,0,85694,91548,672,456,-28,456
Sprite,Foreground,Centre,"SB\CuadradoYay.jpg",320,240 S,0,86060,,0.4470395 M,0,86060,91914,672,456,-28,456
Sprite,Foreground,Centre,"SB\CuadradoYay.jpg",320,240 S,0,86426,,0.4470395 M,0,86426,92280,672,456,-28,456
Sprite,Foreground,Centre,"SB\CuadradoYay.jpg",320,240 S,0,86792,,0.4470395 M,0,86792,92646,672,456,-28,456
Sprite,Foreground,Centre,"SB\CuadradoYay.jpg",320,240 S,0,87157,,0.4470395 M,0,87157,93011,672,456,-28,456
Sprite,Foreground,Centre,"SB\CuadradoYay.jpg",320,240 S,0,87523,,0.4470395 M,0,87523,93377,672,456,-28,456
Sprite,Foreground,Centre,"SB\CuadradoYay.jpg",320,240 S,0,87889,,0.4470395 M,0,87889,93743,672,456,-28,456
Sprite,Foreground,Centre,"SB\CuadradoYay.jpg",320,240 S,0,88255,,0.4470395 M,0,88255,94109,672,456,-28,456
Sprite,Foreground,Centre,"SB\CuadradoYay.jpg",320,240 S,0,88620,,0.4470395 M,0,88620,94474,672,456,-28,456
Sprite,Foreground,Centre,"SB\CuadradoYay.jpg",320,240 S,0,88986,,0.4470395 M,0,88986,94840,672,456,-28,456
Sprite,Foreground,Centre,"SB\CuadradoYay.jpg",320,240 S,0,89352,,0.4470395 M,0,89352,95206,672,456,-28,456
Sprite,Foreground,Centre,"SB\CuadradoYay.jpg",320,240 S,0,89718,,0.4470395 M,0,89718,95572,672,456,-28,456
Sprite,Foreground,Centre,"SB\CuadradoYay.jpg",320,240 S,0,90083,,0.4470395 M,0,90083,95937,672,456,-28,456
Sprite,Foreground,Centre,"SB\CuadradoYay.jpg",320,240 S,0,90449,,0.4470395 M,0,90449,96303,672,456,-28,456
Sprite,Foreground,Centre,"SB\CuadradoYay.jpg",320,240 S,0,90815,,0.4470395 M,0,90815,96669,672,456,-28,456
Sprite,Foreground,Centre,"SB\CuadradoYay.jpg",320,240 S,0,91181,,0.4470395 M,0,91181,97035,672,456,-28,456
Sprite,Foreground,Centre,"SB\CuadradoYay.jpg",320,240 S,0,91546,,0.4470395 M,0,91546,97400,672,456,-28,456
Sprite,Foreground,Centre,"SB\CuadradoYay.jpg",320,240 S,0,91912,,0.4470395 M,0,91912,97766,672,456,-28,456
Sprite,Foreground,Centre,"SB\CuadradoYay.jpg",320,240 S,0,92278,,0.4470395 M,0,92278,98132,672,456,-28,456
Sprite,Foreground,Centre,"SB\CuadradoYay.jpg",320,240 S,0,92644,,0.4470395 M,0,92644,98498,672,456,-28,456
Sprite,Foreground,Centre,"SB\CuadradoYay.jpg",320,240 S,0,93009,,0.4470395 M,0,93009,98863,672,456,-28,456
Sprite,Foreground,Centre,"SB\CuadradoYay.jpg",320,240 S,0,93375,,0.4470395 M,0,93375,99229,672,456,-28,456
Sprite,Foreground,Centre,"SB\CuadradoYay.jpg",320,240 S,0,93741,,0.4470395 M,0,93741,99595,672,456,-28,456
Sprite,Foreground,Centre,"SB\CuadradoYay.jpg",320,240 S,0,94107,,0.4470395 M,0,94107,99961,672,456,-28,456
Sprite,Foreground,Centre,"SB\CuadradoYay.jpg",320,240 S,0,94472,,0.4470395 M,0,94472,100326,672,456,-28,456
Sprite,Foreground,Centre,"SB\CuadradoYay.jpg",320,240 S,0,94838,,0.4470395 M,0,94838,100692,672,456,-28,456
Sprite,Foreground,Centre,"SB\CuadradoYay.jpg",320,240 S,0,95204,,0.4470395 M,0,95204,101058,672,456,-28,456
Sprite,Foreground,Centre,"SB\CuadradoYay.jpg",320,240 S,0,95570,,0.4470395 M,0,95570,101424,672,456,-28,456
Sprite,Foreground,Centre,"SB\CuadradoYay.jpg",320,240 S,0,95935,,0.4470395 M,0,95935,101789,672,456,-28,456
Sprite,Foreground,Centre,"SB\CuadradoYay.jpg",320,240 S,0,96301,,0.4470395 M,0,96301,102155,672,456,-28,456
Sprite,Foreground,Centre,"SB\CuadradoYay.jpg",320,240 S,0,96667,,0.4470395 M,0,96667,102521,672,456,-28,456
Sprite,Foreground,Centre,"SB\CuadradoYay.jpg",320,240 S,0,97033,,0.4470395 M,0,97033,102887,672,456,-28,456
Sprite,Foreground,Centre,"SB\CuadradoYay.jpg",320,240 S,0,97398,,0.4470395 M,0,97398,103252,672,456,-28,456
Sprite,Foreground,Centre,"SB\CuadradoYay.jpg",320,240 S,0,97764,,0.4470395 M,0,97764,103618,672,456,-28,456
Sprite,Foreground,Centre,"SB\CuadradoYay.jpg",320,240 S,0,98130,,0.4470395 M,0,98130,103984,672,456,-28,456
Sprite,Foreground,Centre,"SB\CuadradoYay.jpg",320,240 S,0,98496,,0.4470395 M,0,98496,104350,672,456,-28,456
Sprite,Foreground,Centre,"SB\CuadradoYay.jpg",320,240 S,0,98861,,0.4470395 M,0,98861,104715,672,456,-28,456
Sprite,Foreground,Centre,"SB\CuadradoYay.jpg",320,240 S,0,99227,,0.4470395 M,0,99227,105081,672,456,-28,456
Sprite,Foreground,Centre,"SB\SpicaA.png",320,240 S,0,29346,,1.31744 R,0,29346,,0 F,0,29346,32273,0,0.4777599 M,0,29346,38918,345,232,366,229 M,0,38918,41053,366,229,371,229
Sprite,Foreground,Centre,"SB\light.png",320,240 F,0,38126,39590,0,0.2646508 M,0,38126,41053,370,334,376,338 S,0,38126,41053,0.54944,0.83616 R,0,38126,41053,0,-0.3481604 F,0,39590,,0.2646508
Sprite,Foreground,Centre,"SB\StarsWave.png",320,240 F,0,29346,30809,0,0.2473602 M,0,29346,41053,268,413,364,416
Sprite,Foreground,Centre,"SB\White.jpg",320,240 M,0,39427,39590,320,240 S,0,39590,39600,1.67584,1.6144 F,0,39590,41053,0,1 F,0,41053,41236,1,0
Sprite,Foreground,Centre,"SB\bling3.png",320,240 S,0,64478,,0.8771199 F,0,64478,65209,0,0.3328 M,0,64478,74722,288,242,339,240 F,0,65209,74722,0.3328 F,0,74722,75453,0.3328,0
Sprite,Foreground,Centre,"SB\White.jpg",320,240 S,0,74722,,1.65536 F,0,74722,75819,0,1 F,0,75819,76185,1 F,0,76185,76551,1,0
Sprite,Foreground,Centre,"SB\SpicaB.png",320,240 F,0,64478,65941,0,0.3635201 M,0,64478,74722,320,215,322,242 S,0,64478,74722,0.2729599,0.3343998 F,0,65941,74722,0.3635201 F,0,74722,75453,0.3635201,0
Sprite,Foreground,Centre,"SB\CuadradoYay.jpg",320,240 M,0,174234,180088,-28,21,672,21 S,0,174234,180088,0.4470395
Sprite,Foreground,Centre,"SB\CuadradoYay.jpg",320,240 M,0,174599,180453,-28,21,672,21 S,0,174599,180453,0.4470395
Sprite,Foreground,Centre,"SB\CuadradoYay.jpg",320,240 M,0,174965,180819,-28,21,672,21 S,0,174965,180819,0.4470395
Sprite,Foreground,Centre,"SB\CuadradoYay.jpg",320,240 M,0,175330,181184,-28,21,672,21 S,0,175330,181184,0.4470395
Sprite,Foreground,Centre,"SB\CuadradoYay.jpg",320,240 M,0,175696,181550,-28,21,672,21 S,0,175696,181550,0.4470395
Sprite,Foreground,Centre,"SB\CuadradoYay.jpg",320,240 M,0,176061,181915,-28,21,672,21 S,0,176061,181915,0.4470395
Sprite,Foreground,Centre,"SB\CuadradoYay.jpg",320,240 M,0,176427,182281,-28,21,672,21 S,0,176427,182281,0.4470395
Sprite,Foreground,Centre,"SB\CuadradoYay.jpg",320,240 M,0,176792,182646,-28,21,672,21 S,0,176792,182646,0.4470395
Sprite,Foreground,Centre,"SB\CuadradoYay.jpg",320,240 M,0,177158,183012,-28,21,672,21 S,0,177158,183012,0.4470395
Sprite,Foreground,Centre,"SB\CuadradoYay.jpg",320,240 M,0,177523,183377,-28,21,672,21 S,0,177523,183377,0.4470395
Sprite,Foreground,Centre,"SB\CuadradoYay.jpg",320,240 M,0,177889,183743,-28,21,672,21 S,0,177889,183743,0.4470395
Sprite,Foreground,Centre,"SB\CuadradoYay.jpg",320,240 M,0,178254,184108,-28,21,672,21 S,0,178254,184108,0.4470395
Sprite,Foreground,Centre,"SB\CuadradoYay.jpg",320,240 M,0,178620,184474,-28,21,672,21 S,0,178620,184474,0.4470395
Sprite,Foreground,Centre,"SB\CuadradoYay.jpg",320,240 M,0,178985,184839,-28,21,672,21 S,0,178985,184839,0.4470395
Sprite,Foreground,Centre,"SB\CuadradoYay.jpg",320,240 M,0,179351,185205,-28,21,672,21 S,0,179351,185205,0.4470395
Sprite,Foreground,Centre,"SB\CuadradoYay.jpg",320,240 M,0,179716,185570,-28,21,672,21 S,0,179716,185570,0.4470395
Sprite,Foreground,Centre,"SB\CuadradoYay.jpg",320,240 M,0,180447,186301,-28,21,672,21 S,0,180447,186301,0.4470395
Sprite,Foreground,Centre,"SB\CuadradoYay.jpg",320,240 M,0,180813,186667,-28,21,672,21 S,0,180813,186667,0.4470395
Sprite,Foreground,Centre,"SB\CuadradoYay.jpg",320,240 M,0,181178,187032,-28,21,672,21 S,0,181178,187032,0.4470395
Sprite,Foreground,Centre,"SB\CuadradoYay.jpg",320,240 M,0,181544,187398,-28,21,672,21 S,0,181544,187398,0.4470395
Sprite,Foreground,Centre,"SB\CuadradoYay.jpg",320,240 M,0,181909,187763,-28,21,672,21 S,0,181909,187763,0.4470395
Sprite,Foreground,Centre,"SB\CuadradoYay.jpg",320,240 M,0,182275,188129,-28,21,672,21 S,0,182275,188129,0.4470395
Sprite,Foreground,Centre,"SB\CuadradoYay.jpg",320,240 M,0,182640,188494,-28,21,672,21 S,0,182640,188494,0.4470395
Sprite,Foreground,Centre,"SB\CuadradoYay.jpg",320,240 M,0,183006,188860,-28,21,672,21 S,0,183006,188860,0.4470395
Sprite,Foreground,Centre,"SB\CuadradoYay.jpg",320,240 M,0,183371,189225,-28,21,672,21 S,0,183371,189225,0.4470395
Sprite,Foreground,Centre,"SB\CuadradoYay.jpg",320,240 M,0,183737,189591,-28,21,672,21 S,0,183737,189591,0.4470395
Sprite,Foreground,Centre,"SB\CuadradoYay.jpg",320,240 M,0,184102,189956,-28,21,672,21 S,0,184102,189956,0.4470395
Sprite,Foreground,Centre,"SB\CuadradoYay.jpg",320,240 M,0,184468,190322,-28,21,672,21 S,0,184468,190322,0.4470395
Sprite,Foreground,Centre,"SB\CuadradoYay.jpg",320,240 M,0,184833,190687,-28,21,672,21 S,0,184833,190687,0.4470395
Sprite,Foreground,Centre,"SB\CuadradoYay.jpg",320,240 M,0,185199,191053,-28,21,672,21 S,0,185199,191053,0.4470395
Sprite,Foreground,Centre,"SB\CuadradoYay.jpg",320,240 M,0,185564,191418,-28,21,672,21 S,0,185564,191418,0.4470395
Sprite,Foreground,Centre,"SB\CuadradoYay.jpg",320,240 M,0,185930,191784,-28,21,672,21 S,0,185930,191784,0.4470395
Sprite,Foreground,Centre,"SB\CuadradoYay.jpg",320,240 M,0,186295,192149,-28,21,672,21 S,0,186295,192149,0.4470395
Sprite,Foreground,Centre,"SB\CuadradoYay.jpg",320,240 M,0,186661,192515,-28,21,672,21 S,0,186661,192515,0.4470395
Sprite,Foreground,Centre,"SB\CuadradoYay.jpg",320,240 M,0,187026,192880,-28,21,672,21 S,0,187026,192880,0.4470395
Sprite,Foreground,Centre,"SB\CuadradoYay.jpg",320,240 M,0,187392,193246,-28,21,672,21 S,0,187392,193246,0.4470395
Sprite,Foreground,Centre,"SB\CuadradoYay.jpg",320,240 M,0,187757,193611,-28,21,672,21 S,0,187757,193611,0.4470395
Sprite,Foreground,Centre,"SB\CuadradoYay.jpg",320,240 M,0,188123,193977,-28,21,672,21 S,0,188123,193977,0.4470395
Sprite,Foreground,Centre,"SB\CuadradoYay.jpg",320,240 M,0,188488,194342,-28,21,672,21 S,0,188488,194342,0.4470395
Sprite,Foreground,Centre,"SB\CuadradoYay.jpg",320,240 M,0,188854,194708,-28,21,672,21 S,0,188854,194708,0.4470395
Sprite,Foreground,Centre,"SB\CuadradoYay.jpg",320,240 M,0,189219,195073,-28,21,672,21 S,0,189219,195073,0.4470395
Sprite,Foreground,Centre,"SB\CuadradoYay.jpg",320,240 M,0,189585,195439,-28,21,672,21 S,0,189585,195439,0.4470395
Sprite,Foreground,Centre,"SB\CuadradoYay.jpg",320,240 M,0,189950,195804,-28,21,672,21 S,0,189950,195804,0.4470395
Sprite,Foreground,Centre,"SB\CuadradoYay.jpg",320,240 M,0,190316,196170,-28,21,672,21 S,0,190316,196170,0.4470395
Sprite,Foreground,Centre,"SB\CuadradoYay.jpg",320,240 M,0,190681,196535,-28,21,672,21 S,0,190681,196535,0.4470395
Sprite,Foreground,Centre,"SB\CuadradoYay.jpg",320,240 M,0,191047,196901,-28,21,672,21 S,0,191047,196901,0.4470395
Sprite,Foreground,Centre,"SB\CuadradoYay.jpg",320,240 M,0,191412,197266,-28,21,672,21 S,0,191412,197266,0.4470395
Sprite,Foreground,Centre,"SB\CuadradoYay.jpg",320,240 M,0,191778,197632,-28,21,672,21 S,0,191778,197632,0.4470395
Sprite,Foreground,Centre,"SB\CuadradoYay.jpg",320,240 M,0,192143,197997,-28,21,672,21 S,0,192143,197997,0.4470395
Sprite,Foreground,Centre,"SB\CuadradoYay.jpg",320,240 M,0,192509,198363,-28,21,672,21 S,0,192509,198363,0.4470395
Sprite,Foreground,Centre,"SB\CuadradoYay.jpg",320,240 M,0,192874,198728,-28,21,672,21 S,0,192874,198728,0.4470395
Sprite,Foreground,Centre,"SB\CuadradoYay.jpg",320,240 M,0,193240,199094,-28,21,672,21 S,0,193240,199094,0.4470395
Sprite,Foreground,Centre,"SB\CuadradoYay.jpg",320,240 M,0,193605,199459,-28,21,672,21 S,0,193605,199459,0.4470395
Sprite,Foreground,Centre,"SB\CuadradoYay.jpg",320,240 M,0,193971,199825,-28,21,672,21 S,0,193971,199825,0.4470395
Sprite,Foreground,Centre,"SB\CuadradoYay.jpg",320,240 M,0,194336,200190,-28,21,672,21 S,0,194336,200190,0.4470395
Sprite,Foreground,Centre,"SB\CuadradoYay.jpg",320,240 M,0,194702,200556,-28,21,672,21 S,0,194702,200556,0.4470395
Sprite,Foreground,Centre,"SB\CuadradoYay.jpg",320,240 M,0,195067,200921,-28,21,672,21 S,0,195067,200921,0.4470395
Sprite,Foreground,Centre,"SB\CuadradoYay.jpg",320,240 M,0,195433,201287,-28,21,672,21 S,0,195433,201287,0.4470395
Sprite,Foreground,Centre,"SB\CuadradoYay.jpg",320,240 M,0,195798,201652,-28,21,672,21 S,0,195798,201652,0.4470395
Sprite,Foreground,Centre,"SB\CuadradoYay.jpg",320,240 M,0,196164,202018,-28,21,672,21 S,0,196164,202018,0.4470395
Sprite,Foreground,Centre,"SB\CuadradoYay.jpg",320,240 M,0,196529,202383,-28,21,672,21 S,0,196529,202383,0.4470395
Sprite,Foreground,Centre,"SB\CuadradoYay.jpg",320,240 M,0,196895,202749,-28,21,672,21 S,0,196895,202749,0.4470395
Sprite,Foreground,Centre,"SB\CuadradoYay.jpg",320,240 M,0,197260,203114,-28,21,672,21 S,0,197260,203114,0.4470395
Sprite,Foreground,Centre,"SB\CuadradoYay.jpg",320,240 S,0,174234,,0.4470395 M,0,174234,180088,672,456,-28,456
Sprite,Foreground,Centre,"SB\CuadradoYay.jpg",320,240 S,0,174600,,0.4470395 M,0,174600,180454,672,456,-28,456
Sprite,Foreground,Centre,"SB\CuadradoYay.jpg",320,240 S,0,174965,,0.4470395 M,0,174965,180819,672,456,-28,456
Sprite,Foreground,Centre,"SB\CuadradoYay.jpg",320,240 S,0,175331,,0.4470395 M,0,175331,181185,672,456,-28,456
Sprite,Foreground,Centre,"SB\CuadradoYay.jpg",320,240 S,0,175697,,0.4470395 M,0,175697,181551,672,456,-28,456
Sprite,Foreground,Centre,"SB\CuadradoYay.jpg",320,240 S,0,176063,,0.4470395 M,0,176063,181917,672,456,-28,456
Sprite,Foreground,Centre,"SB\CuadradoYay.jpg",320,240 S,0,176428,,0.4470395 M,0,176428,182282,672,456,-28,456
Sprite,Foreground,Centre,"SB\CuadradoYay.jpg",320,240 S,0,176794,,0.4470395 M,0,176794,182648,672,456,-28,456
Sprite,Foreground,Centre,"SB\CuadradoYay.jpg",320,240 S,0,177160,,0.4470395 M,0,177160,183014,672,456,-28,456
Sprite,Foreground,Centre,"SB\CuadradoYay.jpg",320,240 S,0,177526,,0.4470395 M,0,177526,183380,672,456,-28,456
Sprite,Foreground,Centre,"SB\CuadradoYay.jpg",320,240 S,0,177891,,0.4470395 M,0,177891,183745,672,456,-28,456
Sprite,Foreground,Centre,"SB\CuadradoYay.jpg",320,240 S,0,178257,,0.4470395 M,0,178257,184111,672,456,-28,456
Sprite,Foreground,Centre,"SB\CuadradoYay.jpg",320,240 S,0,178623,,0.4470395 M,0,178623,184477,672,456,-28,456
Sprite,Foreground,Centre,"SB\CuadradoYay.jpg",320,240 S,0,178989,,0.4470395 M,0,178989,184843,672,456,-28,456
Sprite,Foreground,Centre,"SB\CuadradoYay.jpg",320,240 S,0,179354,,0.4470395 M,0,179354,185208,672,456,-28,456
Sprite,Foreground,Centre,"SB\CuadradoYay.jpg",320,240 S,0,179720,,0.4470395 M,0,179720,185574,672,456,-28,456
Sprite,Foreground,Centre,"SB\CuadradoYay.jpg",320,240 S,0,180086,,0.4470395 M,0,180086,185940,672,456,-28,456
Sprite,Foreground,Centre,"SB\CuadradoYay.jpg",320,240 S,0,180452,,0.4470395 M,0,180452,186306,672,456,-28,456
Sprite,Foreground,Centre,"SB\CuadradoYay.jpg",320,240 S,0,180817,,0.4470395 M,0,180817,186671,672,456,-28,456
Sprite,Foreground,Centre,"SB\CuadradoYay.jpg",320,240 S,0,181183,,0.4470395 M,0,181183,187037,672,456,-28,456
Sprite,Foreground,Centre,"SB\CuadradoYay.jpg",320,240 S,0,181549,,0.4470395 M,0,181549,187403,672,456,-28,456
Sprite,Foreground,Centre,"SB\CuadradoYay.jpg",320,240 S,0,181915,,0.4470395 M,0,181915,187769,672,456,-28,456
Sprite,Foreground,Centre,"SB\CuadradoYay.jpg",320,240 S,0,182280,,0.4470395 M,0,182280,188134,672,456,-28,456
Sprite,Foreground,Centre,"SB\CuadradoYay.jpg",320,240 S,0,182646,,0.4470395 M,0,182646,188500,672,456,-28,456
Sprite,Foreground,Centre,"SB\CuadradoYay.jpg",320,240 S,0,183012,,0.4470395 M,0,183012,188866,672,456,-28,456
Sprite,Foreground,Centre,"SB\CuadradoYay.jpg",320,240 S,0,183378,,0.4470395 M,0,183378,189232,672,456,-28,456
Sprite,Foreground,Centre,"SB\CuadradoYay.jpg",320,240 S,0,183743,,0.4470395 M,0,183743,189597,672,456,-28,456
Sprite,Foreground,Centre,"SB\CuadradoYay.jpg",320,240 S,0,184109,,0.4470395 M,0,184109,189963,672,456,-28,456
Sprite,Foreground,Centre,"SB\CuadradoYay.jpg",320,240 S,0,184475,,0.4470395 M,0,184475,190329,672,456,-28,456
Sprite,Foreground,Centre,"SB\CuadradoYay.jpg",320,240 S,0,184841,,0.4470395 M,0,184841,190695,672,456,-28,456
Sprite,Foreground,Centre,"SB\CuadradoYay.jpg",320,240 S,0,185206,,0.4470395 M,0,185206,191060,672,456,-28,456
Sprite,Foreground,Centre,"SB\CuadradoYay.jpg",320,240 S,0,185572,,0.4470395 M,0,185572,191426,672,456,-28,456
Sprite,Foreground,Centre,"SB\CuadradoYay.jpg",320,240 S,0,185938,,0.4470395 M,0,185938,191792,672,456,-28,456
Sprite,Foreground,Centre,"SB\CuadradoYay.jpg",320,240 S,0,186304,,0.4470395 M,0,186304,192158,672,456,-28,456
Sprite,Foreground,Centre,"SB\CuadradoYay.jpg",320,240 S,0,186669,,0.4470395 M,0,186669,192523,672,456,-28,456
Sprite,Foreground,Centre,"SB\CuadradoYay.jpg",320,240 S,0,187035,,0.4470395 M,0,187035,192889,672,456,-28,456
Sprite,Foreground,Centre,"SB\CuadradoYay.jpg",320,240 S,0,187401,,0.4470395 M,0,187401,193255,672,456,-28,456
Sprite,Foreground,Centre,"SB\CuadradoYay.jpg",320,240 S,0,187767,,0.4470395 M,0,187767,193621,672,456,-28,456
Sprite,Foreground,Centre,"SB\CuadradoYay.jpg",320,240 S,0,188132,,0.4470395 M,0,188132,193986,672,456,-28,456
Sprite,Foreground,Centre,"SB\CuadradoYay.jpg",320,240 S,0,188498,,0.4470395 M,0,188498,194352,672,456,-28,456
Sprite,Foreground,Centre,"SB\CuadradoYay.jpg",320,240 S,0,188864,,0.4470395 M,0,188864,194718,672,456,-28,456
Sprite,Foreground,Centre,"SB\CuadradoYay.jpg",320,240 S,0,189230,,0.4470395 M,0,189230,195084,672,456,-28,456
Sprite,Foreground,Centre,"SB\CuadradoYay.jpg",320,240 S,0,189595,,0.4470395 M,0,189595,195449,672,456,-28,456
Sprite,Foreground,Centre,"SB\CuadradoYay.jpg",320,240 S,0,189961,,0.4470395 M,0,189961,195815,672,456,-28,456
Sprite,Foreground,Centre,"SB\CuadradoYay.jpg",320,240 S,0,190327,,0.4470395 M,0,190327,196181,672,456,-28,456
Sprite,Foreground,Centre,"SB\CuadradoYay.jpg",320,240 S,0,190693,,0.4470395 M,0,190693,196547,672,456,-28,456
Sprite,Foreground,Centre,"SB\CuadradoYay.jpg",320,240 S,0,191058,,0.4470395 M,0,191058,196912,672,456,-28,456
Sprite,Foreground,Centre,"SB\CuadradoYay.jpg",320,240 S,0,191424,,0.4470395 M,0,191424,197278,672,456,-28,456
Sprite,Foreground,Centre,"SB\CuadradoYay.jpg",320,240 S,0,191790,,0.4470395 M,0,191790,197644,672,456,-28,456
Sprite,Foreground,Centre,"SB\CuadradoYay.jpg",320,240 S,0,192156,,0.4470395 M,0,192156,198010,672,456,-28,456
Sprite,Foreground,Centre,"SB\CuadradoYay.jpg",320,240 S,0,192521,,0.4470395 M,0,192521,198375,672,456,-28,456
Sprite,Foreground,Centre,"SB\CuadradoYay.jpg",320,240 S,0,192887,,0.4470395 M,0,192887,198741,672,456,-28,456
Sprite,Foreground,Centre,"SB\CuadradoYay.jpg",320,240 S,0,193253,,0.4470395 M,0,193253,199107,672,456,-28,456
Sprite,Foreground,Centre,"SB\CuadradoYay.jpg",320,240 S,0,193619,,0.4470395 M,0,193619,199473,672,456,-28,456
Sprite,Foreground,Centre,"SB\CuadradoYay.jpg",320,240 S,0,193984,,0.4470395 M,0,193984,199838,672,456,-28,456
Sprite,Foreground,Centre,"SB\CuadradoYay.jpg",320,240 S,0,194350,,0.4470395 M,0,194350,200204,672,456,-28,456
Sprite,Foreground,Centre,"SB\CuadradoYay.jpg",320,240 S,0,194716,,0.4470395 M,0,194716,200570,672,456,-28,456
Sprite,Foreground,Centre,"SB\CuadradoYay.jpg",320,240 S,0,195082,,0.4470395 M,0,195082,200936,672,456,-28,456
Sprite,Foreground,Centre,"SB\CuadradoYay.jpg",320,240 S,0,195447,,0.4470395 M,0,195447,201301,672,456,-28,456
Sprite,Foreground,Centre,"SB\CuadradoYay.jpg",320,240 S,0,195813,,0.4470395 M,0,195813,201667,672,456,-28,456
Sprite,Foreground,Centre,"SB\CuadradoYay.jpg",320,240 S,0,196179,,0.4470395 M,0,196179,202033,672,456,-28,456
Sprite,Foreground,Centre,"SB\CuadradoYay.jpg",320,240 S,0,196545,,0.4470395 M,0,196545,202399,672,456,-28,456
Sprite,Foreground,Centre,"SB\CuadradoYay.jpg",320,240 S,0,196910,,0.4470395 M,0,196910,202764,672,456,-28,456
Sprite,Foreground,Centre,"SB\CuadradoYay.jpg",320,240 S,0,197276,,0.4470395 M,0,197276,203130,672,456,-28,456
Sprite,Foreground,Centre,"SB\MeltB.jpg",320,240 S,0,76185,,1.16384 M,0,76185,105453,481,237,258,237 F,0,105087,105453,1,0 F,0,105453,,0
Sprite,Foreground,Centre,"SB\la.png",320,240 F,0,105453,105636,0,1 M,0,105453,105819,152,86,152,89 F,0,105636,108014,1 F,0,108014,108380,1,0
Sprite,Foreground,Centre,"SB\la.png",320,240 F,0,106002,106185,0,1 M,0,106002,106368,199,101,200,96 F,0,106185,108014,1 F,0,108014,108380,1,0
Sprite,Foreground,Centre,"SB\la.png",320,240 F,0,106185,106368,0,1 M,0,106185,106551,249,79,248,85 F,0,106368,108014,1 F,0,108014,108380,1,0
Sprite,Foreground,Centre,"SB\la.png",320,240 F,0,106551,106734,0,1 M,0,106551,106917,290,100,290,96 F,0,106734,108014,1 F,0,108014,108380,1,0
Sprite,Foreground,Centre,"SB\la.png",320,240 F,0,106917,107100,0,1 M,0,106917,107283,341,87,341,92 F,0,107100,108014,1 F,0,108014,108380,1,0
Sprite,Foreground,Centre,"SB\la.png",320,240 F,0,107283,107466,0,1 M,0,107283,107648,388,79,388,85 F,0,107466,108014,1 F,0,108014,108380,1,0
Sprite,Foreground,Centre,"SB\la.png",320,240 F,0,107648,107831,0,1 M,0,107648,108380,435,75,435,88 F,0,107831,108380,1 F,0,108380,108563,1,0
Sprite,Foreground,Centre,"SB\~.png",320,240 F,0,107648,107831,0,1 M,0,107648,108380,479,78,478,92 F,0,107831,108380,1 F,0,108380,108563,1,0
Sprite,Foreground,Centre,"SB\la.png",320,240 F,0,108380,108563,0,1 M,0,108380,108746,288,211,296,211 F,0,108563,110941,1 F,0,110941,111307,1,0
Sprite,Foreground,Centre,"SB\la.png",320,240 F,0,108929,109112,0,1 M,0,108929,109295,345,186,350,186 F,0,109112,110941,1 F,0,110941,111307,1,0
Sprite,Foreground,Centre,"SB\la.png",320,240 F,0,109112,109295,0,1 M,0,109112,109478,391,202,396,202 F,0,109295,110941,1 F,0,110941,111307,1,0
Sprite,Foreground,Centre,"SB\la.png",320,240 F,0,109478,109661,0,0.9590399 M,0,109478,109844,437,223,442,223 F,0,109661,110941,0.9590399 F,0,110941,111307,0.9590399,0 F,0,111307,,0
Sprite,Foreground,Centre,"SB\la.png",320,240 F,0,109844,110027,0,0.8873599 M,0,109844,110209,477,247,484,247 F,0,110027,110941,0.8873599 F,0,110941,111307,0.8873599,0
Sprite,Foreground,Centre,"SB\la.png",320,240 M,0,110205,110571,533,222,538,223 F,0,110209,110392,0,1 F,0,110392,110941,1 F,0,110941,111307,1,0
Sprite,Foreground,Centre,"SB\la.png",320,240 M,0,110571,111303,563,183,574,182 F,0,110575,110758,0,1 F,0,110758,111124,1 F,0,111124,111307,1,0
Sprite,Foreground,Centre,"SB\~.png",320,240 M,0,110571,111303,607,183,619,182 F,0,110575,110758,0,1 F,0,110758,111124,1,0.8448 F,0,111124,111307,0.8448,0
Sprite,Foreground,Centre,"SB\la.png",320,240 F,0,111307,111490,1 M,0,111307,111673,140,258,141,251 F,0,111490,113868,1 F,0,113868,114234,1,0
Sprite,Foreground,Centre,"SB\la.png",320,240 F,0,111856,112039,0,1 M,0,111856,112222,190,249,191,242 F,0,112039,113868,1 F,0,113868,114234,1,0
Sprite,Foreground,Centre,"SB\la.png",320,240 F,0,112039,112222,0,1 M,0,112039,112405,243,231,242,237 F,0,112222,113868,1 F,0,113868,114234,1,0
Sprite,Foreground,Centre,"SB\la.png",320,240 F,0,112405,112587,0,1 M,0,112405,112770,290,237,290,243 F,0,112587,113868,1 F,0,113868,114234,1,0
Sprite,Foreground,Centre,"SB\la.png",320,240 F,0,112770,112953,0,1 M,0,112770,113136,336,243,336,238 F,0,112953,113868,1 F,0,113868,114234,1,0
Sprite,Foreground,Centre,"SB\la.png",320,240 F,0,113136,113319,0,1 M,0,113136,113502,383,240,382,246 F,0,113319,113868,1 F,0,113868,114234,1,0
Sprite,Foreground,Centre,"SB\la.png",320,240 F,0,113502,113685,0,1 M,0,113502,114234,429,247,429,258 F,0,113685,114051,1 F,0,114051,114234,1,0
Sprite,Foreground,Centre,"SB\~.png",320,240 F,0,113502,113685,0,1 M,0,113502,114234,471,253,471,263 F,0,113685,,1 F,0,113685,114051,1 F,0,114051,114234,1,0
Sprite,Foreground,Centre,"SB\la.png",320,240 F,0,114783,114966,0.3600002,1 M,0,114783,115148,295,416,301,416 F,0,114966,116795,1 F,0,116795,117161,1,0
Sprite,Foreground,Centre,"SB\la.png",320,240 F,0,114234,114417,0,1 M,0,114234,114600,243,443,250,443 F,0,114417,116795,1 F,0,116795,117161,1,0
Sprite,Foreground,Centre,"SB\la.png",320,240 F,0,114966,115148,0,1 M,0,114966,115331,338,423,346,423 F,0,115148,116795,1 F,0,116795,117161,1,0
Sprite,Foreground,Centre,"SB\la.png",320,240 F,0,115331,115514,0,1 M,0,115331,115697,382,440,390,440 F,0,115514,116795,1 F,0,116795,117161,1,0
Sprite,Foreground,Centre,"SB\la.png",320,240 F,0,115697,115880,0,1 M,0,115697,116063,437,426,441,426 F,0,115880,116795,1 F,0,116795,117252,1,0
Sprite,Foreground,Centre,"SB\la.png",320,240 F,0,116063,116246,0,1 M,0,116063,116429,487,409,494,409 F,0,116246,116795,1 F,0,116795,117069,1,0 F,0,117069,117161,0
Sprite,Foreground,Centre,"SB\la.png",320,240 F,0,116429,116612,0,1 M,0,116429,117161,536,420,543,421 F,0,116612,,1 F,0,116612,116978,1 F,0,116978,117161,1,0 M,0,117161,,532,375
Sprite,Foreground,Centre,"SB\Sakura.png",320,240 S,0,105453,,0.25248 F,0,105453,105636,0,0.90784 M,0,105453,108380,105,68,108,100 R,0,105453,108380,0,-2.74432 F,0,105636,108197,0.90784 F,0,108197,108380,0.90784,0
Sprite,Foreground,Centre,"SB\Sakura.png",320,240 M,0,108376,111303,483,187,496,203 S,0,108380,,0.2115199 F,0,108380,108563,0,1 R,0,108380,111307,0.6553601,-1.61792 F,0,108563,111124,1 F,0,111124,111307,1,0
Sprite,Foreground,Centre,"SB\Sakura.png",320,240 S,0,108380,,0.1500801 F,0,108380,108563,0,1 M,0,108380,111307,354,229,358,251 R,0,108380,111307,0.47104,5.46816 F,0,108563,111124,1 F,0,111124,111307,1,0
Sprite,Foreground,Centre,"SB\Sakura.png",320,240 S,0,111307,,0.25248 F,0,111307,111490,0,1 M,0,111307,114234,90,236,94,253 R,0,111307,114234,-4.52608,0.75776 F,0,111490,114051,1 F,0,114051,114234,1,0
Sprite,Foreground,Centre,"SB\Sakura.png",320,240 S,0,111307,,0.11936 F,0,111307,111490,0,1 M,0,111307,114234,122,198,124,217 R,0,111307,114234,0,-10.21952 F,0,111490,114051,1 F,0,114051,114234,1,0
Sprite,Foreground,Centre,"SB\Sakura.png",320,240 S,0,111307,,0.1808 F,0,111307,111490,0,1 M,0,111307,114234,261,212,259,227 R,0,111307,114234,9.400321,11.89888 F,0,111490,114051,1 F,0,114051,114234,1,0
Sprite,Foreground,Centre,"SB\Sakura.png",320,240 S,0,114234,,0.1808002 F,0,114234,114417,0,1 M,0,114234,117161,231,412,231,426 R,0,114234,117161,1.45408,-0.6144 F,0,114417,116978,1 F,0,116978,117161,1,0
Sprite,Foreground,Centre,"SB\~.png",320,240 F,0,116429,116612,0.2064,1 M,0,116429,117161,585,420,592,421 F,0,116612,116978,1 F,0,116978,117161,1,0
Sprite,Foreground,Centre,"SB\CuadradoYay.jpg",320,240 F,0,180082,,0.89248 M,0,180082,185936,-28,21,672,21 S,0,180082,185936,0.4470395
Sprite,Foreground,Centre,"SB\Black.jpg",320,240 F,0,151551,,1 S,0,151551,,1.63488 M,0,151551,174234,320,240
Sprite,Foreground,Centre,"SB\StarSky.png",320,240 F,0,142039,143502,0,1 S,0,142039,152283,0.8156801,0.8976002 R,0,142039,152283,0,-0.08192001 F,0,143502,151917,1 F,0,151917,152283,1,0
Sprite,Foreground,Centre,"SB\light.png",320,240 F,0,166917,172770,0,1 S,0,166917,173502,0.6620798,1.33792 R,0,166917,173502,0,1.72032 M,0,169844,,311,167 F,0,172770,,1 F,0,172770,173502,1,0
Sprite,Foreground,Centre,"SB\SpicaB.png",320,240 M,0,165453,,320,240 F,0,165453,166917,0,0.7692555 S,0,165453,173502,0.49824,0.5391998 F,0,166917,172770,0.7692555 F,0,172770,173502,0.7692555,0
Sprite,Foreground,Centre,"SB\SpicaA.png",320,240 S,0,142039,,1.21504 F,0,142039,143502,0,0.71328 M,0,142039,152283,301,240,311,240 F,0,143502,146063,0.71328,1 F,0,146063,152283,1,0.71328 F,0,152283,153014,0.71328,0.01563354
Sprite,Foreground,Centre,"SB\bling2.png",320,240 S,0,165453,,0.8054401 F,0,165453,166917,0,1 F,0,166917,172770,1,0.9938524 F,0,172770,173502,0.9938524,0
Sprite,Foreground,Centre,"SB\White.jpg",320,240 M,0,173502,,320,240 S,0,173502,,1.63488 F,0,173502,174234,0,1 F,0,174234,174417,1,0
Sprite,Foreground,Centre,"SB\White.jpg",320,240 F,0,202039,202770,0,0.80032 S,0,202039,204966,1.6144 F,0,202770,203502,0.80032,1 F,0,203502,204966,1 F,0,204966,206429,1,0
Sprite,Foreground,Centre,"SB\lyrics\Lyric1.png",320,240 F,0,5941,6124,0,1 M,0,5941,8868,116,445,143,444 F,0,6124,8502,1,0.9234973 F,0,8502,8868,0.9234973,0
Sprite,Foreground,Centre,"SB\lyrics\Lyric2.png",320,240 F,0,8868,9600,0,1 M,0,8868,13258,136,438,163,441 F,0,9600,12892,1 F,0,12892,13258,1,0
Sprite,Foreground,Centre,"SB\lyrics\Lyric3.png",320,240 F,0,13990,14356,0,1 M,0,13990,16185,79,440,93,438 F,0,14356,15819,1 F,0,15819,16185,1,0
Sprite,Foreground,Centre,"SB\lyrics\Lyric4.png",320,240 F,0,16917,17283,0,1 M,0,16917,20575,169,436,186,436 F,0,17283,20209,1 F,0,20209,20575,1,0
Sprite,Foreground,Centre,"SB\lyrics\Lyric5.png",320,240 F,0,20575,20941,0,1 M,0,20575,24966,219,427,240,429 F,0,20941,24234,1 F,0,24234,24966,1,0
Sprite,Foreground,Centre,"SB\lyrics\Lyric6.png",320,240 F,0,25697,26063,0,1 M,0,25697,27527,162,449,171,449 F,0,26063,27161,1 F,0,27161,27527,1,0 M,0,27527,,171,449
Sprite,Foreground,Centre,"SB\lyrics\Lyric7.png",320,240 F,0,27527,27892,0,1 M,0,27527,28990,136,443,156,443 F,0,27892,28807,1 F,0,28807,28990,1,0
Sprite,Foreground,Centre,"SB\lyrics\Lyric8.png",320,240 F,0,28990,29356,0,1 M,0,28990,33746,293,443,304,442 F,0,29356,33380,1 F,0,33380,33746,1,0
Sprite,Foreground,Centre,"SB\lyrics\Lyric9.png",320,240 F,0,34478,34844,0,1 M,0,34478,38868,194,441,212,441 F,0,34844,38502,1 F,0,38502,38868,1,0
Sprite,Foreground,Centre,"SB\lyrics\Lyric10.png",320,240 F,0,38868,39051,0,1 M,0,38868,40331,130,445,134,444 F,0,39051,40148,1 F,0,40148,40331,1,0
Sprite,Foreground,Centre,"SB\lyrics\Lyric11.png",320,240 F,0,41063,41246,0,1 M,0,41063,43624,137,442,161,443 F,0,41246,43441,1 F,0,43441,43624,1,0
Sprite,Foreground,Centre,"SB\lyrics\Lyric12.png",320,240 F,0,43624,43990,0,1 M,0,43624,52039,253,447,295,447 F,0,43990,51307,1 F,0,51307,52039,1,0
Sprite,Foreground,Centre,"SB\lyrics\Lyric13.png",320,240 F,0,52770,53136,0,1 M,0,52770,57892,211,444,238,445 F,0,53136,57527,1 F,0,57527,57892,1,0
Sprite,Foreground,Centre,"SB\lyrics\Lyric14.png",320,240 F,0,57892,58258,0,1 M,0,57892,63014,261,444,273,442 F,0,58258,62283,1 F,0,62283,63014,1,0
Sprite,Foreground,Centre,"SB\lyrics\Lyric15.png",320,240 M,0,64478,,315,336 F,0,64478,64844,0,0.8464 S,0,64478,68868,1,1.04096 F,0,64844,68502,0.8464,0.7644801 F,0,68502,68868,0.7644801,0
Sprite,Foreground,Centre,"SB\lyrics\Lyric16.png",320,240 M,0,69600,,317,335 F,0,69600,69966,0,1 S,0,69600,74722,1,1.07168 F,0,69966,74722,1 F,0,74722,75087,1,0
Sprite,Foreground,Centre,"SB\lyrics\Lyric17.png",320,240 F,0,76185,76551,0,1 M,0,76185,80575,423,398,442,398 F,0,76551,80209,1 F,0,80209,80575,1,0
Sprite,Foreground,Centre,"SB\lyrics\Lyric18.png",320,240 S,0,80575,,0.9283197 F,0,80575,80941,0,1 M,0,80575,87892,304,403,333,403 F,0,80941,87527,1 F,0,87527,87892,1,0
Sprite,Foreground,Centre,"SB\lyrics\Lyric19.png",320,240 F,0,87892,88258,0,1 M,0,87892,92283,397,402,412,402 F,0,88258,91917,1 F,0,91917,92283,1,0
Sprite,Foreground,Centre,"SB\lyrics\Lyric20.png",320,240 F,0,92283,92648,0,1 M,0,92283,98868,363,402,395,401 F,0,92648,98502,1 F,0,98502,98868,1,0
Sprite,Foreground,Centre,"SB\lyrics\Lyric21.png",320,240 F,0,99234,99600,0,1 M,0,99234,105453,366,404,379,404 F,0,99600,105087,1 F,0,105087,105453,1,0.11424
Sprite,Foreground,Centre,"SB\lyrics\Lyric22.png",320,240 F,0,117252,117527,0,1 M,0,117252,121185,231,431,249,432 F,0,117527,120819,1 F,0,120819,121185,1,0
Sprite,Foreground,Centre,"SB\lyrics\Lyric23.png",320,240 F,0,121185,121551,0,1 M,0,121185,127405,190,432,226,432 F,0,121551,126673,1 F,0,126673,127405,1,0
Sprite,Foreground,Centre,"SB\lyrics\Lyric24.png",320,240 S,0,128868,,0.7952 F,0,128868,129234,0,1 M,0,128868,134722,315,430,321,441 F,0,129234,134356,1 F,0,134356,134722,1,0
Sprite,Foreground,Centre,"SB\lyrics\Lyric25.png",320,240 F,0,135087,135453,0,1 M,0,135087,139844,251,439,290,439 F,0,135453,139478,1 F,0,139478,139844,1,0
Sprite,Foreground,Centre,"SB\lyrics\Lyric26.png",320,240 F,0,139844,139935,0,0.950246 S,0,139844,141673,1.0512,1.27648 F,0,139935,141673,0.950246,0
Sprite,Foreground,Centre,"SB\lyrics\Lyric26.png",320,240 F,0,139844,140575,1,0 S,0,139844,140575,0.90784,1.52224
Sprite,Foreground,Centre,"SB\lyrics\Lyric27.png",320,240 F,0,141673,142039,0,1 M,0,141673,146429,245,444,272,444 F,0,142039,146063,1 F,0,146063,146429,1,0.06815987
Sprite,Foreground,Centre,"SB\lyrics\Lyric28.png",320,240 F,0,146429,146795,0,1 M,0,146429,153014,205,439,233,439 F,0,146795,152283,1 F,0,152283,153014,1,0
Sprite,Foreground,Centre,"SB\lyrics\Lyric29.png",320,240 M,0,153746,,321,306 F,0,153746,154112,0,0.7696001 S,0,153746,155941,0.71328,0.7951998 F,0,154112,155575,0.7696001,0.79008 F,0,155575,155941,0.79008,0
Sprite,Foreground,Centre,"SB\lyrics\Lyric30.png",320,240 M,0,156307,,316,309 F,0,156307,156673,0,0.5529602 S,0,156307,160697,0.7849603,0.8259204 F,0,156673,160331,0.5529602 F,0,160331,160697,0.5529602,0
Sprite,Foreground,Centre,"SB\lyrics\Lyric31.png",320,240 M,0,160697,,308,308 F,0,160697,161063,0,0.7798399 S,0,160697,165453,0.744,0.8054401 F,0,161063,164722,0.7798399 F,0,164722,165453,0.7798399,0
Sprite,Foreground,Centre,"SB\lyrics\Lyric32.png",320,240 M,0,165453,,322,375 F,0,165453,166185,0,1 S,0,165453,167648,0.8464,0.87712 F,0,166185,167283,1,0.9917976 F,0,167283,167648,0.9917976,0.0009109163
Sprite,Foreground,Centre,"SB\lyrics\Lyric33.png",320,240 M,0,167648,,317,374 F,0,167648,168014,0,1 S,0,167648,170209,0.8463998,0.9385599 F,0,168014,169844,1,0.9612756 F,0,169844,170209,0.9612756,0
Sprite,Foreground,Centre,"SB\lyrics\Lyric34.png",320,240 M,0,170209,,320,374 F,0,170209,170575,0,1 S,0,170209,172770,0.8987198,0.9499198 F,0,170575,172405,1 F,0,172405,172770,1,0.2524799
Sprite,Foreground,Centre,"SB\lyrics\Lyric35.png",320,240 S,0,174234,,1 F,0,174234,174600,0,1 M,0,174234,178624,303,402,336,400 F,0,174600,177892,1 F,0,177892,178624,1,0.02720001
Sprite,Foreground,Centre,"SB\lyrics\Lyric36.png",320,240 F,0,178624,178990,0.2371197,1 M,0,178624,185941,309,399,336,399 F,0,178990,185575,1 F,0,185575,185941,1,0
Sprite,Foreground,Centre,"SB\lyrics\Lyric37.png",320,240 F,0,185941,186307,0,1 M,0,185941,190331,301,401,324,401 F,0,186307,189966,1 F,0,189966,190331,1,0
Sprite,Foreground,Centre,"SB\lyrics\Lyric38.png",320,240 F,0,190331,190697,0,1 M,0,190331,196917,311,401,336,401 F,0,190697,196185,1 F,0,196185,196917,1,0
Sprite,Foreground,Centre,"SB\lyrics\Lyric39.png",320,240 F,0,197283,197648,0,1 M,0,197283,202039,311,401,340,399 F,0,197648,201673,1 F,0,201673,202039,1,0
Sprite,Foreground,Centre,"SB\lyrics\Lyric40.png",320,240 M,0,202405,,320,248 F,0,202405,202587,0,1 F,0,202587,203136,1 F,0,203136,203502,1,0 S,0,203502,,1.13312
Sprite,Foreground,Centre,"SB\krisom.png",320,240 M,0,5937,,524,64 F,0,5937,7401,0,0.9995444 S,0,5937,7401,0.8463998,0.90784 R,0,5937,7401,-0.1228803,0 F,0,7401,39596,0.9995444,0.9795082 F,0,39596,41059,0.9795082,0
Sprite,Foreground,Centre,"SB\siriru.png",320,240 M,0,41059,,476,54 S,0,41059,,0.7747199 F,0,41059,41425,0,1 F,0,41425,74718,1,0.9972678 F,0,74718,75449,0.9972678,0
Sprite,Foreground,Centre,"SB\ykcarrot.png",320,240 M,0,76181,,491,99 S,0,76181,,0.81568 F,0,76181,76547,0,1 F,0,76547,103986,1,0.7377049 F,0,103986,104718,0.7377049,0
Sprite,Foreground,Centre,"SB\siriru.png",320,240 M,0,117157,,172,68 F,0,117157,117523,0,1 S,0,117157,117523,0.7644798,0.8259198 R,0,117157,117523,-0.14336,0 F,0,117523,139840,1,0.9920633 S,0,117523,139840,0.8259198 R,0,117523,139840,0 F,0,139840,142035,0.9920633,0 S,0,139840,142035,0.8259198,0.5596798 R,0,139840,142035,0,-0.6144001
Sprite,Foreground,Centre,"SB\ykcarrot.png",320,240 M,0,141669,,176,64 F,0,141669,143132,0,1 S,0,141669,143132,0.61088,0.7995925 R,0,141669,143132,-0.4505602,-2.31266E-07 F,0,143132,172766,1,0.9993165 S,0,143132,172766,0.7995925 R,0,143132,172766,-2.31266E-07 F,0,172766,173864,0.9993165,0 S,0,172766,173864,0.7995925,0.5435926 R,0,172766,173864,-2.31266E-07,0.4710397
Sprite,Foreground,Centre,"SB\krisom.png",320,240 M,0,174230,,142,78 S,0,174230,,0.77472 F,0,174230,174962,0,1 F,0,174962,204596,1,0.9986339 F,0,204596,204962,0.9986339,0
//Storyboard Sound Samples
//Background Colour Transformations
3,100,163,228,254

[TimingPoints]
84,365.853658536585,4,2,0,100,1,0
5937,-133.333333333333,4,2,0,70,0,0
29260,-200,4,2,0,90,0,0
39779,-100,4,2,1,70,0,0
64474,-200,4,2,1,50,0,0
74718,-100,4,2,1,70,0,0
76181,-100,4,2,1,80,0,1
102431,-100,4,2,1,65,0,1
103894,-100,4,2,0,50,0,1
104443,-200,4,2,1,65,0,1
105449,-100,4,2,1,80,0,0
127401,-100,4,2,1,30,0,0
128864,-100,4,2,1,80,0,0
139657,-100,4,2,1,30,0,0
141760,-133.333333333333,4,2,1,70,0,0
146242,-133.333333333333,4,2,1,50,0,0
146974,-133.333333333333,4,2,1,70,0,0
148529,-133.333333333333,4,2,1,50,0,0
148712,-133.333333333333,4,2,1,70,0,0
149992,-133.333333333333,4,2,1,50,0,0
150175,-133.333333333333,4,2,1,70,0,0
151455,-133.333333333333,4,2,1,50,0,0
151638,-133.333333333333,4,2,1,70,0,0
152096,-133.333333333333,4,2,1,60,0,0
152919,-133.333333333333,4,2,1,45,0,0
153193,-133.333333333333,4,2,1,30,0,0
153559,-200,4,2,1,50,0,0
165358,-133.333333333333,4,2,1,60,0,0
168285,-133.333333333333,4,2,1,65,0,0
171212,-133.333333333333,4,2,1,70,0,0
172675,-100,4,2,1,70,0,0
173407,-100,4,1,0,50,0,0
174230,-100,4,2,1,100,0,1
204962,-100,4,2,1,70,0,0

[Colours]
Combo1 : 185,238,255
Combo2 : 37,239,138
Combo3 : 252,109,109
Combo4 : 80,163,245
Combo5 : 237,249,87
SliderBorder : 202,202,202

[HitObjects]
256,44,5937,6,0,B|212:108|212:108|132:108,1,155.999995350838,2|0,0:0|0:0,0:0:0:0:
64,108,6486,1,0,0:0:0:0:
24,164,6669,2,0,B|72:236|164:200,1,155.999995350838,8|0,0:0|0:0,0:0:0:0:
488,164,7401,2,0,B|440:236|348:200,1,155.999995350838,2|0,0:0|0:0,0:0:0:0:
256,96,8132,1,8,0:0:0:0:
208,228,8498,1,0,0:0:0:0:
256,276,8681,1,0,0:0:0:0:
304,328,8864,6,0,B|348:300|412:356|456:324,1,155.999995350838,2|0,0:0|0:0,0:0:0:0:
420,264,9413,1,0,0:0:0:0:
392,200,9596,2,0,B|440:128|392:52,1,155.999995350838,8|0,0:0|0:0,0:0:0:0:
120,200,10327,2,0,B|72:128|120:52,1,155.999995350838,2|0,0:0|0:0,0:0:0:0:
256,172,11059,2,0,B|256:16,1,155.999995350838,8|0,0:0|0:0,0:0:0:0:
192,164,11791,6,0,B|168:216|256:300|344:216|320:164,1,233.999993026257,2|0,0:0|0:0,0:0:0:0:
392,176,12523,2,0,B|392:240|356:284|300:320|228:308,1,233.999993026257,8|0,0:0|0:0,0:0:0:0:
164,308,13254,1,2,0:0:0:0:
84,192,13620,1,0,0:0:0:0:
164,76,13986,1,8,0:0:0:0:
256,172,14352,1,0,0:0:0:0:
256,172,14535,1,0,0:0:0:0:
320,164,14718,6,0,B|344:216|256:300|168:216|192:164,1,233.999993026257,2|0,0:0|0:0,0:0:0:0:
120,176,15450,2,0,B|120:240|156:284|212:320|284:308,1,233.999993026257,8|0,0:0|0:0,0:0:0:0:
348,292,16181,1,2,0:0:0:0:
428,192,16547,1,0,0:0:0:0:
348,76,16913,1,8,0:0:0:0:
292,204,17279,1,2,0:0:0:0:
220,204,17462,1,2,0:0:0:0:
164,160,17644,22,0,B|156:100|92:72|44:112,1,155.999995350838,2|0,0:0|0:0,0:0:0:0:
92,164,18193,1,0,0:0:0:0:
136,218,18376,2,0,B|92:252|28:228|20:168,1,155.999995350838,8|0,0:0|0:0,0:0:0:0:
256,124,19108,1,2,0:0:0:0:
375,218,19474,2,0,B|420:252|484:228|492:168,2,155.999995350838,0|8|0,0:0|0:0|0:0,0:0:0:0:
256,292,20571,6,0,B|188:348|108:308,1,155.999995350838,2|0,0:0|0:0,0:0:0:0:
96,240,21120,1,0,0:0:0:0:
80,172,21303,2,0,B|168:144|168:44,1,155.999995350838,8|0,0:0|0:0,0:0:0:0:
256,200,22035,2,0,B|256:40,1,155.999995350838,2|0,0:0|0:0,0:0:0:0:
432,172,22766,2,0,B|344:144|344:44,1,155.999995350838,8|0,0:0|0:0,0:0:0:0:
360,224,23498,6,0,B|244:220|276:332|160:328,1,233.999993026257,2|0,0:0|0:0,0:0:0:0:
108,284,24230,2,0,B|52:212|120:112|212:148,1,233.999993026257,8|0,0:0|0:0,0:0:0:0:
256,200,24962,1,2,0:0:0:0:
324,320,25327,1,0,0:0:0:0:
188,320,25693,1,8,0:0:0:0:
48,320,26059,1,2,0:0:0:0:
100,272,26242,1,0,0:0:0:0:
152,224,26425,6,0,B|268:220|236:332|352:328,1,233.999993026257,2|0,0:0|0:0,0:0:0:0:
404,284,27157,2,0,B|460:212|392:112|300:148,1,233.999993026257,8|0,0:0|0:0,0:0:0:0:
256,200,27888,1,2,0:0:0:0:
196,236,28071,2,0,B|108:260|60:188,1,155.999995350838
84,120,28620,1,8,0:0:0:0:
116,56,28803,1,0,0:0:0:0:
256,80,29169,21,0,0:0:0:0:
300,132,29352,2,0,B|356:196|444:160,1,156,2|0,0:0|0:0,0:0:0:0:
460,96,30083,2,0,B|404:32|316:68,1,156,0|0,0:0|0:0,0:0:0:0:
256,36,30815,6,0,B|256:140,1,104,2|0,0:0|0:0,0:0:0:0:
412,192,31547,2,0,B|308:192,1,104,0|0,0:0|0:0,0:0:0:0:
256,348,32279,2,0,B|256:244,1,104,2|0,0:0|0:0,0:0:0:0:
100,192,33011,2,0,B|204:192,1,104,0|0,0:0|0:0,0:0:0:0:
256,68,33742,1,2,0:0:0:0:
384,304,34474,5,2,0:0:0:0:
256,344,34840,1,0,0:0:0:0:
128,304,35205,2,0,B|68:248|120:152|200:172,1,208,2|0,0:0|0:0,0:0:0:0:
256,40,36303,1,0,0:0:0:0:
384,80,36669,2,0,B|444:136|392:232|312:212,1,208,2|0,0:0|0:0,0:0:0:0:
256,336,37766,1,0,0:0:0:0:
256,192,38132,12,2,39596,0:0:0:0:
256,192,39962,5,8,0:0:0:0:
256,192,40327,1,8,0:0:0:0:
256,192,40693,1,8,0:0:0:0:
144,264,41059,21,4,0:0:0:0:
256,136,41425,1,8,0:0:0:0:
256,136,41608,1,0,0:0:0:0:
320,80,41791,2,0,B|384:88|392:152,1,104
328,200,42157,2,0,B|280:248|312:312,1,104,8|0,0:0|0:0,0:0:0:0:
384,272,42523,2,0,B|488:272,2,104,0|0|8,0:0|0:0|0:0,0:0:0:0:
328,336,43071,5,0,0:0:0:0:
248,312,43254,1,0,0:0:0:0:
168,320,43437,1,0,0:0:0:0:
120,248,43620,2,0,B|176:200|136:136,1,104,8|0,0:0|0:0,0:0:0:0:
64,176,43986,6,0,B|48:120|80:72|152:48|200:88,1,208,0|8,0:0|0:0,0:0:0:0:
195,84,44535,1,0,0:0:0:0:
232,160,44718,2,0,B|224:232|312:264|376:232|384:184,2,208,0|8|0,0:0|0:0|0:0,0:0:0:0:
384,88,45815,1,8,0:0:0:0:
464,232,46181,1,0,0:0:0:0:
320,320,46547,1,8,0:0:0:0:
240,288,46730,1,0,0:0:0:0:
304,240,46913,6,0,B|400:168,1,104,4|0,0:0|0:0,0:0:0:0:
312,136,47279,2,0,B|224:208,1,104,8|0,0:0|0:0,0:0:0:0:
208,120,47644,2,0,B|160:160|160:160|128:224|168:272|216:280,2,208,0|8|0,0:0|0:0|0:0,0:0:0:0:
256,48,48559,2,0,B|368:48,2,104,0|8|0,0:0|0:0|0:0,0:0:0:0:
176,40,49108,2,0,B|112:64|120:144,1,104
32,112,49474,2,0,B|24:192|120:208,1,104,8|0,0:0|0:0,0:0:0:0:
160,192,49840,22,0,B|208:168|296:192|320:264|304:304,2,208,0|8|0,0:0|0:0|0:0,0:0:0:0:
192,272,50754,1,0,0:0:0:0:
192,272,50937,2,0,B|80:272,1,104,8|0,0:0|0:0,0:0:0:0:
72,192,51303,2,0,B|72:128|144:104,1,104
312,104,51669,2,0,B|272:144|184:112,1,104,8|0,0:0|0:0,0:0:0:0:
168,192,52035,2,0,B|184:264|272:272,2,104,0|0|8,0:0|0:0|0:0,0:0:0:0:
448,312,52766,5,4,0:0:0:0:
304,232,53132,1,8,0:0:0:0:
384,88,53498,2,0,B|336:48|248:64|224:136|240:176,2,208,0|8|0,0:0|0:0|0:0,0:0:0:0:
328,152,54413,1,0,0:0:0:0:
328,152,54596,2,0,B|424:208,1,104,8|0,0:0|0:0,0:0:0:0:
384,280,54962,2,0,B|440:304|488:256,2,104,0|0|8,0:0|0:0|0:0,0:0:0:0:
312,328,55510,1,0,0:0:0:0:
208,248,55693,6,0,B|160:248|160:248|136:208|48:200|16:248,1,208,0|8,0:0|0:0,0:0:0:0:
88,296,56242,2,0,B|128:328|128:328|208:328,2,104
88,296,56791,1,8,0:0:0:0:
160,144,57157,2,0,B|176:88|240:64,1,104
216,152,57523,2,0,B|288:120|352:160,1,104,8|0,0:0|0:0,0:0:0:0:
248,192,57888,2,0,B|304:224|304:296,2,104,0|0|8,0:0|0:0|0:0,0:0:0:0:
256,192,58437,12,0,59352,0:0:0:0:
88,112,59718,6,0,B|192:112,1,104,8|0,0:0|0:0,0:0:0:0:
192,112,60083,2,0,B|264:112|288:192,1,104
200,200,60449,2,0,B|200:304,1,104,8|0,0:0|0:0,0:0:0:0:
280,288,60815,2,0,B|296:232|368:200|440:232|464:264,2,208,0|8|0,0:0|0:0|0:0,0:0:0:0:
88,64,61913,21,8,0:0:0:0:
152,120,62096,1,0,0:0:0:0:
232,104,62279,1,0,0:0:0:0:
296,160,62462,2,0,B|296:224|248:248,1,104,0|8,0:0|0:0,0:0:0:0:
184,200,62827,2,0,B|72:200,2,104
152,280,63376,2,0,B|280:280,1,104,8|0,0:0|0:0,0:0:0:0:
312,344,63742,5,2,0:0:0:0:
456,192,63925,1,4,0:0:0:0:
64,64,64291,5,0,0:0:0:0:
64,64,64474,1,4,0:0:0:0:
152,192,64840,1,0,0:0:0:0:
152,192,65023,1,2,0:0:0:0:
232,192,65205,2,0,B|304:192|328:256,1,104,2|0,0:0|0:0,0:0:0:0:
320,320,65754,1,0,0:0:0:0:
248,280,65937,6,0,B|184:288|176:360,2,104,2|0|2,0:0|0:0|0:0,0:0:0:0:
376,192,67035,1,0,0:0:0:0:
376,192,67401,2,0,B|376:80,1,104,2|0,0:0|0:0,0:0:0:0:
304,56,67949,2,0,B|304:112,2,52,0|2|0,0:0|0:0|0:0,0:0:0:0:
224,56,68498,2,0,B|152:56|136:128,1,104,0|2,0:0|0:0,0:0:0:0:
216,144,69047,2,0,B|184:200|128:184,1,104,2|0,0:0|0:0,0:0:0:0:
64,136,69596,21,2,0:0:0:0:
256,328,69962,1,2,0:0:0:0:
64,136,70327,1,4,0:0:0:0:
256,88,70693,6,0,B|312:128|304:200,2,104,0|2|0,0:0|0:0|0:0,0:0:0:0:
144,192,71791,2,0,B|144:248|80:280,1,104,2|0,0:0|0:0,0:0:0:0:
56,200,72340,2,0,B|56:128,1,52,0|2,0:0|0:0,0:0:0:0:
168,40,72888,1,2,0:0:0:0:
256,320,73254,6,0,B|328:328|376:264|360:216,1,156,4|0,0:0|0:0,0:0:0:0:
288,208,73986,2,0,B|248:176|264:104|320:56|392:96,1,208,4|4,0:0|0:0,0:0:0:0:
160,232,76181,6,0,B|164:272|196:284|196:284|212:360|300:360|316:284|316:284|348:272|352:232,1,312,4|0,0:0|0:0,0:0:0:0:
256,192,76913,1,0,0:0:0:0:
96,28,77279,22,0,B|40:28|8:76,1,104,8|0,0:0|0:0,0:0:0:0:
164,100,77644,2,0,B|112:132|112:188,1,104
256,120,78010,2,0,B|256:228,1,104,8|0,0:0|0:0,0:0:0:0:
348,100,78376,2,0,B|400:132|400:188,1,104
416,28,78742,2,0,B|472:28|504:76,1,104,8|0,0:0|0:0,0:0:0:0:
400,184,79108,6,0,B|400:292|348:256|308:288|308:356,1,208,0|8,0:0|0:0,0:0:0:0:
204,356,79657,2,0,B|204:288|164:256|112:292|112:184,1,208,2|2,0:0|0:0,0:0:0:0:
212,152,80205,2,0,B|240:152|256:128|256:128|272:152|300:152,2,104,8|0|0,0:0|0:0|0:0,0:0:0:0:
0,192,80937,5,8,0:0:0:0:
256,372,81303,1,0,0:0:0:0:
512,192,81669,1,8,0:0:0:0:
256,12,82035,2,0,B|204:44|204:108|256:140|256:140|308:172|308:236|256:268,1,312,4|0,0:0|0:0,0:0:0:0:
256,268,82766,1,0,0:0:0:0:
304,68,83132,6,0,B|256:104|208:68,1,104,8|0,0:0|0:0,0:0:0:0:
136,144,83498,2,0,B|236:204|204:324,1,208,4|8,0:0|0:0,0:0:0:0:
308,324,84047,2,0,B|276:204|376:144,1,208
256,40,84596,22,0,B|256:144,1,104,8|4,0:0|0:0,0:0:0:0:
160,184,84962,2,0,B|136:252|160:320|216:360|296:360|352:320|376:252|352:184,2,416,0|0|0,0:0|0:0|0:0,0:0:0:0:
512,192,86791,5,8,0:0:0:0:
256,372,87157,1,0,0:0:0:0:
0,192,87523,1,8,0:0:0:0:
312,104,87888,6,0,B|336:60|336:60|280:80|256:12|256:12|232:80|176:60|176:60|200:104,1,312,4|0,0:0|0:0,0:0:0:0:
256,192,88620,1,0,0:0:0:0:
416,356,88986,6,0,B|448:308|504:308,1,104,8|0,0:0|0:0,0:0:0:0:
348,312,89352,2,0,B|344:256|392:224,1,104
256,296,89718,2,0,B|256:188,1,104,8|0,0:0|0:0,0:0:0:0:
164,312,90083,2,0,B|168:256|120:224,1,104
96,356,90449,2,0,B|64:308|8:308,1,104,8|0,0:0|0:0,0:0:0:0:
120,224,90815,22,0,B|120:152|120:152|120:80|204:60,1,208,0|8,0:0|0:0,0:0:0:0:
308,60,91364,2,0,B|392:80|392:152|392:152|392:224,1,208,2|2,0:0|0:0,0:0:0:0:
304,280,91913,2,0,B|272:280|256:296|256:296|240:280|208:280,2,104,8|0|0,0:0|0:0|0:0,0:0:0:0:
100,44,92644,5,8,0:0:0:0:
412,44,93010,1,0,0:0:0:0:
256,316,93376,1,8,0:0:0:0:
16,116,93742,6,0,B|48:184|152:184|184:116,1,208,4|8,0:0|0:0,0:0:0:0:
496,116,94291,2,0,B|464:184|360:184|328:116,1,208
256,20,94840,5,8,0:0:0:0:
256,124,95023,1,0,0:0:0:0:
196,208,95205,2,0,B|92:208|128:312|28:312,1,208,4|8,0:0|0:0,0:0:0:0:
316,208,95754,2,0,B|420:208|384:312|484:312,1,208
304,360,96303,22,0,B|256:396|208:360,1,104,8|4,0:0|0:0,0:0:0:0:
204,256,96669,2,0,B|200:172|312:172|308:88,1,208,0|8,0:0|0:0,0:0:0:0:
204,88,97218,2,0,B|200:172|312:172|308:256,1,208
404,336,97766,6,0,B|356:372|308:336,1,104,8|0,0:0|0:0,0:0:0:0:
108,336,98132,2,0,B|156:372|204:336,2,104,0|0|8,0:0|0:0|0:0,0:0:0:0:
176,236,98681,2,0,B|196:164|316:164|336:236,1,208
440,236,99230,6,0,B|468:184|440:132,1,104,8|0,0:0|0:0,0:0:0:0:
364,60,99596,2,0,B|312:28|252:32|208:76|200:124,1,208,4|8,0:0|0:0,0:0:0:0:
304,148,100144,2,0,B|336:192|304:236|256:236|256:236|176:236,1,208
72,236,100693,6,0,B|44:184|72:132,1,104,8|0,0:0|0:0,0:0:0:0:
148,60,101059,2,0,B|200:28|260:32|304:76|312:124,1,208,0|8,0:0|0:0,0:0:0:0:
208,148,101608,2,0,B|176:192|208:236|256:236|256:236|336:236,1,208
440,236,102157,22,0,B|444:296|392:320,1,104,8|0,0:0|0:0,0:0:0:0:
292,356,102523,2,0,B|292:252|292:252|340:216|308:160,1,208,0|0,0:0|0:0,0:0:0:0:
204,160,103071,2,0,B|172:216|220:252|220:252|220:356,1,208
120,320,103620,2,0,B|68:296|72:236,1,104
148,164,103986,5,4,0:0:0:0:
256,52,104169,1,4,0:0:0:0:
364,164,104352,1,4,0:0:0:0:
256,276,104535,5,2,0:0:0:0:
216,216,104718,1,0,0:0:0:0:
296,216,104901,1,2,0:0:0:0:
256,156,105083,2,0,B|256:52,1,104,0|4,0:0|0:0,0:0:0:0:
392,40,117157,5,4,0:0:0:0:
392,40,117523,2,0,B|432:16|480:56|488:88|456:160|384:128,1,208,8|0,0:0|0:0,0:0:0:0:
320,88,118071,1,0,0:0:0:0:
320,88,118254,2,0,B|192:88,1,104,8|0,0:0|0:0,0:0:0:0:
144,128,118620,1,0,0:0:0:0:
120,208,118803,1,0,0:0:0:0:
176,272,118986,1,8,0:0:0:0:
208,192,119169,21,0,0:0:0:0:
360,336,119352,1,0,0:0:0:0:
144,32,119718,6,0,B|216:32|224:112,1,104,8|0,0:0|0:0,0:0:0:0:
304,72,120083,2,0,B|312:136|272:184|200:192|160:160|144:128,1,208,0|8,0:0|0:0,0:0:0:0:
96,104,120632,1,0,0:0:0:0:
24,152,120815,2,0,B|48:200|120:208|176:184|192:128|184:96,1,208,0|8,0:0|0:0,0:0:0:0:
224,48,121364,1,0,0:0:0:0:
304,88,121547,5,0,0:0:0:0:
424,200,121913,1,8,0:0:0:0:
264,248,122279,1,0,0:0:0:0:
144,136,122644,1,8,0:0:0:0:
144,136,122827,1,0,0:0:0:0:
256,192,123010,12,0,124474,0:0:0:0:
80,192,124840,5,8,0:0:0:0:
160,168,125023,2,0,B|224:88,1,104
224,86,125388,1,0,0:0:0:0:
304,72,125571,2,0,B|368:104|320:192,1,104,8|0,0:0|0:0,0:0:0:0:
256,184,125937,22,0,B|320:280,1,104
272,344,126303,2,0,B|192:224,1,104,8|0,0:0|0:0,0:0:0:0:
296,184,126669,2,0,B|360:280,1,104
232,344,127035,2,0,B|152:224,1,104,8|0,0:0|0:0,0:0:0:0:
120,192,127401,5,2,0:0:0:0:
144,144,127583,1,2,0:0:0:0:
184,112,127766,1,2,0:0:0:0:
232,104,127949,1,2,0:0:0:0:
320,104,128132,5,2,0:0:0:0:
336,152,128315,1,2,0:0:0:0:
368,192,128498,1,2,0:0:0:0:
416,216,128681,1,2,0:0:0:0:
440,136,128864,6,0,B|440:32,2,104,4|0|8,0:0|0:0|0:0,0:0:0:0:
440,136,129413,1,0,0:0:0:0:
488,208,129596,2,0,B|488:280|408:312,1,104
360,280,129962,1,8,0:0:0:0:
360,280,130144,1,0,0:0:0:0:
280,248,130327,2,0,B|208:216|152:248,1,104
57,102,130693,2,0,B|72:160|136:168,1,104,8|0,0:0|0:0,0:0:0:0:
144,88,131059,1,0,0:0:0:0:
144,88,131242,1,0,0:0:0:0:
224,88,131425,21,8,0:0:0:0:
64,256,131608,1,0,0:0:0:0:
144,304,131791,6,0,B|264:304|264:304|312:296|336:248,1,208,0|8,0:0|0:0,0:0:0:0:
264,208,132340,1,0,0:0:0:0:
344,168,132523,2,0,B|496:168,1,104,0|0,0:0|0:0,0:0:0:0:
248,120,132888,2,0,B|136:120,1,104,8|0,0:0|0:0,0:0:0:0:
360,80,133254,2,0,B|472:80,1,104,0|0,0:0|0:0,0:0:0:0:
232,32,133620,2,0,B|112:32,1,104,8|0,0:0|0:0,0:0:0:0:
72,96,133986,5,0,0:0:0:0:
112,256,134352,1,8,0:0:0:0:
264,328,134718,1,4,0:0:0:0:
344,328,134901,5,0,0:0:0:0:
344,328,135083,2,0,B|344:256|416:232,1,104,8|0,0:0|0:0,0:0:0:0:
432,320,135449,1,0,0:0:0:0:
432,320,135632,1,0,0:0:0:0:
480,248,135815,2,0,B|480:120,1,104,8|0,0:0|0:0,0:0:0:0:
408,104,136181,1,0,0:0:0:0:
408,104,136364,1,0,0:0:0:0:
328,104,136547,22,0,B|256:104|232:176,1,104,8|0,0:0|0:0,0:0:0:0:
320,192,136913,2,0,B|368:240|336:320,1,104
264,264,137279,2,0,B|192:304|120:248,1,104,8|0,0:0|0:0,0:0:0:0:
80,192,137644,5,0,0:0:0:0:
232,128,138010,1,8,0:0:0:0:
80,192,138376,1,0,0:0:0:0:
184,64,138742,1,8,0:0:0:0:
80,192,139108,1,0,0:0:0:0:
112,32,139474,1,8,0:0:0:0:
40,104,139657,5,2,0:0:0:0:
88,112,139840,1,2,0:0:0:0:
136,136,140023,1,2,0:0:0:0:
176,168,140205,1,2,0:0:0:0:
232,272,140388,5,2,0:0:0:0:
280,288,140571,1,2,0:0:0:0:
328,288,140754,1,2,0:0:0:0:
376,272,140937,1,2,0:0:0:0:
360,176,141120,21,2,0:0:0:0:
376,128,141303,1,2,0:0:0:0:
376,80,141486,1,2,0:0:0:0:
360,32,141669,1,2,0:0:0:0:
256,28,141852,5,0,0:0:0:0:
256,108,142035,2,0,B|224:184|288:184|256:260,1,155.999995350838,4|0,0:0|0:0,0:0:0:0:
256,336,142583,1,0,0:0:0:0:
176,336,142766,2,0,B|132:336|108:292,1,77.9999976754189,0|0,0:0|0:0,0:0:0:0:
336,336,143132,2,0,B|380:336|404:292,1,77.9999976754189
512,192,143498,5,4,0:0:0:0:
256,12,143864,1,0,0:0:0:0:
0,192,144230,1,0,0:0:0:0:
256,372,144596,1,0,0:0:0:0:
100,36,144962,5,4,0:0:0:0:
412,36,145327,1,0,0:0:0:0:
412,348,145693,1,0,0:0:0:0:
100,348,146059,1,0,0:0:0:0:
256,112,146425,21,8,0:0:0:0:
256,164,146547,1,8,0:0:0:0:
256,216,146669,1,8,0:0:0:0:
256,268,146791,1,8,0:0:0:0:
72,124,147157,6,0,B|28:156|28:228|72:260,1,155.999995350838
440,260,147888,2,0,B|484:228|484:156|440:124,1,155.999995350838,4|0,0:0|0:0,0:0:0:0:
396,192,148437,1,0,0:0:0:0:
328,232,148620,2,0,B|256:284|184:232,1,155.999995350838,8|0,0:0|0:0,0:0:0:0:
116,192,149169,1,0,0:0:0:0:
116,192,149260,1,0,0:0:0:0:
116,192,149352,2,0,B|32:192,1,77.9999976754189
72,124,149718,2,0,B|28:156|28:228|72:260,1,155.999995350838,0|8,0:0|0:0,0:0:0:0:
368,336,150449,5,0,0:0:0:0:
368,336,150632,1,0,0:0:0:0:
368,336,150815,2,0,B|380:248|480:236,1,155.999995350838,4|0,0:0|0:0,0:0:0:0:
144,48,151547,2,0,B|132:136|32:148,1,155.999995350838,8|0,0:0|0:0,0:0:0:0:
256,348,152279,6,0,B|256:260,1,77.9999976754189
256,192,152644,2,0,B|256:140,2,38.9999988377095
188,236,153010,2,0,B|220:280|292:280|324:236,1,155.999995350838
148,160,153742,21,2,0:0:0:0:
84,124,153925,1,0,0:0:0:0:
84,52,154108,1,0,0:0:0:0:
148,16,154291,1,0,0:0:0:0:
148,88,154474,2,0,B|208:88,1,52,2|0,0:0|0:0,0:0:0:0:
220,160,154840,5,0,0:0:0:0:
292,160,155023,1,0,0:0:0:0:
328,224,155205,1,2,0:0:0:0:
292,288,155388,1,0,0:0:0:0:
220,288,155571,1,0,0:0:0:0:
184,224,155754,1,0,0:0:0:0:
220,160,155937,2,0,B|220:104,1,52,2|0,0:0|0:0,0:0:0:0:
292,108,156303,2,0,B|292:164,1,52,2|0,0:0|0:0,0:0:0:0:
364,160,156669,5,2,0:0:0:0:
428,124,156852,1,0,0:0:0:0:
428,52,157035,1,0,0:0:0:0:
364,16,157218,1,0,0:0:0:0:
364,88,157401,2,0,B|304:88,1,52,2|0,0:0|0:0,0:0:0:0:
312,88,157766,5,0,0:0:0:0:
292,20,157949,1,0,0:0:0:0:
220,20,158132,1,2,0:0:0:0:
200,88,158315,1,0,0:0:0:0:
256,132,158498,2,0,B|256:212,1,78
256,248,158864,2,0,B|256:316,1,52,2|0,0:0|0:0,0:0:0:0:
220,364,159230,1,2,0:0:0:0:
292,364,159413,1,0,0:0:0:0:
328,300,159596,22,0,B|364:252|328:204,1,104,2|0,0:0|0:0,0:0:0:0:
256,180,160144,1,0,0:0:0:0:
184,204,160327,2,0,B|148:252|184:300,1,104,2|0,0:0|0:0,0:0:0:0:
256,324,160876,5,0,0:0:0:0:
256,324,161059,2,0,B|256:396,2,52,2|0|0,0:0|0:0|0:0,0:0:0:0:
328,300,161608,2,0,B|364:252|328:204,1,104,2|0,0:0|0:0,0:0:0:0:
256,180,162156,1,0,0:0:0:0:
184,204,162339,2,0,B|148:252|184:300,1,104,2|0,0:0|0:0,0:0:0:0:
256,324,162888,1,2,0:0:0:0:
256,252,163071,1,0,0:0:0:0:
256,180,163254,2,0,B|236:132|284:128|256:80,1,104,2|0,0:0|0:0,0:0:0:0:
256,80,163986,5,2,0:0:0:0:
220,16,164169,1,0,0:0:0:0:
292,16,164352,1,0,0:0:0:0:
256,80,164535,2,0,B|236:128|284:132|256:180,1,104,2|0,0:0|0:0,0:0:0:0:
220,244,165083,1,2,0:0:0:0:
292,244,165266,1,0,0:0:0:0:
256,312,165449,5,2,0:0:0:0:
256,312,165632,1,0,0:0:0:0:
192,356,165815,1,2,0:0:0:0:
192,356,165998,1,0,0:0:0:0:
112,356,166181,2,0,B|68:340|52:292,1,77.9999976754189,2|0,0:0|0:0,0:0:0:0:
20,232,166547,21,2,0:0:0:0:
20,232,166730,1,0,0:0:0:0:
20,152,166913,1,2,0:0:0:0:
20,152,167096,1,0,0:0:0:0:
80,100,167279,1,2,0:0:0:0:
80,100,167462,1,0,0:0:0:0:
156,100,167644,2,0,B|216:148,1,77.9999976754189,2|0,0:0|0:0,0:0:0:0:
296,148,168010,2,0,B|356:100,1,77.9999976754189,2|0,0:0|0:0,0:0:0:0:
432,100,168376,5,2,0:0:0:0:
432,100,168559,1,0,0:0:0:0:
492,152,168742,1,2,0:0:0:0:
492,152,168925,1,0,0:0:0:0:
492,232,169108,2,0,B|492:276|456:304,1,77.9999976754189,2|0,0:0|0:0,0:0:0:0:
400,352,169474,5,2,0:0:0:0:
336,308,169657,1,0,0:0:0:0:
316,232,169840,1,2,0:0:0:0:
332,156,170023,1,0,0:0:0:0:
292,88,170205,2,0,B|272:72|240:72|220:88,1,77.9999976754189,2|0,0:0|0:0,0:0:0:0:
180,156,170571,1,2,0:0:0:0:
196,232,170754,1,0,0:0:0:0:
176,308,170937,1,2,0:0:0:0:
112,352,171120,1,0,0:0:0:0:
52,300,171303,6,0,B|0:228|52:156,1,155.999995350838,2|2,0:0|0:0,0:0:0:0:
92,88,171852,2,0,B|64:52|20:52,2,77.9999976754189,0|2|0,0:0|0:0|0:0,0:0:0:0:
132,156,172401,2,0,B|176:156|204:116,1,77.9999976754189,2|0,0:0|0:0,0:0:0:0:
256,36,172766,21,8,0:0:0:0:
356,64,172949,1,8,0:0:0:0:
428,140,173132,1,8,0:0:0:0:
428,244,173315,1,8,0:0:0:0:
356,320,173498,5,0,0:0:0:0:
316,304,173590,1,0,0:0:0:0:
276,288,173681,1,0,0:0:0:0:
236,272,173773,1,0,0:0:0:0:
196,256,173864,1,0,0:0:0:0:
156,240,173955,1,0,0:0:0:0:
116,224,174047,1,0,0:0:0:0:
76,208,174138,1,0,0:0:0:0:
44,184,174230,6,0,B|28:148|48:112|96:92|96:92|128:112|128:112|160:132|160:132|208:112|228:76|212:40,1,312,4|8,0:0|0:0,0:0:0:0:
299,41,174962,1,2,0:0:0:0:
292,208,175327,6,0,B|332:144|256:92|180:144|220:208,1,208,8|2,0:0|0:0,0:0:0:0:
256,284,175876,1,0,0:0:0:0:
308,348,176059,2,0,B|360:328|372:268,1,104,8|0,0:0|0:0,0:0:0:0:
256,284,176425,2,0,B|256:160,1,104,2|0,0:0|0:0,0:0:0:0:
204,348,176791,2,0,B|152:328|140:268,1,104,8|0,0:0|0:0,0:0:0:0:
132,188,177157,22,0,B|132:108|132:108|132:36|208:20,1,208,4|8,0:0|0:0,0:0:0:0:
303,19,177705,2,0,B|380:36|380:108|380:108|380:188,1,208,4|2,0:0|0:0,0:0:0:0:
332,256,178254,1,8,0:0:0:0:
256,292,178437,1,0,0:0:0:0:
180,324,178620,1,0,0:0:0:0:
80,192,178986,5,8,0:0:0:0:
256,192,179352,1,2,0:0:0:0:
432,192,179718,1,8,0:0:0:0:
360,340,180083,2,0,B|148:340,1,208,4|8,0:0|0:0,0:0:0:0:
152,256,180632,2,0,B|364:256,1,208,2|0,0:0|0:0,0:0:0:0:
372,172,181181,1,8,0:0:0:0:
296,24,181547,6,0,B|384:100|492:48,1,208,4|8,0:0|0:0,0:0:0:0:
216,24,182096,2,0,B|128:100|20:48,1,208,4|8,0:0|0:0,0:0:0:0:
36,132,182644,1,8,0:0:0:0:
128,272,183010,6,0,B|176:304|220:268|220:204|220:204|220:168|256:136|292:168|292:204|292:204|292:268|336:304|384:272,2,416,2|2|2,0:0|0:0|0:0,0:0:0:0:
256,376,184840,1,8,0:0:0:0:
144,200,185205,1,0,0:0:0:0:
368,200,185571,1,8,0:0:0:0:
299,41,185937,22,0,B|284:76|304:112|352:132|352:132|384:112|384:112|416:92|416:92|464:112|484:148|468:184,1,312,4|8,0:0|0:0,0:0:0:0:
468,184,186669,1,2,0:0:0:0:
324,268,187035,6,0,B|312:340|256:348|200:340|188:268,1,208,8|2,0:0|0:0,0:0:0:0:
256,220,187583,1,0,0:0:0:0:
200,160,187766,2,0,B|164:124|104:120,1,104,8|0,0:0|0:0,0:0:0:0:
256,116,188132,2,0,B|240:84|276:44|256:12,1,104,2|0,0:0|0:0,0:0:0:0:
312,160,188498,2,0,B|348:124|408:120,1,104,8|0,0:0|0:0,0:0:0:0:
400,208,188864,6,0,B|468:240|468:344|400:376,1,208,4|8,0:0|0:0,0:0:0:0:
360,292,189413,2,0,B|152:292,1,208,4|2,0:0|0:0,0:0:0:0:
112,376,189962,2,0,B|44:344|44:240|112:208,1,208,8|0,0:0|0:0,0:0:0:0:
40,61,190693,5,8,0:0:0:0:
256,192,191059,1,0,0:0:0:0:
471,61,191425,1,8,0:0:0:0:
352,180,191791,22,0,B|326:109|400:35|470:61,1,208,4|8,0:0|0:0,0:0:0:0:
444,148,192340,2,0,B|469:219|396:292|325:267,1,208,2|0,0:0|0:0,0:0:0:0:
256,220,192888,1,8,0:0:0:0:
236,140,193071,1,0,0:0:0:0:
160,180,193254,2,0,B|185:109|111:35|41:61,1,208,4|8,0:0|0:0,0:0:0:0:
68,148,193803,2,0,B|42:219|115:292|186:267,1,208,2|0,0:0|0:0,0:0:0:0:
256,220,194352,2,0,B|272:252|236:292|256:324,1,104,8|0,0:0|0:0,0:0:0:0:
336,184,194718,6,0,B|316:112|196:112|176:184,1,208,4|8,0:0|0:0,0:0:0:0:
256,220,195266,2,0,B|256:8,1,208,2|0,0:0|0:0,0:0:0:0:
332,52,195815,2,0,B|376:88|432:72,1,104,8|0,0:0|0:0,0:0:0:0:
440,156,196181,5,0,0:0:0:0:
432,240,196364,1,0,0:0:0:0:
424,324,196547,1,8,0:0:0:0:
340,316,196730,2,0,B|308:280|308:280|280:300|256:300|232:300|204:280|204:280|172:316,1,208,2|0,0:0|0:0,0:0:0:0:
88,324,197279,1,8,0:0:0:0:
80,240,197462,1,0,0:0:0:0:
148,196,197644,6,0,B|85:139|164:60|102:3,1,208,4|8,0:0|0:0,0:0:0:0:
29,77,198193,2,0,B|85:139|164:60|221:122,1,208,2|0,0:0|0:0,0:0:0:0:
256,200,198742,1,8,0:0:0:0:
256,200,198925,1,0,0:0:0:0:
290,122,199108,2,0,B|347:60|426:139|483:77,1,208,4|8,0:0|0:0,0:0:0:0:
409,3,199657,2,0,B|347:60|426:139|364:196,1,208,2|0,0:0|0:0,0:0:0:0:
304,252,200205,2,0,B|268:252|256:268|256:268|244:252|208:252,1,104,8|0,0:0|0:0,0:0:0:0:
172,328,200571,22,0,B|204:396|308:396|340:328,1,208,4|8,0:0|0:0,0:0:0:0:
352,244,201120,2,0,B|376:176|352:108|296:68|216:68|160:108|136:176|160:244,1,416,4|8,0:0|0:0,0:0:0:0:
256,268,202035,1,2,0:0:0:0:
256,192,202218,12,8,204596,0:0:0:0:
256,192,204962,53,4,0:0:0:0:
