osu file format v12

[General]
AudioFilename: SPiCa.mp3
AudioLeadIn: 0
PreviewTime: 74457
Countdown: 0
SampleSet: Normal
StackLeniency: 0.7
Mode: 1
LetterboxInBreaks: 0
WidescreenStoryboard: 0

[Editor]
DistanceSpacing: 0.8
BeatDivisor: 4
GridSize: 32
TimelineZoom: 1

[Metadata]
Title:SPiCa
TitleUnicode:SPiCa
Artist:Toku-P
ArtistUnicode:とくP
Creator:Cihyaa
Version:Muzukashii
Source:
Tags:Hatsune Miku hibarirailwayz Vocaloid Vocaloid2 Short
BeatmapID:179032
BeatmapSetID:59693

[Difficulty]
HPDrainRate:5
CircleSize:5
OverallDifficulty:4
ApproachRate:5
SliderMultiplier:1.4
SliderTickRate:1

[Events]
//Background and Video events
0,0,"BG.jpg",0,100
//Break Periods
//Storyboard Layer 0 (Background)
//Storyboard Layer 1 (Fail)
//Storyboard Layer 2 (Pass)
//Storyboard Layer 3 (Foreground)
//Storyboard Sound Samples
//Background Colour Transformations
3,100,163,162,255

[TimingPoints]
3583,370.37037037037,4,1,0,75,1,0
74694,-100,4,1,0,75,0,1
95434,-100,4,1,0,75,0,0

[Colours]
Combo1 : 5,5,240
Combo2 : 244,0,0

[HitObjects]
256,192,3583,21,8,0:0:0:0:
256,192,4323,1,8,0:0:0:0:
256,192,5064,1,8,0:0:0:0:
256,192,5805,1,8,0:0:0:0:
256,192,6545,5,0,0:0:0:0:
256,192,7286,5,0,0:0:0:0:
256,192,8027,1,0,0:0:0:0:
256,192,8768,1,0,0:0:0:0:
256,192,9508,5,8,0:0:0:0:
256,192,10249,5,8,0:0:0:0:
256,192,10990,1,8,0:0:0:0:
256,192,11731,1,8,0:0:0:0:
256,192,12101,5,0,0:0:0:0:
256,192,12471,5,0,0:0:0:0:
256,192,13212,1,0,0:0:0:0:
256,192,13953,1,0,0:0:0:0:
256,192,15064,5,0,0:0:0:0:
256,192,15434,5,0,0:0:0:0:
256,192,16175,1,0,0:0:0:0:
256,192,16916,1,8,0:0:0:0:
256,192,17657,1,8,0:0:0:0:
256,192,18397,5,0,0:0:0:0:
256,192,19138,5,0,0:0:0:0:
256,192,19879,1,8,0:0:0:0:
256,192,20620,1,8,0:0:0:0:
256,192,21360,5,0,0:0:0:0:
256,192,22101,5,0,0:0:0:0:
256,192,22842,1,8,0:0:0:0:
256,192,23582,1,8,0:0:0:0:
256,192,24323,1,0,0:0:0:0:
256,192,25064,1,0,0:0:0:0:
256,192,25620,5,0,0:0:0:0:
256,192,25805,1,8,0:0:0:0:
256,192,25990,5,0,0:0:0:0:
256,192,26360,5,0,0:0:0:0:
256,192,26545,1,8,0:0:0:0:
256,192,27101,1,8,0:0:0:0:
256,192,27286,5,4,0:0:0:0:
256,192,28397,5,8,0:0:0:0:
256,192,28768,5,4,0:0:0:0:
256,192,30064,1,0,0:0:0:0:
256,192,30249,1,4,0:0:0:0:
256,192,31731,1,4,0:0:0:0:
256,192,32657,1,0,0:0:0:0:
256,192,32842,5,8,0:0:0:0:
256,192,33212,5,4,0:0:0:0:
256,192,34508,5,8,0:0:0:0:
256,192,34694,1,8,0:0:0:0:
256,192,35249,1,8,0:0:0:0:
256,192,35620,1,8,0:0:0:0:
256,192,35989,1,8,0:0:0:0:
256,192,36174,5,0,0:0:0:0:
256,192,36545,5,8,0:0:0:0:
256,192,36731,5,0,0:0:0:0:
256,192,36916,1,0,0:0:0:0:
256,192,37286,5,8,0:0:0:0:
256,192,37471,1,8,0:0:0:0:
256,192,37657,5,4,0:0:0:0:
256,192,38027,5,8,0:0:0:0:
256,192,38397,5,0,0:0:0:0:
256,192,39138,1,0,0:0:0:0:
256,192,39508,5,8,0:0:0:0:
256,192,39694,5,0,0:0:0:0:
256,192,39879,1,0,0:0:0:0:
256,192,40064,1,0,0:0:0:0:
256,192,40249,5,8,0:0:0:0:
256,192,40434,5,0,0:0:0:0:
256,192,40805,1,0,0:0:0:0:
256,192,41175,5,8,0:0:0:0:
256,192,41545,5,0,0:0:0:0:
256,192,41916,5,0,0:0:0:0:
256,192,42101,5,8,0:0:0:0:
256,192,42657,1,0,0:0:0:0:
256,192,42842,1,0,0:0:0:0:
256,192,43027,1,0,0:0:0:0:
256,192,43212,5,8,0:0:0:0:
256,192,43397,5,0,0:0:0:0:
256,192,43768,5,8,0:0:0:0:
256,192,44138,5,0,0:0:0:0:
256,192,44508,5,8,0:0:0:0:
256,192,44879,5,8,0:0:0:0:
256,192,45064,5,0,0:0:0:0:
256,192,45620,5,0,0:0:0:0:
256,192,45805,5,8,0:0:0:0:
256,192,46175,1,0,0:0:0:0:
256,192,46360,1,8,0:0:0:0:
256,192,46731,1,8,0:0:0:0:
256,192,47101,1,8,0:0:0:0:
256,192,47286,1,8,0:0:0:0:
256,192,47472,1,8,0:0:0:0:
256,192,47657,5,0,0:0:0:0:
256,192,47842,5,0,0:0:0:0:
256,192,48027,1,8,0:0:0:0:
256,192,48397,5,0,0:0:0:0:
256,192,48582,1,0,0:0:0:0:
256,192,48768,5,8,0:0:0:0:
256,192,49323,1,8,0:0:0:0:
256,192,49694,1,8,0:0:0:0:
256,192,50064,1,8,0:0:0:0:
256,192,50249,1,8,0:0:0:0:
256,192,50434,1,8,0:0:0:0:
256,192,50620,1,8,0:0:0:0:
256,192,50805,1,8,0:0:0:0:
256,192,50990,5,4,0:0:0:0:
256,192,51545,1,0,0:0:0:0:
256,192,51731,5,8,0:0:0:0:
256,192,52101,5,0,0:0:0:0:
256,192,52286,1,8,0:0:0:0:
256,192,52657,5,8,0:0:0:0:
256,192,53027,5,8,0:0:0:0:
256,192,53397,5,0,0:0:0:0:
256,192,53768,5,8,0:0:0:0:
256,192,53953,5,8,0:0:0:0:
256,192,54508,5,8,0:0:0:0:
256,192,54694,5,0,0:0:0:0:
256,192,55064,1,0,0:0:0:0:
256,192,55249,5,8,0:0:0:0:
256,192,55620,5,0,0:0:0:0:
256,192,55990,5,8,0:0:0:0:
256,192,56360,5,0,0:0:0:0:
256,192,56545,1,0,0:0:0:0:
256,192,56731,1,0,0:0:0:0:
256,192,56916,5,12,0:0:0:0:
256,192,57471,5,0,0:0:0:0:
256,192,57657,5,8,0:0:0:0:
256,192,58397,1,8,0:0:0:0:
256,192,58768,1,8,0:0:0:0:
256,192,59138,1,8,0:0:0:0:
256,192,59508,1,8,0:0:0:0:
256,192,59694,5,0,0:0:0:0:
256,192,59879,1,0,0:0:0:0:
256,192,60434,1,0,0:0:0:0:
256,192,60620,5,8,0:0:0:0:
256,192,61175,5,0,0:0:0:0:
256,192,61360,1,0,0:0:0:0:
256,192,61545,5,8,0:0:0:0:
256,192,61916,5,0,0:0:0:0:
256,192,62101,5,12,0:0:0:0:
256,192,62286,1,12,0:0:0:0:
256,192,62657,1,8,0:0:0:0:
256,192,62842,5,4,0:0:0:0:
256,192,63397,1,0,0:0:0:0:
256,192,63582,5,8,0:0:0:0:
256,192,64138,1,8,0:0:0:0:
256,192,64323,5,0,0:0:0:0:
256,192,64508,1,0,0:0:0:0:
256,192,64694,5,8,0:0:0:0:
256,192,65064,1,8,0:0:0:0:
256,192,65434,1,8,0:0:0:0:
256,192,65805,5,4,0:0:0:0:
256,192,66175,5,8,0:0:0:0:
256,192,66545,1,8,0:0:0:0:
256,192,66916,1,8,0:0:0:0:
256,192,67286,5,0,0:0:0:0:
256,192,67471,5,12,0:0:0:0:
256,192,68027,1,8,0:0:0:0:
256,192,68397,1,8,0:0:0:0:
256,192,68768,5,4,0:0:0:0:
256,192,69508,1,0,0:0:0:0:
256,192,69879,1,0,0:0:0:0:
256,192,70249,5,8,0:0:0:0:
256,192,70990,5,0,0:0:0:0:
256,192,71360,5,8,0:0:0:0:
256,192,71731,5,4,0:0:0:0:
256,192,72471,5,8,0:0:0:0:
256,192,73212,5,4,0:0:0:0:
256,192,74694,1,4,0:0:0:0:
256,192,75064,1,0,0:0:0:0:
256,192,75249,1,0,0:0:0:0:
256,192,75434,5,8,0:0:0:0:
256,192,75805,5,0,0:0:0:0:
256,192,75990,5,8,0:0:0:0:
256,192,76175,5,0,0:0:0:0:
256,192,76360,1,0,0:0:0:0:
256,192,76545,5,8,0:0:0:0:
256,192,76731,1,0,0:0:0:0:
256,192,76916,1,8,0:0:0:0:
256,192,77286,5,8,0:0:0:0:
256,192,77471,1,8,0:0:0:0:
256,192,77842,5,0,0:0:0:0:
256,192,78027,1,8,0:0:0:0:
256,192,78212,1,8,0:0:0:0:
256,192,78397,5,0,0:0:0:0:
256,192,78768,5,8,0:0:0:0:
256,192,78953,5,0,0:0:0:0:
256,192,79138,5,8,0:0:0:0:
256,192,79323,1,8,0:0:0:0:
256,192,79508,5,0,0:0:0:0:
256,192,79879,5,8,0:0:0:0:
256,192,80064,5,0,0:0:0:0:
256,192,80249,1,0,0:0:0:0:
256,192,80434,1,0,0:0:0:0:
256,192,80620,5,8,0:0:0:0:
256,192,80990,5,0,0:0:0:0:
256,192,81175,1,0,0:0:0:0:
256,192,81360,5,8,0:0:0:0:
256,192,81731,5,0,0:0:0:0:
256,192,81916,1,0,0:0:0:0:
256,192,82101,5,8,0:0:0:0:
256,192,82286,5,0,0:0:0:0:
256,192,82471,5,8,0:0:0:0:
256,192,82657,1,8,0:0:0:0:
256,192,83027,1,8,0:0:0:0:
256,192,83212,5,0,0:0:0:0:
256,192,83397,12,0,84694,0:0:0:0:
256,192,85064,5,0,0:0:0:0:
256,192,85249,1,0,0:0:0:0:
256,192,85434,1,0,0:0:0:0:
256,192,85620,5,8,0:0:0:0:
256,192,85990,5,0,0:0:0:0:
256,192,86175,5,8,0:0:0:0:
256,192,86360,1,8,0:0:0:0:
256,192,86545,5,4,0:0:0:0:
256,192,86916,5,8,0:0:0:0:
256,192,87101,5,0,0:0:0:0:
256,192,87286,5,8,0:0:0:0:
256,192,87657,5,0,0:0:0:0:
256,192,87842,5,8,0:0:0:0:
256,192,88027,5,0,0:0:0:0:
256,192,88212,5,8,0:0:0:0:
256,192,88397,1,8,0:0:0:0:
256,192,88582,5,0,0:0:0:0:
256,192,88768,5,8,0:0:0:0:
256,192,89138,5,8,0:0:0:0:
256,192,89323,1,0,0:0:0:0:
256,192,89694,5,8,0:0:0:0:
256,192,89879,5,0,0:0:0:0:
256,192,90064,5,8,0:0:0:0:
256,192,90249,5,0,0:0:0:0:
256,192,90620,1,0,0:0:0:0:
256,192,90805,5,8,0:0:0:0:
256,192,90990,1,8,0:0:0:0:
256,192,91175,1,8,0:0:0:0:
256,192,91360,5,0,0:0:0:0:
256,192,91731,5,12,0:0:0:0:
256,192,91916,5,0,0:0:0:0:
256,192,92101,5,12,0:0:0:0:
256,192,92286,5,0,0:0:0:0:
256,192,92471,1,4,0:0:0:0:
256,192,93027,1,0,0:0:0:0:
256,192,93212,5,8,0:0:0:0:
256,192,93582,5,0,0:0:0:0:
256,192,93768,1,8,0:0:0:0:
256,192,93953,1,0,0:0:0:0:
256,192,94138,5,8,0:0:0:0:
256,192,94323,1,8,0:0:0:0:
256,192,94508,5,0,0:0:0:0:
256,192,94879,1,0,0:0:0:0:
256,192,95064,1,8,0:0:0:0:
256,192,95249,5,8,0:0:0:0:
256,192,95434,5,4,0:0:0:0:
