osu file format v14

[General]
AudioFilename: make a friendship.mp3
AudioLeadIn: 0
PreviewTime: 171456
Countdown: 0
SampleSet: Soft
StackLeniency: 0.3
Mode: 0
LetterboxInBreaks: 0
SkinPreference:palette
WidescreenStoryboard: 0

[Editor]
Bookmarks: 21242,34956,47813,76099,81242,105242,117242,130956,144671,172099,199528,231242,244956,258671,272385,286099,299813
DistanceSpacing: 1.5
BeatDivisor: 4
GridSize: 4
TimelineZoom: 2.2

[Metadata]
Title:Make A Friendship
TitleUnicode:Make A Friendship
Artist:Tokiwa Machi (CV: Numakura Manami)
ArtistUnicode:常盤 真智 (CV: 沼倉 愛美)
Creator:koyomiya
Version:Machi Special
Source:ハナヤマタ
Tags:Hanayamata Yosakoi Song Series,
BeatmapID:620773
BeatmapSetID:273181

[Difficulty]
HPDrainRate:7.5
CircleSize:4.5
OverallDifficulty:9
ApproachRate:9
SliderMultiplier:1.4
SliderTickRate:2

[Events]
//Background and Video events
0,0,"make a friendship.jpg",0,0
//Break Periods
//Storyboard Layer 0 (Background)
//Storyboard Layer 1 (Fail)
//Storyboard Layer 2 (Pass)
//Storyboard Layer 3 (Foreground)
//Storyboard Sound Samples

[TimingPoints]
671,428.571428571429,4,2,2,100,1,0
7528,-111.111111111111,4,2,2,40,0,0
12885,-111.111111111111,4,2,2,60,0,0
14385,-71.4285714285714,4,2,2,60,0,0
14813,-71.4285714285714,4,2,2,40,0,0
76099,-57.1428571428571,4,2,2,60,0,1
102242,-200,4,2,2,60,0,0
102671,-57.1428571428571,4,2,2,60,0,0
103528,-71.4285714285714,4,2,2,40,0,0
146599,-133.333333333333,4,2,2,40,0,0
147242,-71.4285714285714,4,2,2,40,0,0
172099,-57.1428571428571,4,2,2,60,0,1
185813,-83.3333333333333,4,2,2,60,0,1
186242,-57.1428571428571,4,2,2,60,0,1
198242,-200,4,2,2,60,0,1
199099,-57.1428571428571,4,2,2,60,0,1
199528,-71.4285714285714,4,2,2,40,0,0
206599,-100,4,2,2,40,0,0
206813,-71.4285714285714,4,2,2,40,0,0
231245,-111.111111111111,4,2,2,25,0,0
244956,-76.9230769230769,4,2,2,50,0,0
255456,-76.9230769230769,4,3,0,30,0,0
255671,-76.9230769230769,4,3,0,37,0,0
255885,-76.9230769230769,4,3,0,44,0,0
256099,-76.9230769230769,4,3,0,51,0,0
256313,-76.9230769230769,4,3,0,58,0,0
256528,-76.9230769230769,4,3,0,65,0,0
256742,-76.9230769230769,4,3,0,72,0,0
256956,-76.9230769230769,4,3,0,80,0,0
257171,-76.9230769230769,4,1,0,80,0,0
258671,-57.1428571428571,4,2,2,60,0,1
284813,-200,4,2,2,60,0,1
285563,-57.1428571428571,4,2,2,60,0,1
286099,-71.4285714285714,4,2,2,60,0,0
298313,-60.6060606060606,4,2,2,60,0,0
298742,-52.6315789473684,4,2,2,60,0,0
298956,-64.5161290322581,4,2,2,60,0,0
299813,-58.8235294117647,4,2,2,60,0,0
300242,-50,4,2,2,60,0,0
300456,-58.8235294117647,4,2,2,60,0,0
300671,-50,4,2,2,60,0,0
300992,-58.8235294117647,4,2,2,60,0,0
301313,-50,4,2,2,60,0,0
303456,-58.8235294117647,4,2,2,60,0,0
303671,-50,4,2,2,60,0,0
303992,-58.8235294117647,4,2,2,60,0,0
304099,-50,4,2,2,60,0,0
304421,-58.8235294117647,4,2,2,60,0,0
304528,-50,4,2,2,60,0,0
305063,-58.8235294117647,4,2,2,60,0,0
305171,-50,4,2,2,60,0,0
306028,-58.8235294117647,4,2,2,60,0,0
306885,-50,4,2,2,60,0,0
309778,-58.8235294117647,4,2,2,60,0,0
312242,-200,4,2,2,60,0,0
313099,-58.8235294117647,4,2,2,60,0,0

[Colours]
Combo1 : 143,83,255
Combo2 : 74,74,255
Combo3 : 66,151,255
Combo4 : 94,213,242
Combo5 : 174,140,255

[HitObjects]
116,160,7528,6,8,P|216:100|240:104,1,125.999996154785,0|0,0:0|0:0,1:0:0:0:
296,124,8171,2,0,P|376:144|420:120,1,125.999996154785
272,44,9028,1,0,0:0:0:0:
272,124,9242,2,0,L|272:280,1,125.999996154785
220,312,9885,2,0,P|220:289|323:318,1,188.999994232178
404,316,10742,5,0,0:0:0:0:
416,276,10849,1,0,0:0:0:0:
424,236,10956,2,0,P|424:156|408:112,1,125.999996154785
328,128,11599,1,0,0:0:0:0:
244,204,12028,2,0,P|204:236|180:248,1,62.9999980773926
84,276,12456,1,0,0:0:0:0:
84,108,12885,5,0,1:0:0:0:
191,234,13099,2,0,L|244:280,1,62.9999980773926,0|0,1:0|0:0,0:0:0:0:
316,256,13528,1,4,3:0:0:0:
416,128,13956,1,4,3:0:0:0:
172,52,14385,5,4,1:0:0:0:
333,276,14813,2,0,B|344:276|235:276,1,97.9999970092774
219,147,15242,2,0,L|300:92,1,97.9999970092774
373,198,15670,2,0,L|292:252,1,97.9999970092774
176,308,16099,1,0,0:0:0:0:
92,176,16528,5,0,0:0:0:0:
220,176,16742,2,0,L|320:176,1,97.9999970092774
384,64,17171,1,0,0:0:0:0:
256,64,17385,1,0,0:0:0:0:
320,176,17599,1,0,0:0:0:0:
400,276,17813,6,0,L|296:276,1,97.9999970092774
176,276,18242,1,0,0:0:0:0:
176,148,18456,2,0,L|176:44,1,97.9999970092774
260,132,18885,2,0,L|260:230,1,97.9999970092774
376,240,19313,1,0,0:0:0:0:
370,115,19528,5,0,0:0:0:0:
463,201,19742,1,0,0:0:0:0:
388,304,19956,1,0,0:0:0:0:
261,312,20171,1,0,0:0:0:0:
213,271,20278,1,0,0:0:0:0:
215,207,20385,1,0,0:0:0:0:
168,164,20492,2,0,P|129:141|80:168,1,97.9999970092774
28,264,20813,5,4,3:0:0:0:
72,304,20921,1,4,3:0:0:0:
128,316,21028,1,4,3:0:0:0:
215,207,21242,2,0,L|343:207,1,97.9999970092774
372,88,21671,5,0,0:0:0:0:
372,216,21885,1,0,0:0:0:0:
316,184,22099,5,0,0:0:0:0:
426,118,22313,1,0,0:0:0:0:
430,179,22528,5,0,0:0:0:0:
313,124,22742,1,0,0:0:0:0:
313,124,22956,2,0,P|376:84|412:116,1,97.9999970092774
468,192,23385,2,0,L|468:300,1,97.9999970092774
348,328,23813,2,0,L|228:328,1,97.9999970092774
250,200,24242,2,0,L|352:200,1,97.9999970092774
348,136,24563,1,0,0:0:0:0:
346,72,24671,2,0,L|241:73,1,97.9999970092774
124,96,25099,5,0,0:0:0:0:
56,208,25313,1,0,0:0:0:0:
176,160,25528,1,0,0:0:0:0:
52,128,25742,1,0,0:0:0:0:
132,224,25956,1,0,0:0:0:0:
124,96,26171,1,0,0:0:0:0:
124,96,26385,2,0,P|60:128|52:148,1,97.9999970092774
52,276,26813,2,0,L|168:276,1,97.9999970092774
224,172,27242,2,0,L|328:172,1,97.9999970092774
408,80,27671,2,0,L|280:80,1,97.9999970092774
184,80,28099,2,0,P|136:96|104:140,1,97.9999970092774
208,208,28528,5,0,0:0:0:0:
336,208,28742,1,0,0:0:0:0:
268,316,28956,1,0,0:0:0:0:
160,248,29171,1,0,0:0:0:0:
268,184,29385,1,0,0:0:0:0:
380,248,29599,1,0,0:0:0:0:
380,248,29813,2,0,L|380:348,1,97.9999970092774
252,344,30242,2,0,L|152:344,1,97.9999970092774
156,216,30671,2,0,L|156:112,1,97.9999970092774
284,112,31099,2,0,L|384:112,1,97.9999970092774
388,240,31528,5,0,0:0:0:0:
296,328,31742,1,0,0:0:0:0:
204,240,31956,1,0,0:0:0:0:
296,152,32171,1,0,0:0:0:0:
180,324,32385,2,0,L|100:244,1,97.9999970092774
112,104,32813,1,0,0:0:0:0:
240,104,33028,5,0,0:0:0:0:
291,67,33135,1,0,0:0:0:0:
348,40,33242,2,0,L|348:144,1,97.9999970092774
480,140,33671,1,0,0:0:0:0:
480,140,33885,2,0,B|480:224,1,48.9999985046387
456,240,34099,2,0,L|416:288,1,48.9999985046387
367,304,34313,6,0,L|304:320,1,48.9999985046387
272,272,34528,2,0,L|196:288,1,48.9999985046387
208,220,34742,2,0,L|280:200,1,48.9999985046387
268,144,34956,2,0,L|368:108,1,97.9999970092774
236,84,35385,5,0,0:0:0:0:
120,136,35599,1,0,0:0:0:0:
228,204,35813,1,0,0:0:0:0:
344,148,36028,1,0,0:0:0:0:
216,136,36242,1,0,0:0:0:0:
432,172,36456,1,0,0:0:0:0:
364,64,36671,6,0,L|256:64,1,97.9999970092774
264,192,37099,2,0,L|388:192,1,97.9999970092774
264,192,37528,2,0,L|140:192,1,97.9999970092774
164,320,37956,2,0,L|280:320,1,97.9999970092774
326,319,38278,1,0,0:0:0:0:
327,256,38385,2,0,L|327:152,1,97.9999970092774
324,32,38813,5,0,0:0:0:0:
412,124,39027,1,0,0:0:0:0:
284,132,39241,1,0,0:0:0:0:
236,248,39456,1,0,0:0:0:0:
168,140,39670,1,0,0:0:0:0:
176,324,39884,1,0,0:0:0:0:
176,324,40099,6,0,L|292:324,1,97.9999970092774
308,192,40527,2,0,L|308:72,1,97.9999970092774
308,192,40956,2,0,L|308:296,1,97.9999970092774
432,320,41385,2,0,L|324:320,1,97.9999970092774
269,320,41706,1,0,0:0:0:0:
270,257,41813,2,0,L|270:157,1,97.9999970092774
270,32,42242,5,0,0:0:0:0:
212,144,42456,1,0,0:0:0:0:
270,32,42671,1,0,0:0:0:0:
332,144,42885,1,0,0:0:0:0:
270,257,43099,1,0,0:0:0:0:
270,257,43313,2,0,P|206:257|120:156,1,195.999994018555
294,156,43956,2,0,L|402:156,1,97.9999970092774
393,285,44385,2,0,L|277:285,1,97.9999970092774
168,284,44813,1,0,0:0:0:0:
168,284,45028,2,0,P|124:284|96:236,1,97.9999970092774
256,32,45671,5,0,0:0:0:0:
256,160,45885,1,0,0:0:0:0:
256,160,46099,1,0,0:0:0:0:
384,160,46313,1,0,0:0:0:0:
416,216,46421,1,0,0:0:0:0:
384,272,46528,1,0,0:0:0:0:
256,160,46742,5,0,0:0:0:0:
128,272,46956,1,12,3:0:0:0:
96,216,47064,1,12,3:0:0:0:
128,160,47171,1,12,3:0:0:0:
256,288,47385,5,0,0:0:0:0:
256,160,47599,1,0,0:0:0:0:
288,104,47706,1,0,0:0:0:0:
224,104,47813,1,0,0:0:0:0:
404,160,48028,5,0,0:0:0:0:
108,160,48242,1,4,0:0:0:0:
404,256,48456,5,0,0:0:0:0:
108,256,48671,2,0,P|188:124|256:100,1,195.999994018555,0|0,0:0|0:0,0:0:0:0:
352,48,49313,1,0,0:0:0:0:
376,192,49528,2,0,P|296:324|228:348,1,195.999994018555,0|4,0:0|0:0,0:0:0:0:
140,340,50171,1,0,0:0:0:0:
220,216,50385,5,0,0:0:0:0:
120,108,50599,1,0,0:0:0:0:
96,252,50813,5,0,0:0:0:0:
256,104,51028,1,0,0:0:0:0:
372,156,51242,5,0,0:0:0:0:
260,252,51456,1,0,0:0:0:0:
316,116,51671,5,4,0:0:0:0:
376,340,51885,1,0,0:0:0:0:
376,192,52099,2,0,P|308:108|208:72,1,195.999994018555
68,76,52742,1,0,0:0:0:0:
68,228,52956,2,0,P|136:308|248:336,1,195.999994018555,0|4,0:0|0:0,0:0:0:0:
372,336,53599,1,0,0:0:0:0:
372,188,53813,5,0,0:0:0:0:
272,80,54028,1,0,0:0:0:0:
308,224,54242,5,0,0:0:0:0:
204,328,54456,1,0,0:0:0:0:
148,296,54563,1,0,0:0:0:0:
112,240,54671,5,0,0:0:0:0:
96,96,54885,1,0,0:0:0:0:
52,292,55099,5,4,0:0:0:0:
197,153,55313,1,0,0:0:0:0:
244,108,55421,1,0,0:0:0:0:
304,92,55528,2,0,P|344:128|352:180,1,97.9999970092774
172,240,55956,1,0,0:0:0:0:
220,88,56171,2,0,P|300:112|372:200,1,195.999994018555
128,312,56813,1,4,0:0:0:0:
220,88,57028,2,0,P|272:88|316:160,1,97.9999970092774
332,228,57456,1,0,0:0:0:0:
216,320,57671,5,0,0:0:0:0:
116,212,57885,1,0,0:0:0:0:
220,112,58099,1,0,0:0:0:0:
84,60,58313,5,0,0:0:0:0:
272,28,58528,1,4,0:0:0:0:
272,28,58742,2,0,L|352:100,1,97.9999970092774
456,188,59171,5,0,0:0:0:0:
304,188,59385,1,0,0:0:0:0:
396,304,59599,1,0,0:0:0:0:
156,336,59813,5,0,0:0:0:0:
288,272,60028,1,0,0:0:0:0:
164,192,60242,1,4,0:0:0:0:
272,92,60456,1,0,0:0:0:0:
136,36,60671,5,0,0:0:0:0:
60,160,60885,5,0,0:0:0:0:
152,276,61099,1,0,0:0:0:0:
356,272,61313,5,0,0:0:0:0:
356,208,61421,1,0,0:0:0:0:
312,160,61528,1,0,0:0:0:0:
176,220,61742,5,4,3:0:0:0:
188,284,61849,1,0,0:0:0:0:
228,336,61956,2,0,P|296:364|340:312,1,146.999995513916
340,272,62385,6,0,L|340:64,1,195.999994018555,0|0,1:0|0:0,0:0:0:0:
152,76,63028,1,0,0:0:0:0:
316,144,63242,1,0,0:0:0:0:
368,312,63456,1,0,0:0:0:0:
116,208,63671,1,4,0:0:0:0:
228,304,63885,2,0,L|312:228|312:228,2,97.9999970092774
255,39,64528,6,0,P|302:52|363:107,1,97.9999970092774
292,220,64956,2,0,P|228:265|172:273,1,97.9999970092774
148,280,65278,1,0,0:0:0:0:
84,282,65385,2,0,L|84:138,1,97.9999970092774,4|0,0:0|0:0,0:0:0:0:
133,75,65813,2,0,P|233:39|333:83,1,195.999994018555
436,152,66456,6,0,L|400:192,2,48.9999985046387
327,256,66885,1,0,0:0:0:0:
196,328,67099,1,4,0:0:0:0:
92,224,67313,2,0,P|92:148|280:108,1,293.999991027832
176,212,68171,5,0,0:0:0:0:
218,164,68278,1,0,0:0:0:0:
260,116,68385,1,0,0:0:0:0:
336,240,68599,1,0,0:0:0:0:
228,340,68813,1,4,0:0:0:0:
228,340,69028,1,0,0:0:0:0:
84,316,69242,2,0,P|32:196|248:56,1,391.99998803711
348,68,70313,5,0,0:0:0:0:
444,180,70528,1,4,0:0:0:0:
384,312,70742,1,0,0:0:0:0:
236,312,70956,2,0,B|136:312|136:312|48:240,1,195.999994018555
68,104,71599,5,0,0:0:0:0:
216,104,71813,1,0,0:0:0:0:
140,228,72028,1,0,0:0:0:0:
100,76,72242,5,0,0:0:0:0:
240,148,72456,1,0,0:0:0:0:
108,232,72671,2,0,L|144:84,1,146.999995513916
184,40,73099,5,0,0:0:0:0:
308,118,73313,1,4,3:0:0:0:
356,160,73421,1,4,3:0:0:0:
316,208,73528,1,4,3:0:0:0:
200,332,73742,5,4,3:0:0:0:
160,172,73956,1,4,3:0:0:0:
292,68,74171,1,4,3:0:0:0:
84,328,74599,5,0,1:0:0:0:
416,324,75028,5,0,1:0:0:0:
256,56,75242,1,0,1:0:0:0:
264,244,75563,5,4,3:0:0:0:
205,185,75670,1,4,3:0:0:0:
286,164,75778,1,4,3:0:0:0:
264,244,75885,1,4,3:0:0:0:
264,244,76099,5,4,1:0:0:0:
60,328,76313,1,0,0:0:0:0:
64,108,76528,1,4,0:0:0:0:
256,212,76742,1,0,0:0:0:0:
84,184,76956,2,0,B|71:166|50:161|24:171|7:190|6:223|10:247|38:266|67:268|96:250|113:232,1,183.750001752377
148,208,77385,1,4,0:0:0:0:
148,208,77599,5,0,0:0:0:0:
368,204,77813,1,0,0:0:0:0:
176,92,78028,1,0,0:0:0:0:
292,280,78242,1,4,0:0:0:0:
328,64,78456,1,0,0:0:0:0:
212,252,78671,1,0,0:0:0:0:
360,188,78885,1,0,0:0:0:0:
200,124,79099,2,0,L|84:76,1,122.500001168251,4|0,0:0|0:0,0:0:0:0:
280,180,79528,6,0,L|344:180,2,61.2500005841255,0|0|0,0:0|0:0|0:0,0:0:0:0:
280,180,79956,1,4,0:0:0:0:
444,324,80171,1,0,0:0:0:0:
224,324,80385,2,0,P|160:264|176:184,1,122.500001168251
444,324,80813,5,4,0:0:0:0:
444,324,81028,1,0,0:0:0:0:
124,212,81242,2,0,P|120:112|168:56,1,122.500001168251
348,56,81671,1,4,0:0:0:0:
280,264,81885,2,0,B|248:320|248:320|180:320,1,122.500001168251
56,144,82313,5,0,0:0:0:0:
196,68,82528,1,4,0:0:0:0:
272,216,82742,1,0,0:0:0:0:
348,200,82849,1,0,0:0:0:0:
424,172,82956,1,0,1:0:0:0:
424,172,83385,6,0,B|437:190|458:195|484:185|501:166|502:133|498:109|470:90|441:88|412:106|395:124,1,183.750001752377
364,140,83813,1,0,0:0:0:0:
252,256,84028,1,0,0:0:0:0:
46,333,84242,1,4,0:0:0:0:
152,140,84456,1,0,0:0:0:0:
260,332,84671,2,0,L|260:76,1,245.000002336502,0|4,0:0|0:0,0:0:0:0:
260,332,85528,5,0,0:0:0:0:
260,36,85956,1,4,0:0:0:0:
188,330,86385,2,0,P|251:250|332:334,1,245.000002336502,0|4,0:0|0:0,0:0:0:0:
333,332,87242,5,0,0:0:0:0:
328,112,87456,1,0,0:0:0:0:
140,228,87671,1,4,0:0:0:0:
352,284,87885,1,0,0:0:0:0:
352,284,87992,1,0,0:0:0:0:
352,284,88099,5,0,0:0:0:0:
248,88,88313,1,0,0:0:0:0:
132,276,88528,1,4,0:0:0:0:
332,182,88742,1,0,0:0:0:0:
390,232,88849,1,0,0:0:0:0:
333,283,88956,1,0,0:0:0:0:
224,96,89171,5,0,0:0:0:0:
80,256,89385,1,4,0:0:0:0:
41,191,89492,1,0,0:0:0:0:
109,158,89599,1,0,0:0:0:0:
112,156,89813,5,0,0:0:0:0:
332,156,90028,1,0,0:0:0:0:
112,308,90242,5,4,0:0:0:0:
332,308,90456,1,0,0:0:0:0:
228,112,90671,2,0,L|228:176,3,61.2500005841255
228,224,91099,1,4,0:0:0:0:
228,224,91313,5,0,0:0:0:0:
448,224,91528,1,0,0:0:0:0:
340,32,91742,1,0,0:0:0:0:
484,280,91956,1,4,0:0:0:0:
272,32,92171,1,0,0:0:0:0:
204,288,92385,2,0,L|227:223,2,61.2500005841255
276,80,92813,2,0,P|236:163|195:137,1,122.500001168251,4|0,0:0|0:0,0:0:0:0:
12,168,93242,6,0,L|144:168,1,122.500001168251
356,168,93671,1,4,0:0:0:0:
428,168,93885,1,0,0:0:0:0:
12,168,94099,6,0,L|156:168,1,122.500001168251
356,168,94528,1,4,0:0:0:0:
428,168,94742,1,0,0:0:0:0:
12,168,94956,5,0,0:0:0:0:
188,32,95171,1,0,0:0:0:0:
340,196,95385,1,4,0:0:0:0:
164,332,95599,2,0,B|76:332|76:332|76:160,1,245.000002336502
276,76,96242,1,4,0:0:0:0:
184,276,96456,1,0,0:0:0:0:
184,276,96563,1,0,0:0:0:0:
184,276,96671,5,0,0:0:0:0:
184,276,97099,1,4,0:0:0:0:
360,144,97313,1,0,0:0:0:0:
136,224,97528,5,0,0:0:0:0:
312,92,97742,1,0,0:0:0:0:
92,172,97956,5,4,0:0:0:0:
268,43,98170,1,0,0:0:0:0:
268,120,98278,1,0,0:0:0:0:
268,196,98385,1,0,0:0:0:0:
420,360,98599,1,0,0:0:0:0:
220,272,98813,5,4,0:0:0:0:
88,96,99028,1,0,0:0:0:0:
276,232,99242,5,0,0:0:0:0:
144,56,99457,1,0,0:0:0:0:
24,240,99671,1,4,0:0:0:0:
244,240,99885,1,0,0:0:0:0:
321,240,99992,1,0,0:0:0:0:
320,164,100099,2,0,P|268:108|156:296,1,367.500003504753
178,327,100849,1,0,0:0:0:0:
252,347,100956,1,0,0:0:0:0:
396,320,101171,1,0,0:0:0:0:
396,179,101385,1,4,0:0:0:0:
337,120,101492,1,0,0:0:0:0:
256,89,101599,1,0,0:0:0:0:
174,120,101706,1,0,0:0:0:0:
115,179,101813,1,0,0:0:0:0:
232,332,102242,6,0,P|264:316|292:340,1,70,4|0,1:0|0:0,0:0:0:0:
289,333,102885,1,0,0:0:0:0:
360,192,103099,2,0,P|256:236|124:184,1,245.000002336502
256,72,103956,5,0,0:0:0:0:
404,72,104171,2,0,P|444:100|448:180,1,97.9999970092774
272,288,104599,2,0,L|380:204,1,97.9999970092774
120,320,105242,6,0,L|172:196,1,97.9999970092774
232,32,105671,1,0,0:0:0:0:
232,328,105885,2,0,L|232:220,1,97.9999970092774
284,92,106313,1,0,0:0:0:0:
136,328,106528,1,0,0:0:0:0:
52,48,106956,5,0,0:0:0:0:
200,48,107171,1,0,0:0:0:0:
348,48,107385,1,0,0:0:0:0:
52,48,107599,2,0,L|164:48,1,97.9999970092774
296,48,108028,1,0,0:0:0:0:
52,152,108242,2,0,P|52:188|120:224,1,97.9999970092774
200,120,108671,2,0,P|248:96|308:220,1,195.999994018555
420,316,109313,2,0,L|324:228,1,97.9999970092774
308,220,109635,5,0,0:0:0:0:
260,220,109742,1,0,0:0:0:0:
216,248,109849,1,0,0:0:0:0:
164,240,109956,1,0,0:0:0:0:
116,204,110063,1,0,0:0:0:0:
88,148,110171,1,0,0:0:0:0:
104,80,110278,1,0,0:0:0:0:
168,44,110385,1,4,0:0:0:0:
383,77,110599,5,0,0:0:0:0:
422,136,110706,1,0,0:0:0:0:
397,203,110814,1,0,0:0:0:0:
342,248,110921,1,0,0:0:0:0:
276,275,111028,1,0,0:0:0:0:
205,271,111135,1,0,0:0:0:0:
139,244,111242,1,0,0:0:0:0:
260,168,111456,5,0,0:0:0:0:
356,56,111671,1,0,0:0:0:0:
260,316,111885,5,0,0:0:0:0:
260,168,112099,1,0,0:0:0:0:
260,168,112313,5,0,0:0:0:0:
400,216,112528,1,0,0:0:0:0:
260,116,112742,5,0,0:0:0:0:
192,108,112849,1,0,0:0:0:0:
232,52,112956,1,0,0:0:0:0:
120,212,113171,5,0,0:0:0:0:
260,168,113385,1,0,0:0:0:0:
260,168,113599,5,0,0:0:0:0:
260,316,113813,1,4,0:0:0:0:
88,76,114242,5,0,0:0:0:0:
88,224,114456,2,0,L|88:272,2,48.9999985046387,0|0|0,0:0|0:0|0:0,0:0:0:0:
236,220,114885,1,0,0:0:0:0:
88,224,115099,1,0,0:0:0:0:
308,220,115313,1,0,0:0:0:0:
377,221,115421,1,0,0:0:0:0:
446,220,115528,1,0,0:0:0:0:
88,224,115742,5,0,0:0:0:0:
446,220,115956,1,0,0:0:0:0:
340,128,116171,1,0,0:0:0:0:
291,80,116278,1,0,0:0:0:0:
242,32,116385,1,0,0:0:0:0:
446,220,116599,5,0,0:0:0:0:
168,32,116813,1,0,0:0:0:0:
218,79,116920,1,0,0:0:0:0:
266,128,117027,1,0,0:0:0:0:
111,286,117242,1,4,1:0:0:0:
356,124,117671,5,0,0:0:0:0:
456,60,117885,1,0,0:0:0:0:
258,187,118099,1,0,0:0:0:0:
258,187,118313,2,0,L|176:240,1,97.9999970092774
288,280,118742,1,0,0:0:0:0:
116,328,118956,1,0,0:0:0:0:
412,328,119385,5,0,0:0:0:0:
312,220,119599,2,0,L|380:292,1,97.9999970092774
224,108,120028,2,0,P|192:63|168:85,1,97.9999970092774
124,136,120349,2,0,L|168:152,1,24.4999992523194
116,172,120456,2,0,L|139:180,1,24.4999992523194
108,208,120563,2,0,L|144:220,1,24.4999992523194
132,252,120671,1,0,0:0:0:0:
132,252,121099,5,4,0:0:0:0:
428,256,121528,1,0,0:0:0:0:
428,108,121742,1,0,0:0:0:0:
132,252,121956,1,4,0:0:0:0:
428,108,122385,5,0,0:0:0:0:
136,112,122813,1,4,0:0:0:0:
344,320,123242,1,0,0:0:0:0:
452,220,123456,1,0,0:0:0:0:
136,112,123671,1,4,0:0:0:0:
452,220,124099,5,0,0:0:0:0:
160,204,124528,1,4,0:0:0:0:
428,84,124956,1,0,0:0:0:0:
292,24,125171,1,0,0:0:0:0:
192,300,125385,1,4,0:0:0:0:
292,24,125813,5,0,0:0:0:0:
188,300,126242,1,4,0:0:0:0:
392,88,126671,1,0,0:0:0:0:
244,84,126885,1,0,0:0:0:0:
76,328,127099,1,4,0:0:0:0:
76,328,127528,5,0,0:0:0:0:
368,332,127956,1,4,0:0:0:0:
76,328,128385,1,0,0:0:0:0:
368,184,128599,1,0,0:0:0:0:
368,36,128813,1,4,0:0:0:0:
76,328,129242,5,0,0:0:0:0:
288,124,129671,1,4,0:0:0:0:
189,226,129885,1,0,0:0:0:0:
256,209,129992,1,0,0:0:0:0:
207,161,130099,1,0,0:0:0:0:
308,260,130313,1,0,0:0:0:0:
152,108,130528,1,4,0:0:0:0:
360,312,130742,1,0,0:0:0:0:
100,56,130956,2,0,L|296:56,1,195.999994018555,4|0,1:0|0:0,0:0:0:0:
420,152,131599,1,0,0:0:0:0:
284,232,131813,6,0,L|244:188,1,48.9999985046387
148,76,132028,2,0,L|180:112,1,48.9999985046387
284,232,132242,1,4,0:0:0:0:
92,224,132456,1,0,0:0:0:0:
236,308,132671,1,0,0:0:0:0:
352,201,132885,2,0,L|316:237,1,48.9999985046387
444,108,133099,1,4,0:0:0:0:
168,260,133313,1,0,0:0:0:0:
388,40,133528,6,0,L|328:64,1,48.9999985046387
256,188,133742,2,0,L|320:160,1,48.9999985046387
172,76,133956,1,4,0:0:0:0:
172,76,134385,1,0,0:0:0:0:
364,324,134813,5,4,0:0:0:0:
200,248,135028,1,0,0:0:0:0:
308,136,135242,2,0,L|348:92,1,48.9999985046387
200,164,135456,2,0,L|148:212,1,48.9999985046387
368,80,135671,1,4,0:0:0:0:
80,200,135885,1,0,0:0:0:0:
436,124,136099,1,0,0:0:0:0:
72,272,136528,5,4,0:0:0:0:
296,200,136742,2,0,L|360:176,1,48.9999985046387
88,56,136956,2,0,L|32:72,1,48.9999985046387
248,116,137171,2,0,L|184:140,1,48.9999985046387
196,304,137385,1,4,0:0:0:0:
312,88,137599,2,0,L|340:40,1,48.9999985046387
124,236,137813,1,0,0:0:0:0:
124,236,138242,5,4,0:0:0:0:
124,236,138456,1,0,0:0:0:0:
228,116,138671,2,0,L|264:80,1,48.9999985046387
336,220,138885,2,0,L|380:172,1,48.9999985046387
440,44,139099,1,4,0:0:0:0:
312,136,139313,2,0,L|256:192,1,48.9999985046387
164,280,139528,1,0,0:0:0:0:
436,124,139956,6,0,L|492:124,2,48.9999985046387,4|0|0,0:0|0:0|0:0,0:0:0:0:
204,84,140385,2,0,L|144:68,1,48.9999985046387
220,216,140599,2,0,L|280:240,1,48.9999985046387
124,304,140813,1,4,0:0:0:0:
124,304,140921,1,0,0:0:0:0:
124,304,141028,1,0,0:0:0:0:
220,180,141242,6,0,P|248:176|241:240,1,97.9999970092774
204,260,141563,1,0,0:0:0:0:
164,208,141671,1,4,0:0:0:0:
164,208,141885,1,0,0:0:0:0:
164,208,142099,2,0,P|184:184|224:176,1,48.9999985046387
264,172,142313,2,0,P|291:179|298:232,1,48.9999985046387
256,316,142528,1,4,0:0:0:0:
256,316,142742,5,0,0:0:0:0:
100,244,142956,1,0,0:0:0:0:
256,68,143171,1,0,0:0:0:0:
412,244,143385,1,0,0:0:0:0:
195,160,143706,1,0,0:0:0:0:
266,160,143813,1,0,0:0:0:0:
314,107,143921,1,0,0:0:0:0:
314,213,144028,1,0,0:0:0:0:
100,324,144242,5,0,0:0:0:0:
147,271,144349,1,0,0:0:0:0:
52,272,144456,1,0,0:0:0:0:
52,272,144671,6,0,P|68:164|144:72,1,195.999994018555,4|0,1:0|0:0,0:0:0:0:
256,48,145313,1,0,0:0:0:0:
460,272,145528,2,0,P|444:164|368:72,1,195.999994018555,0|4,0:0|0:0,0:0:0:0:
256,48,146171,1,0,0:0:0:0:
256,48,146385,5,0,0:0:0:0:
256,336,146599,2,0,L|256:268,1,52.5000020027161
256,204,147028,2,0,L|256:264,1,52.5000020027161
197,296,147349,1,0,0:0:0:0:
256,336,147456,1,0,0:0:0:0:
315,297,147563,1,0,0:0:0:0:
254,232,147671,1,4,0:0:0:0:
254,232,147885,5,0,0:0:0:0:
226,167,147992,1,0,0:0:0:0:
292,140,148099,2,0,B|332:112|332:112|312:84|248:56|192:76,1,195.999994018555
72,148,148742,1,0,0:0:0:0:
368,140,148956,2,0,B|416:140|416:140|416:172|392:224|320:236,1,195.999994018555,0|4,0:0|0:0,0:0:0:0:
172,236,149599,1,0,0:0:0:0:
172,88,149813,1,0,0:0:0:0:
240,260,150028,1,0,0:0:0:0:
112,56,150242,1,0,0:0:0:0:
306,224,150456,5,0,0:0:0:0:
306,153,150563,1,0,0:0:0:0:
368,188,150671,1,0,0:0:0:0:
368,188,150885,2,0,L|400:188,2,24.4999992523194
112,188,151099,1,4,0:0:0:0:
130,154,151313,1,0,0:0:0:0:
129,226,151421,1,0,0:0:0:0:
68,190,151528,6,0,P|69:141|96:98,1,97.9999970092774
224,164,151956,1,0,0:0:0:0:
160,296,152171,1,0,0:0:0:0:
72,128,152385,2,0,P|104:88|152:64,1,97.9999970092774
88,288,152813,1,4,0:0:0:0:
144,66,153028,2,0,P|188:54|268:84,1,97.9999970092774
340,128,153456,5,0,0:0:0:0:
340,276,153671,1,0,0:0:0:0:
192,276,153885,2,0,L|136:276,2,48.9999985046387
412,276,154313,1,0,0:0:0:0:
484,276,154528,1,4,0:0:0:0:
118,278,154742,1,0,0:0:0:0:
85,215,154849,1,0,0:0:0:0:
48,276,154956,1,0,0:0:0:0:
126,151,155171,1,0,0:0:0:0:
85,215,155385,5,0,0:0:0:0:
164,92,155599,1,0,0:0:0:0:
92,132,155813,5,0,0:0:0:0:
236,100,156028,1,0,0:0:0:0:
352,192,156242,5,4,0:0:0:0:
308,136,156456,1,0,0:0:0:0:
192,236,156671,5,0,0:0:0:0:
356,92,156885,1,0,0:0:0:0:
244,84,157099,5,0,0:0:0:0:
244,304,157313,1,0,0:0:0:0:
160,184,157528,5,0,0:0:0:0:
340,308,157742,1,0,0:0:0:0:
472,44,157956,5,4,0:0:0:0:
472,336,158278,1,0,0:0:0:0:
472,336,158385,2,0,L|256:336,1,195.999994018555,4|0,1:0|0:0,0:0:0:0:
276,188,159028,1,0,0:0:0:0:
276,336,159242,2,0,L|276:204,1,97.9999970092774
276,336,159671,1,4,0:0:0:0:
276,48,159885,2,0,B|276:176|136:176,1,195.999994018555
384,176,160528,5,0,0:0:0:0:
384,176,160742,1,0,0:0:0:0:
112,64,160956,1,0,0:0:0:0:
184,136,161171,1,0,0:0:0:0:
112,136,161278,1,0,0:0:0:0:
112,64,161385,1,4,0:0:0:0:
112,212,161599,1,0,0:0:0:0:
112,64,161813,2,0,L|320:64,1,195.999994018555
192,152,162456,1,0,0:0:0:0:
340,152,162671,2,0,L|500:152,1,146.999995513916
508,152,163099,1,4,0:0:0:0:
156,256,163313,2,0,B|256:256|256:256|284:316|348:240,1,195.999994018555
432,148,163956,5,0,0:0:0:0:
431,306,164171,1,0,0:0:0:0:
370,342,164278,1,0,0:0:0:0:
300,348,164385,2,0,L|232:320,1,48.9999985046387
180,164,164599,2,0,L|232:192,1,48.9999985046387
356,72,164813,1,4,0:0:0:0:
136,76,165028,1,0,0:0:0:0:
428,72,165242,2,0,P|420:164|320:240,1,195.999994018555
200,232,165885,5,0,0:0:0:0:
264,100,166099,1,0,0:0:0:0:
116,108,166313,1,0,0:0:0:0:
200,232,166528,1,4,0:0:0:0:
348,232,166742,1,0,0:0:0:0:
276,360,166956,6,0,B|196:360|196:360|160:356|144:340|136:328|124:308|112:268,1,195.999994018555
116,136,167599,1,0,0:0:0:0:
147,72,167706,1,0,0:0:0:0:
77,80,167813,1,0,0:0:0:0:
128,220,168028,1,0,0:0:0:0:
224,108,168242,1,4,0:0:0:0:
108,20,168456,1,0,0:0:0:0:
8,128,168671,6,0,B|132:224|132:224|200:136,1,244.999992523194
253,155,169313,1,0,0:0:0:0:
324,155,169421,1,0,0:0:0:0:
291,92,169528,1,0,0:0:0:0:
212,216,169742,1,0,0:0:0:0:
344,284,169956,1,0,0:0:0:0:
460,96,170171,1,0,0:0:0:0:
460,96,170599,1,0,0:0:0:0:
172,36,171028,5,0,0:0:0:0:
364,352,171242,1,0,0:0:0:0:
384,208,171456,5,0,0:0:0:0:
405,140,171563,1,0,0:0:0:0:
145,272,171778,1,0,0:0:0:0:
164,204,171885,1,0,0:0:0:0:
189,164,171956,1,0,0:0:0:0:
235,151,172028,1,0,0:0:0:0:
276,169,172099,6,0,P|304:180|332:204,1,61.2500005841255
424,308,172313,2,0,P|432:320|400:352,1,61.2500005841255
232,264,172528,2,0,P|224:251|256:220,1,61.2500005841255,4|0,0:0|0:0,0:0:0:0:
416,116,172742,2,0,P|424:128|392:160,1,61.2500005841255
212,104,172956,2,0,L|160:60,3,61.2500005841255
319,189,173385,1,4,0:0:0:0:
319,189,173599,6,0,L|371:233,1,61.2500005841255
257,66,173813,2,0,L|317:118,1,61.2500005841255
155,238,174028,2,0,L|211:286,1,61.2500005841255
328,128,174242,2,0,L|284:172,1,61.2500005841255,4|0,0:0|0:0,0:0:0:0:
228,228,174456,1,0,0:0:0:0:
170,174,174563,1,0,0:0:0:0:
120,112,174671,2,0,P|132:84|160:87,1,61.2500005841255
304,220,174885,2,0,P|325:241|312:266,1,61.2500005841255
121,310,175099,6,0,P|90:308|61:286,1,40.8333337227503,4|0,0:0|0:0,0:0:0:0:
56,256,175242,1,0,0:0:0:0:
68,204,175313,1,0,0:0:0:0:
92,156,175385,1,0,0:0:0:0:
120,112,175456,1,0,0:0:0:0:
136,60,175528,2,0,L|-8:60,1,122.500001168251
308,60,175956,1,4,0:0:0:0:
375,60,176171,1,0,0:0:0:0:
80,60,176385,2,0,L|212:60,1,122.500001168251
404,60,176813,2,0,L|484:60,1,61.2500005841255,4|0,0:0|0:0,0:0:0:0:
267,60,177028,1,0,0:0:0:0:
356,136,177242,6,0,L|356:204,1,61.2500005841255
164,244,177456,2,0,L|164:308,1,61.2500005841255
400,196,177671,2,0,L|400:268,1,61.2500005841255,4|0,0:0|0:0,0:0:0:0:
120,88,177885,2,0,L|120:160,1,61.2500005841255
275,253,178099,1,0,0:0:0:0:
275,253,178313,2,0,L|347:253,1,61.2500005841255
220,104,178528,2,0,L|132:104,1,61.2500005841255,4|0,0:0|0:0,0:0:0:0:
275,253,178742,1,0,0:0:0:0:
246,179,178849,1,0,0:0:0:0:
220,104,178956,1,0,1:0:0:0:
220,104,179385,6,0,L|272:72,3,61.2500005841255
292,60,179813,1,0,0:0:0:0:
56,164,180028,1,0,0:0:0:0:
256,324,180242,1,4,0:0:0:0:
484,204,180456,1,0,0:0:0:0:
316,176,180671,2,0,L|432:104,1,122.500001168251
200,240,181099,2,0,L|116:124,1,122.500001168251,4|0,0:0|0:0,0:0:0:0:
340,288,181528,2,0,B|388:336|428:336|464:268,1,122.500001168251
188,324,181956,2,0,P|136:280|136:208,1,122.500001168251,4|0,0:0|0:0,0:0:0:0:
256,28,182385,2,0,B|336:60|256:232|112:52|248:20,1,245.000002336502,0|4,0:0|0:0,0:0:0:0:
223,33,183242,5,0,0:0:0:0:
440,64,183456,1,0,0:0:0:0:
256,184,183671,2,0,B|228:124|296:124|328:132|288:168|340:200,1,122.500001168251,4|0,0:0|0:0,0:0:0:0:
180,312,184099,1,0,0:0:0:0:
60,284,184313,1,0,0:0:0:0:
308,124,184528,1,4,0:0:0:0:
428,103,184742,1,0,0:0:0:0:
336,304,184956,5,0,0:0:0:0:
292,300,185028,1,0,0:0:0:0:
248,292,185099,1,0,0:0:0:0:
204,276,185171,1,0,0:0:0:0:
164,256,185242,1,0,0:0:0:0:
140,220,185313,1,0,0:0:0:0:
124,176,185385,1,0,0:0:0:0:
128,128,185456,1,0,0:0:0:0:
160,84,185528,1,0,0:0:0:0:
212,60,185599,1,0,0:0:0:0:
272,56,185671,1,0,0:0:0:0:
328,76,185742,1,0,0:0:0:0:
368,104,185813,6,0,L|424:140,1,41.9999987182618
460,168,186028,1,0,0:0:0:0:
262,152,186242,2,0,L|338:152,1,61.2500005841255,4|0,0:0|0:0,0:0:0:0:
434,150,186456,2,0,L|512:152,1,61.2500005841255
264,238,186671,2,0,L|324:192,3,61.2500005841255
464,77,187099,1,4,0:0:0:0:
464,77,187313,1,0,0:0:0:0:
456,156,187421,1,0,0:0:0:0:
420,228,187528,2,0,L|368:192,1,61.2500005841255
228,96,187742,2,0,L|280:132,1,61.2500005841255
384,280,187956,2,0,L|332:244,1,61.2500005841255,4|0,0:0|0:0,0:0:0:0:
192,148,188170,2,0,L|244:184,1,61.2500005841255
108,168,188385,2,0,L|48:120,1,61.2500005841255
228,292,188599,2,0,L|168:352,1,61.2500005841255
356,144,188813,2,0,L|440:52,1,122.500001168251,4|0,0:0|0:0,0:0:0:0:
272,248,189242,6,0,L|316:200,1,61.2500005841255
156,136,189456,2,0,L|208:84,1,61.2500005841255
348,72,189671,2,0,L|412:120,1,61.2500005841255,4|0,0:0|0:0,0:0:0:0:
96,240,189885,2,0,L|44:192,1,61.2500005841255
348,72,190099,2,0,P|421:70|415:148,1,122.500001168251
288,316,190528,1,4,0:0:0:0:
196,232,190742,1,0,0:0:0:0:
348,72,190956,1,0,0:0:0:0:
196,232,191171,1,0,0:0:0:0:
348,72,191385,1,4,0:0:0:0:
137,290,191599,2,0,P|102:262|86:190,1,122.500001168251
240,40,192028,1,0,0:0:0:0:
272,344,192242,1,4,0:0:0:0:
216,168,192456,1,0,0:0:0:0:
288,148,192563,1,0,0:0:0:0:
272,220,192671,5,0,0:0:0:0:
88,124,192885,1,0,0:0:0:0:
272,220,193099,1,4,0:0:0:0:
452,328,193313,2,0,L|524:372,2,61.2500005841255
272,220,193742,1,0,0:0:0:0:
376,48,193956,1,4,0:0:0:0:
272,220,194171,1,0,0:0:0:0:
200,268,194278,1,0,0:0:0:0:
200,268,194385,1,0,0:0:0:0:
128,312,194599,1,0,0:0:0:0:
264,96,194813,1,4,0:0:0:0:
432,276,195028,1,0,0:0:0:0:
500,236,195135,1,0,0:0:0:0:
500,316,195242,1,0,0:0:0:0:
224,148,195456,1,0,0:0:0:0:
312,244,195671,2,0,L|340:272,6,30.6250002920628,4|0|0|0|0|0|0,0:0|0:0|0:0|0:0|0:0|0:0|0:0,0:0:0:0:
312,244,196099,6,0,P|253:279|159:68,1,367.500003504753
209,52,196849,1,0,0:0:0:0:
288,52,196956,1,0,0:0:0:0:
412,168,197171,1,0,0:0:0:0:
312,252,197385,1,0,0:0:0:0:
276,212,197456,1,0,0:0:0:0:
256,260,197528,1,0,0:0:0:0:
200,248,197599,1,0,0:0:0:0:
160,196,197671,1,0,0:0:0:0:
188,128,197742,1,0,0:0:0:0:
268,96,197813,1,0,0:0:0:0:
268,96,198242,6,0,P|261:53|289:33,1,70,4|0,1:0|0:0,0:0:0:0:
444,204,198885,5,0,0:0:0:0:
444,204,199099,2,0,L|412:236,1,30.6250002920628
372,252,199206,2,0,L|324:260,1,30.6250002920628
288,260,199313,2,0,L|248:260,1,30.6250002920628,0|0,0:0|0:0,0:0:0:0:
200,256,199421,2,0,L|164:240,1,30.6250002920628
128,212,199528,1,0,0:0:0:0:
299,75,199849,5,0,0:0:0:0:
229,75,199956,1,0,0:0:0:0:
264,137,200063,1,0,0:0:0:0:
229,199,200171,1,0,0:0:0:0:
271,256,200278,1,0,0:0:0:0:
314,312,200385,1,4,0:0:0:0:
156,72,200813,5,4,0:0:0:0:
320,316,201028,1,0,0:0:0:0:
364,248,201242,1,0,0:0:0:0:
240,320,201456,1,0,0:0:0:0:
156,72,201671,1,4,0:0:0:0:
412,184,201885,1,0,0:0:0:0:
348,280,202099,1,0,0:0:0:0:
384,232,202206,1,0,0:0:0:0:
412,184,202313,1,0,0:0:0:0:
156,72,202528,1,4,0:0:0:0:
412,184,202742,1,0,0:0:0:0:
456,76,202956,1,0,0:0:0:0:
364,292,203171,1,0,0:0:0:0:
156,72,203385,2,0,L|128:48,6,24.4999992523194,4|0|0|0|0|0|0,0:0|0:0|0:0|0:0|0:0|0:0|0:0,0:0:0:0:
156,72,203813,1,4,0:0:0:0:
76,320,204242,5,4,0:0:0:0:
156,72,204456,1,0,0:0:0:0:
84,104,204671,1,0,0:0:0:0:
196,144,204886,1,0,0:0:0:0:
76,320,205099,1,4,0:0:0:0:
240,76,205313,1,0,0:0:0:0:
300,88,205421,1,0,0:0:0:0:
356,100,205528,1,0,0:0:0:0:
240,76,205742,1,0,0:0:0:0:
76,320,205956,1,4,0:0:0:0:
400,172,206171,2,0,L|436:144,6,24.4999992523194,2|0|0|0|0|0|0,0:0|0:0|0:0|0:0|0:0|0:0|0:0,0:0:0:0:
300,272,206599,2,2,L|276:300,1,35,0|0,0:0|0:0,0:0:0:0:
440,96,206813,1,4,0:0:0:0:
440,96,207242,6,0,P|412:56|408:136,1,195.999994018555,4|4,1:0|2:0,1:0:0:0:
256,68,207885,1,0,0:0:0:0:
116,140,208099,1,0,0:0:0:0:
84,292,208313,1,0,0:0:0:0:
440,96,208528,1,4,0:0:0:0:
84,292,208742,1,0,0:0:0:0:
440,96,208956,2,0,L|468:72,6,24.4999992523194,2|0|0|0|0|0|0,0:0|0:0|0:0|0:0|0:0|0:0|0:0,0:0:0:0:
440,96,209385,1,0,0:0:0:0:
316,188,209599,1,0,0:0:0:0:
160,292,209813,1,0,0:0:0:0:
96,148,210028,1,0,0:0:0:0:
440,96,210242,5,4,0:0:0:0:
488,80,210349,1,0,0:0:0:0:
448,48,210456,1,0,0:0:0:0:
432,324,210671,1,2,0:0:0:0:
320,216,210885,1,0,0:0:0:0:
432,324,211099,1,0,0:0:0:0:
264,160,211313,1,0,0:0:0:0:
212,104,211528,1,0,0:0:0:0:
160,44,211742,1,0,0:0:0:0:
432,324,211956,1,4,0:0:0:0:
160,44,212171,1,0,0:0:0:0:
432,324,212385,6,0,L|464:324,6,24.4999992523194,2|0|0|0|0|0|0,0:0|0:0|0:0|0:0|0:0|0:0|0:0,0:0:0:0:
276,328,212813,1,4,0:0:0:0:
432,324,213028,1,0,0:0:0:0:
476,296,213135,1,0,0:0:0:0:
476,344,213242,1,0,0:0:0:0:
336,276,213456,1,0,0:0:0:0:
132,160,213671,2,0,L|144:128,6,24.4999992523194,4|0|0|0|0|0|0,1:0|2:0|2:0|2:0|2:0|2:0|2:0,0:0:0:0:
76,304,214099,5,4,0:0:0:0:
160,84,214313,1,0,0:0:0:0:
76,304,214528,1,4,0:0:0:0:
236,56,214742,1,0,0:0:0:0:
316,72,214956,1,0,0:0:0:0:
376,124,215171,1,0,0:0:0:0:
76,304,215385,1,4,0:0:0:0:
228,260,215599,1,0,0:0:0:0:
76,304,215813,2,0,L|76:344,6,24.4999992523194,2|0|0|0|0|0|0,0:0|0:0|0:0|0:0|0:0|0:0|0:0,0:0:0:0:
76,148,216242,1,4,0:0:0:0:
144,288,216456,1,0,0:0:0:0:
76,72,216671,1,0,0:0:0:0:
300,132,216885,1,0,0:0:0:0:
144,288,217099,1,4,0:0:0:0:
144,288,217528,5,0,0:0:0:0:
300,288,217742,1,0,0:0:0:0:
76,72,217956,1,4,0:0:0:0:
372,252,218171,1,0,0:0:0:0:
428,236,218278,1,0,0:0:0:0:
388,204,218385,1,0,0:0:0:0:
340,352,218599,1,0,0:0:0:0:
436,56,218813,1,4,0:0:0:0:
436,56,219028,1,0,0:0:0:0:
276,308,219242,5,0,0:0:0:0:
216,264,219456,1,0,0:0:0:0:
436,56,219671,1,4,0:0:0:0:
220,188,219885,1,0,0:0:0:0:
264,164,219992,1,0,0:0:0:0:
304,140,220099,1,0,0:0:0:0:
164,220,220313,1,0,0:0:0:0:
436,56,220528,1,4,0:0:0:0:
216,56,220742,1,0,0:0:0:0:
168,60,220849,1,0,0:0:0:0:
124,64,220956,6,0,P|88:108|84:176,1,97.9999970092774
316,140,221385,2,0,P|352:176|368:224,1,97.9999970092774,4|0,0:0|0:0,0:0:0:0:
116,252,221813,2,0,P|60:260|0:204,1,97.9999970092774
324,332,222242,2,0,P|368:324|404:264,1,97.9999970092774,4|0,0:0|0:0,0:0:0:0:
256,96,222671,2,0,P|160:76|112:176,1,195.999994018555,0|4,0:0|0:0,0:0:0:0:
160,296,223313,1,0,0:0:0:0:
312,328,223528,1,0,0:0:0:0:
480,164,223742,1,0,0:0:0:0:
272,52,223956,2,0,L|240:32,6,24.4999992523194,4|0|0|0|0|0|0,1:0|0:0|0:0|0:0|0:0|0:0|0:0,0:0:0:0:
272,52,224385,2,0,P|176:76|112:160,1,195.999994018555,0|4,0:0|0:0,0:0:0:0:
96,192,224921,1,0,0:0:0:0:
84,240,225028,1,0,0:0:0:0:
348,72,225242,1,0,0:0:0:0:
416,108,225456,1,0,0:0:0:0:
84,240,225671,1,4,0:0:0:0:
472,160,226099,6,0,P|500:208|476:304,1,146.999995513916
483,294,226528,1,4,0:0:0:0:
288,304,226742,1,0,0:0:0:0:
240,304,226849,1,0,0:0:0:0:
240,304,226956,2,0,L|180:304,1,48.9999985046387
192,304,227171,1,0,0:0:0:0:
483,294,227385,1,4,0:0:0:0:
483,294,227813,5,4,1:0:0:0:
56,256,228242,1,4,2:0:0:0:
200,164,228456,1,0,0:0:0:0:
56,100,228671,1,0,0:0:0:0:
344,228,228885,1,0,0:0:0:0:
56,100,229099,1,4,0:0:0:0:
56,100,229313,1,0,0:0:0:0:
208,56,229528,1,0,0:0:0:0:
384,140,229742,1,0,0:0:0:0:
244,328,229956,1,0,0:0:0:0:
24,168,230171,1,0,0:0:0:0:
24,216,230278,1,0,0:0:0:0:
68,192,230385,1,0,0:0:0:0:
208,124,230599,1,0,0:0:0:0:
508,24,230813,1,0,0:0:0:0:
256,192,231242,5,0,0:0:0:0:
256,192,232956,5,0,0:0:0:0:
256,192,233063,1,0,0:0:0:0:
144,152,233813,5,0,0:0:0:0:
340,104,234135,1,0,0:0:0:0:
296,300,234421,1,0,0:0:0:0:
256,192,234671,2,0,L|264:176,2,10.4999996795654
224,28,235099,2,0,L|236:92,1,62.9999980773926
88,224,236331,6,0,L|88:212,2,7.87499975967408
268,320,236813,1,0,0:0:0:0:
412,180,237242,2,0,L|412:168,2,7.87499975967408
152,72,238099,1,0,0:0:0:0:
376,304,238956,5,0,0:0:0:0:
312,164,239278,1,0,0:0:0:0:
184,248,239599,1,0,0:0:0:0:
152,72,239813,1,0,0:0:0:0:
352,68,240242,5,0,0:0:0:0:
352,268,240671,1,0,0:0:0:0:
152,268,241099,1,0,0:0:0:0:
152,72,241528,2,0,L|148:48,2,15.7499995193482
428,192,243242,2,0,L|348:192,1,62.9999980773926
292,120,243671,1,0,0:0:0:0:
365,192,243885,1,0,0:0:0:0:
296,264,244099,1,0,0:0:0:0:
224,192,244313,5,0,0:0:0:0:
148,124,244528,1,0,0:0:0:0:
72,192,244742,1,0,0:0:0:0:
148,264,244956,2,0,L|224:332,1,90.9999958343508
436,100,245385,5,0,0:0:0:0:
344,212,245599,1,0,0:0:0:0:
228,124,245813,1,0,0:0:0:0:
228,124,246028,1,0,0:0:0:0:
132,232,246242,1,0,0:0:0:0:
132,232,246456,1,0,0:0:0:0:
368,68,246671,5,0,0:0:0:0:
280,184,246885,1,0,0:0:0:0:
192,300,247099,1,0,0:0:0:0:
192,300,247313,1,0,0:0:0:0:
336,280,247528,1,0,0:0:0:0:
336,280,247742,1,0,0:0:0:0:
152,164,247956,1,0,0:0:0:0:
72,284,248171,1,0,0:0:0:0:
236,44,248385,5,4,0:0:0:0:
236,44,248813,1,0,0:0:0:0:
364,116,249028,1,0,0:0:0:0:
264,204,249242,1,0,0:0:0:0:
208,160,249456,1,0,0:0:0:0:
440,336,249671,1,0,0:0:0:0:
384,292,249885,1,0,0:0:0:0:
448,84,250099,1,4,0:0:0:0:
448,84,250528,5,0,0:0:0:0:
360,200,250742,1,0,0:0:0:0:
232,264,250956,1,0,0:0:0:0:
448,84,251171,1,0,0:0:0:0:
312,136,251385,1,0,0:0:0:0:
172,104,251599,1,0,0:0:0:0:
24,356,251813,5,4,0:0:0:0:
24,356,252242,1,0,0:0:0:0:
124,252,252456,1,0,0:0:0:0:
124,252,252563,1,0,0:0:0:0:
124,252,252671,1,0,0:0:0:0:
224,148,252885,1,0,0:0:0:0:
324,40,253099,1,4,0:0:0:0:
324,40,253313,1,0,0:0:0:0:
192,352,253528,5,0,0:0:0:0:
248,216,253742,1,0,0:0:0:0:
184,88,253956,1,0,0:0:0:0:
324,40,254171,1,0,0:0:0:0:
324,40,254278,1,0,0:0:0:0:
324,40,254385,1,4,0:0:0:0:
56,156,254599,1,0,0:0:0:0:
324,272,254813,1,0,0:0:0:0:
192,212,255028,1,0,0:0:0:0:
468,124,255242,5,4,1:0:0:0:
468,124,255456,1,4,0:0:0:0:
392,248,255671,1,4,0:0:0:0:
224,320,255885,1,4,0:0:0:0:
40,204,256099,1,4,0:0:0:0:
244,52,256313,1,4,0:0:0:0:
420,284,256528,1,4,0:0:0:0:
92,296,256742,1,4,0:0:0:0:
392,88,256956,1,4,0:0:0:0:
92,296,257171,1,4,0:0:0:0:
392,88,257385,1,4,0:0:0:0:
92,88,257813,5,4,0:0:0:0:
275,250,258135,1,0,0:0:0:0:
205,228,258242,1,0,0:0:0:0:
205,155,258349,1,0,0:0:0:0:
275,133,258456,1,0,0:0:0:0:
317,192,258563,1,0,0:0:0:0:
275,250,258671,5,4,1:0:0:0:
276,56,258885,1,0,0:0:0:0:
372,153,259099,1,4,0:0:0:0:
178,152,259313,1,0,0:0:0:0:
404,56,259528,2,0,L|460:12,3,61.2500005841255
252,180,259956,1,4,0:0:0:0:
448,204,260171,1,0,0:0:0:0:
232,240,260385,1,0,0:0:0:0:
436,104,260599,1,0,0:0:0:0:
300,364,260813,1,4,0:0:0:0:
296,44,261028,1,0,0:0:0:0:
436,356,261242,2,0,L|504:356,1,61.2500005841255
264,280,261456,2,0,L|192:284,1,61.2500005841255
360,164,261671,2,0,P|419:131|447:172,1,122.500001168251,4|0,0:0|0:0,0:0:0:0:
104,164,262099,6,0,L|104:96,2,61.2500005841255
392,352,262528,1,4,0:0:0:0:
488,352,262742,1,0,0:0:0:0:
200,164,262956,2,0,P|180:120|100:76,1,122.500001168251
488,352,263385,1,4,0:0:0:0:
148,44,263599,1,0,0:0:0:0:
228,36,263706,1,0,0:0:0:0:
304,32,263813,2,0,P|356:56|408:104,1,122.500001168251
148,328,264242,1,4,0:0:0:0:
404,99,264456,2,0,B|368:132|324:172,1,107.18750102222
56,144,264884,5,0,1:0:0:0:
256,276,265099,1,0,1:0:0:0:
296,208,265206,1,0,1:0:0:0:
216,208,265313,1,0,1:0:0:0:
476,140,265527,1,4,1:0:0:0:
476,140,265956,6,0,L|400:140,3,61.2500005841255
364,140,266384,1,0,0:0:0:0:
143,357,266599,1,0,0:0:0:0:
263,75,266813,1,4,0:0:0:0:
60,161,267027,1,0,0:0:0:0:
260,332,267242,2,0,L|260:76,1,245.000002336502,0|4,0:0|0:0,0:0:0:0:
72,336,267885,1,0,0:0:0:0:
263,75,268099,1,0,0:0:0:0:
452,336,268313,1,0,0:0:0:0:
260,36,268527,1,4,0:0:0:0:
72,336,268742,1,0,0:0:0:0:
333,51,268956,2,0,P|261:132|188:52,1,245.000002336502,0|4,0:0|0:0,0:0:0:0:
260,348,269599,1,0,0:0:0:0:
333,52,269813,5,0,0:0:0:0:
328,272,270027,1,0,0:0:0:0:
140,156,270242,1,4,0:0:0:0:
72,192,270349,1,0,0:0:0:0:
72,112,270456,1,0,0:0:0:0:
392,308,270670,1,0,0:0:0:0:
248,88,270884,1,0,0:0:0:0:
40,272,271099,1,4,0:0:0:0:
332,180,271313,1,0,0:0:0:0:
392,232,271420,1,0,1:0:0:0:
332,288,271527,1,0,1:0:0:0:
134,86,271742,1,0,1:0:0:0:
199,133,271849,1,0,1:0:0:0:
175,209,271956,1,0,1:0:0:0:
120,208,272028,1,0,0:0:0:0:
80,176,272099,1,0,0:0:0:0:
80,132,272170,1,2,0:0:0:0:
108,96,272242,1,2,0:0:0:0:
160,92,272313,1,2,0:0:0:0:
196,128,272385,5,6,0:0:0:0:
416,300,272599,2,0,P|424:312|392:344,1,61.2500005841255
196,212,272813,2,0,P|188:199|220:168,1,61.2500005841255,4|0,0:0|0:0,0:0:0:0:
440,76,273028,2,0,P|448:88|416:120,1,61.2500005841255
84,72,273242,2,0,L|84:8,3,61.2500005841255
84,260,273671,1,4,0:0:0:0:
400,132,273885,5,0,0:0:0:0:
464,180,273992,1,0,0:0:0:0:
412,240,274100,2,0,L|360:204,1,61.2500005841255
176,48,274313,2,0,L|112:56,1,61.2500005841255
112,300,274528,2,0,L|60:264,1,61.2500005841255,4|0,0:0|0:0,0:0:0:0:
308,256,274742,2,0,L|360:288,1,61.2500005841255
156,152,274956,2,0,L|136:92,1,61.2500005841255
224,328,275171,1,0,0:0:0:0:
356,144,275385,2,0,L|432:48,1,122.500001168251,4|0,0:0|0:0,0:0:0:0:
212,312,275813,6,0,L|256:264,1,61.2500005841255
199,92,276027,2,0,L|156:136,1,61.2500005841255
356,272,276242,2,0,L|405:308,1,61.2500005841255,4|0,0:0|0:0,0:0:0:0:
64,108,276456,2,0,L|18:66,1,61.2500005841255
348,72,276670,2,0,P|421:70|415:148,1,122.500001168251
384,316,277099,1,4,0:0:0:0:
204,316,277313,1,0,0:0:0:0:
124,316,277421,1,0,0:0:0:0:
44,316,277528,1,0,0:0:0:0:
324,316,277742,1,0,0:0:0:0:
104,144,277956,1,4,0:0:0:0:
404,264,278171,2,0,P|448:228|460:160,1,122.500001168251
272,40,278599,1,4,0:0:0:0:
240,344,278813,1,0,0:0:0:0:
296,168,279027,1,0,0:0:0:0:
220,145,279134,1,0,0:0:0:0:
234,224,279242,1,4,1:0:0:0:
424,124,279457,1,0,0:0:0:0:
240,220,279671,1,4,0:0:0:0:
60,328,279885,6,0,L|-12:372,2,61.2500005841255
240,220,280314,1,0,0:0:0:0:
96,32,280528,1,4,0:0:0:0:
240,220,280743,1,0,0:0:0:0:
312,268,280850,1,0,0:0:0:0:
312,268,280957,1,0,0:0:0:0:
384,312,281171,1,0,0:0:0:0:
244,72,281385,1,4,0:0:0:0:
80,276,281600,1,0,0:0:0:0:
12,236,281707,1,0,0:0:0:0:
12,316,281814,1,0,0:0:0:0:
288,148,282028,1,0,0:0:0:0:
200,244,282243,2,0,L|172:272,6,30.6250002920628,4|0|0|0|0|0|0,0:0|0:0|0:0|0:0|0:0|0:0|0:0,0:0:0:0:
200,244,282671,6,0,P|259:279|353:68,1,367.500003504753,4|0,1:0|1:0,0:0:0:0:
308,56,283421,1,0,1:0:0:0:
232,56,283528,1,0,1:0:0:0:
100,168,283743,1,0,0:0:0:0:
200,252,283956,1,0,0:0:0:0:
236,212,284027,1,0,0:0:0:0:
256,260,284099,1,0,0:0:0:0:
312,248,284170,1,0,0:0:0:0:
352,196,284242,1,0,0:0:0:0:
324,128,284313,1,0,0:0:0:0:
244,96,284384,1,0,0:0:0:0:
244,96,284814,6,0,P|251:53|223:33,1,70,4|0,1:0|0:0,0:0:0:0:
375,339,285563,5,0,1:0:0:0:
447,343,285671,1,0,1:0:0:0:
474,275,285778,1,0,1:0:0:0:
417,229,285885,1,0,1:0:0:0:
356,270,285992,1,0,1:0:0:0:
296,316,286099,5,4,1:0:0:0:
156,204,286313,1,0,0:0:0:0:
348,264,286528,1,4,0:0:0:0:
208,152,286742,1,0,0:0:0:0:
400,208,286956,1,0,0:0:0:0:
260,96,287171,2,0,L|220:56,1,48.9999985046387
472,264,287385,1,4,0:0:0:0:
192,40,287599,1,0,0:0:0:0:
192,40,287706,1,0,0:0:0:0:
192,40,287813,1,0,0:0:0:0:
88,288,288028,6,0,L|152:288,1,48.9999985046387
292,288,288242,1,4,0:0:0:0:
120,212,288456,2,0,L|184:212,1,48.9999985046387
328,212,288671,1,0,0:0:0:0:
84,140,288885,2,0,L|36:140,1,48.9999985046387
428,140,289100,1,4,0:0:0:0:
35,140,289314,1,0,0:0:0:0:
35,140,289421,1,0,0:0:0:0:
35,140,289528,1,0,0:0:0:0:
340,64,289742,5,0,0:0:0:0:
388,104,289849,1,0,0:0:0:0:
428,140,289956,1,4,0:0:0:0:
292,276,290171,1,0,0:0:0:0:
244,232,290278,1,0,0:0:0:0:
200,184,290385,1,0,0:0:0:0:
200,184,290599,1,0,0:0:0:0:
244,232,290706,1,0,0:0:0:0:
292,276,290813,1,4,0:0:0:0:
152,136,291028,6,0,L|112:92,1,48.9999985046387
292,276,291242,1,0,0:0:0:0:
119,99,291456,2,0,L|79:55,1,48.9999985046387
344,324,291671,1,4,0:0:0:0:
91,214,291885,2,0,L|32:208,1,48.9999985046387
409,231,292100,1,0,0:0:0:0:
117,322,292313,2,0,L|72:361,1,48.9999985046387
372,76,292528,1,4,0:0:0:0:
212,176,292742,1,0,0:0:0:0:
256,220,292849,1,0,0:0:0:0:
276,160,292956,1,4,1:0:0:0:
220,344,293171,5,0,0:0:0:0:
312,36,293385,1,4,0:0:0:0:
416,196,293599,1,0,0:0:0:0:
416,196,293706,1,0,0:0:0:0:
416,196,293814,1,0,0:0:0:0:
232,148,294028,2,0,L|172:128,1,48.9999985046387
480,212,294242,1,4,0:0:0:0:
164,128,294456,1,0,0:0:0:0:
104,108,294563,1,0,0:0:0:0:
104,108,294671,2,0,L|8:72,1,97.9999970092774
132,232,294993,1,0,0:0:0:0:
205,238,295100,2,0,L|309:246,1,97.9999970092774,4|0,0:0|0:0,0:0:0:0:
288,48,295421,1,0,0:0:0:0:
368,73,295529,2,0,L|460:105,1,97.9999970092774
500,156,295849,1,0,0:0:0:0:
480,216,295956,1,4,0:0:0:0:
248,184,296171,5,0,0:0:0:0:
204,136,296278,1,0,0:0:0:0:
192,72,296385,2,0,B|236:8|368:16|308:144,1,195.999994018555,0|4,0:0|0:0,0:0:0:0:
144,264,297028,1,0,0:0:0:0:
96,220,297135,1,0,0:0:0:0:
52,172,297242,1,0,0:0:0:0:
228,100,297456,1,0,0:0:0:0:
276,144,297564,1,0,0:0:0:0:
328,184,297671,1,4,0:0:0:0:
112,344,297885,6,0,L|88:296,1,48.9999985046387
28,156,298099,1,4,1:0:0:0:
112,344,298313,2,0,L|80:264,1,57.7500005507469
132,100,298528,1,4,0:0:0:0:
112,344,298742,2,0,L|156:284,1,66.4999982242585
268,112,298956,2,0,P|288:108|304:120,1,36.1666669425964,4|0,1:0|0:0,0:0:0:0:
336,148,299099,2,0,P|348:156|344:180,1,36.1666669425964
332,224,299242,2,0,P|328:244|300:256,1,36.1666669425964
268,268,299385,1,0,0:0:0:0:
216,252,299456,1,0,0:0:0:0:
180,208,299528,1,0,0:0:0:0:
176,148,299599,1,0,0:0:0:0:
204,88,299671,1,0,0:0:0:0:
264,56,299742,1,0,0:0:0:0:
344,68,299813,1,4,1:0:0:0:
492,256,300028,5,0,0:0:0:0:
296,340,300242,2,0,P|212:344|148:280,1,140,4|0,0:0|0:0,0:0:0:0:
157,100,300563,1,0,0:0:0:0:
236,60,300671,2,0,P|296:52|376:96,1,140
413,143,300992,1,0,0:0:0:0:
420,217,301099,1,4,0:0:0:0:
168,313,301313,2,0,P|128:256|120:184,1,140
312,56,301742,2,0,P|352:64|384:92,1,70
200,328,301956,2,0,P|160:320|128:292,1,70,4|0,0:0|0:0,0:0:0:0:
408,120,302171,2,0,P|426:156|425:198,1,70,0|0,0:0|0:0,0:0:0:0:
104,264,302385,2,0,P|85:227|86:185,1,70,0|0,0:0|0:0,0:0:0:0:
416,228,302599,2,0,P|400:265|366:291,1,70,0|0,0:0|0:0,0:0:0:0:
96,156,302813,2,0,P|111:118|145:92,1,70,4|0,0:0|0:0,0:0:0:0:
336,312,303028,2,0,P|270:335|198:324,1,140
124,108,303456,5,0,0:0:0:0:
202,326,303671,2,0,P|269:340|331:311,1,140,4|0,0:0|0:0,0:0:0:0:
249,57,303992,1,0,0:0:0:0:
164,76,304099,2,0,P|124:100|88:192,1,140
276,324,304421,1,0,0:0:0:0:
353,302,304528,2,0,P|388:281|409:244,1,70,4|0,0:0|0:0,0:0:0:0:
158,81,304742,2,0,P|123:102|88:200,1,140
416,228,305063,1,0,0:0:0:0:
416,140,305171,2,0,P|404:100|375:70,1,70
95,243,305385,2,0,P|107:283|136:313,1,70,4|0,0:0|0:0,0:0:0:0:
349,45,305599,2,0,P|314:20|211:31,1,140
100,144,306028,1,0,1:0:0:0:
412,240,306242,1,0,1:0:0:0:
284,156,306456,1,0,1:0:0:0:
213,186,306563,1,0,1:0:0:0:
276,232,306671,1,4,1:0:0:0:
274,103,306885,6,0,L|323:48,1,70
173,223,307099,1,4,0:0:0:0:
323,248,307313,2,0,L|348:323,1,70
212,60,307528,1,4,1:0:0:0:
169,291,307742,2,0,L|94:320,1,70
385,208,307956,1,4,1:0:0:0:
155,76,308171,2,0,L|140:1,1,70
211,330,308385,1,4,0:0:0:0:
394,152,308599,2,0,L|467:137,1,70,0|0,1:0|0:0,0:0:0:0:
105,221,308813,1,0,1:0:0:0:
353,300,309028,2,0,L|371:377,1,70
291,52,309242,1,4,1:0:0:0:
112,276,309456,2,0,L|252:276,1,140,0|0,1:0|1:0,1:0:0:0:
328,264,309778,1,4,3:0:0:0:
380,208,309885,1,4,3:0:0:0:
364,132,309992,1,4,3:0:0:0:
308,80,310099,1,4,1:0:0:0:
184,172,310313,5,0,0:0:0:0:
308,80,310528,1,0,0:0:0:0:
132,160,310742,1,0,0:0:0:0:
356,96,310956,1,0,0:0:0:0:
88,120,311171,1,0,0:0:0:0:
396,140,311385,1,0,0:0:0:0:
392,192,311456,1,0,0:0:0:0:
368,244,311528,1,0,0:0:0:0:
320,284,311599,1,0,0:0:0:0:
256,304,311671,1,0,0:0:0:0:
184,292,311742,1,0,0:0:0:0:
116,236,311813,1,4,3:0:0:0:
116,236,312242,6,0,P|92:200|112:112,1,122.5
120,100,313099,6,0,L|148:84,1,29.7500005674362
196,72,313206,2,0,L|236:72,1,29.7500005674362
276,76,313313,2,0,L|320:92,1,29.7500005674362
340,112,313421,2,0,L|372:140,1,29.7500005674362
376,156,313528,6,0,P|404:212|320:348,1,238.00000453949,4|0,1:0|1:0,1:0:0:0:
136,292,314171,1,0,0:0:0:0:
48,152,314385,1,0,0:0:0:0:
92,80,314492,1,0,0:0:0:0:
180,68,314599,1,0,0:0:0:0:
256,104,314706,1,0,0:0:0:0:
288,172,314813,1,0,0:0:0:0:
252,232,314921,1,0,0:0:0:0:
188,216,315028,1,0,0:0:0:0:
220,160,315242,1,4,0:0:0:0:
256,192,315349,12,0,317813,0:0:0:0:
