osu file format v7

[General]
AudioFilename: School Rumble.mp3
AudioLeadIn: 500
PreviewTime: 36396
Countdown: 0
SampleSet: Soft
StackLeniency: 0.7
Mode: 0
LetterboxInBreaks: 1

[Editor]
DistanceSpacing: 0.800000011920929
BeatDivisor: 4
GridSize: 8

[Metadata]
Title:Kono Namida ga Aru kara Tsugi no Ippo to Naru
Artist:Tokito Ami
Creator:al2e10
Version:Hard
Source:School Rumble
Tags:aesopl19193

[Difficulty]
HPDrainRate:6
CircleSize:5
OverallDifficulty:6
SliderMultiplier:1.8
SliderTickRate:2

[Events]
//Background and Video events
0,0,"aad857c7fb6652511ab57c1b870989e9.jpg"
//Break Periods
2,56565,61815
//Storyboard Layer 0 (Background)
//Storyboard Layer 1 (Fail)
//Storyboard Layer 2 (Pass)
//Storyboard Layer 3 (Foreground)
//Storyboard Sound Samples
//Background Colour Transformations
3,100,163,162,255

[TimingPoints]
365,500,4,2,0,29,1,0
3312,-100,4,1,0,29,0,0
4625,-100,4,2,1,71,0,0
33281,-100,4,2,1,30,0,0
33781,-100,4,2,1,59,0,0
35382,-100,4,1,1,30,0,0
36383,-100,4,1,1,30,0,1
36633,-100,4,1,1,71,0,0
58388,-100,4,2,1,71,0,0
90795,-100,4,2,1,36,0,0
91045,-100,4,2,1,49,0,0
91545,-100,4,1,1,60,0,0
94421,-100,4,1,1,60,0,1
94671,-100,4,1,1,79,0,0
114290,-100,4,1,1,0,0,0

[Colours]
Combo1 : 241,182,254
Combo2 : 255,128,255
Combo3 : 255,0,255
Combo4 : 255,255,255

[HitObjects]
56,192,2365,1,4
440,192,2865,1,4
136,304,3365,5,0
200,344,3615,1,0
224,360,3740,1,0
256,368,3865,1,0
288,352,3990,1,0
312,336,4115,1,0
376,304,4365,1,4
256,192,4865,5,8
192,80,5365,1,0
256,64,5615,1,0
320,80,5865,1,8
136,136,6365,2,0,B|112:224|144:328,1,180,0|8
200,288,7115,1,0
256,256,7365,2,0,B|288:312|264:352,2,90,0|0|8
144,320,8365,1,0
312,216,8865,1,8
152,136,9365,1,0
216,120,9615,5,0
280,128,9865,1,8
336,160,10115,2,0,B|440:160,1,90
368,216,10615,2,0,B|392:272|360:320,1,90,0|8
312,328,11115,1,0
272,272,11365,1,0
272,208,11615,2,0,B|264:160|272:104,1,90,0|8
248,336,12365,1,4
48,192,12865,5,8
464,192,13365,1,0
112,192,13865,1,8
152,248,14115,1,0
192,192,14365,2,0,B|192:80,2,90,0|0|8
400,192,15365,2,0,B|352:168|248:208|208:184,1,180,0|8
224,128,16115,1,0
168,160,16365,1,0
168,224,16615,1,0
224,256,16865,1,8
224,256,17365,2,0,B|320:272|416:256,1,180,0|8
320,120,18365,1,2
144,128,18865,1,8
200,160,19115,1,0
224,224,19365,1,8
208,288,19615,5,0
152,320,19865,1,8
96,288,20115,1,0
96,256,20240,1,0
96,224,20365,2,0,B|96:128,2,90,12|0|8
448,224,21365,2,0,B|448:320,2,90,0|0|8
384,216,22115,2,2,B|344:192|240:240|200:208,1,180
160,160,22865,1,8
160,160,22990,1,2
232,152,23240,1,2
232,152,23365,1,8
192,96,23615,5,0
256,72,23865,1,8
320,96,24115,1,0
384,72,24365,2,0,B|432:160|384:256,1,180,4|8
328,224,25115,1,0
272,184,25365,2,0,B|240:280|280:368,1,180,4|8
328,320,26115,1,0
384,280,26365,2,0,B|192:280,2,180,0|8|0
360,216,27615,5,0
312,264,27865,1,8
328,328,28115,1,0
376,280,28365,2,0,B|360:184|376:96,1,180,4|8
360,40,29115,1,0
312,88,29365,1,0
328,152,29615,1,0
376,104,29865,2,0,B|272:128|176:104,1,180,8|0
392,168,30865,1,8
96,168,31365,6,0,B|88:272|96:352,1,180,0|8
152,320,32115,1,0
208,280,32365,2,0,B|64:280,1,135,4|2
40,280,32865,1,8
72,224,33115,1,0
136,224,33365,1,8
200,224,33615,1,8
264,224,33865,1,8
328,224,34115,1,8
392,224,34365,1,12
72,224,34865,1,8
72,224,35115,1,12
144,80,35615,5,0
168,96,35740,1,0
200,96,35865,1,0
224,80,35990,1,0
224,48,36115,1,0
168,24,36365,1,4
144,80,36615,5,0
136,144,36865,2,0,B|128:248|240:224,1,135
240,216,37365,1,8
272,160,37615,2,0,B|368:160,2,90
240,216,38365,2,0,B|176:248|168:328|256:360,2,180,8|0|8
288,168,39615,1,0
344,128,39865,2,0,B|344:272,1,135
344,288,40365,1,8
64,192,40865,5,0
120,160,41115,1,0
176,192,41365,2,0,B|232:208|288:184,1,90,4|0
320,168,41865,2,0,B|368:152|424:176,1,90,4|0
464,192,42365,1,4
64,192,42865,1,0
120,224,43115,1,4
408,224,43615,1,0
464,192,43865,1,4
256,192,44365,5,2
256,192,44865,1,0
256,128,45115,1,0
256,64,45365,1,2
256,64,45865,1,0
320,64,46115,1,0
384,64,46365,2,0,B|480:64,1,90,2|0
472,128,46865,1,0
472,192,47115,2,0,B|472:352,2,135,4|0|0
416,152,48115,5,0
376,208,48365,2,0,B|272:224|192:208,1,180,0|8
144,176,49115,2,0,B|144:80,2,90
192,232,49865,1,8
144,280,50115,2,0,B|144:376,2,90
192,232,50865,2,0,B|256:200|336:256|384:224,1,180,8|0
360,168,51615,1,0
368,104,51865,1,8
352,40,52115,5,0
304,88,52365,2,0,B|192:88,2,90,4|0|0
328,152,53115,1,0
360,208,53365,2,0,B|456:208,2,90,0|2|0
328,264,54115,1,0
344,328,54365,1,4
256,192,54490,12,4,56365
464,192,62865,5,8
352,120,63365,1,0
336,192,63615,1,0
352,264,63865,1,8
200,192,64365,2,2,B|16:192,2,180,2|8|2
264,152,65615,1,0
264,224,65865,2,0,B|264:320|368:304|352:208,1,180,8|0
80,224,66865,5,8
152,192,67115,1,0
16,264,67615,1,0
80,288,67865,1,8
80,224,68115,2,0,B|80:120,2,90
144,264,68865,2,0,B|144:360,2,90,8|0|0
208,224,69615,1,0
272,264,69865,1,8
272,264,70365,1,4
144,88,70865,6,0,B|118:127|142:175,1,90,8|0
208,128,71365,2,8,B|232:184|200:232,1,90,8|0
144,176,71865,2,0,B|120:240|168:280,1,90,8|0
208,216,72365,2,0,B|224:272|200:320,1,90,8|0
152,264,72865,2,8,B|136:312|160:352,1,90,8|0
208,304,73365,2,0,B|408:304,1,180,0|8
352,232,74115,1,0
432,256,74365,2,0,B|480:216|464:160|424:120|344:160,2,180,8|8|8
352,232,75615,1,0
280,264,75865,1,8
280,264,76365,1,6
256,56,76865,5,8
256,336,77365,1,8
208,280,77615,1,0
280,264,77865,1,8
256,240,77990,1,8
232,216,78115,1,8
184,160,78365,1,4
400,160,78865,6,0,B|368:256|408:352,1,180,8|0
464,296,79615,1,0
448,224,79865,2,0,B|264:224,2,180,8|0|8
400,160,81115,1,0
344,112,81365,1,0
296,168,81615,6,0,B|288:232|304:264,2,90,0|8|0
256,112,82365,2,0,B|144:104|64:120,1,180,0|8
88,184,83115,1,0
144,224,83365,2,0,B|344:224,1,180,0|8
376,280,84115,1,0
328,224,84365,2,2,B|360:320|320:368,2,135
304,160,85365,1,0
312,88,85615,5,0
376,128,85865,1,8
312,88,86115,1,0
304,160,86365,2,0,B|344:248|344:248|432:248,1,180,4|8
208,224,87365,2,0,B|168:136|168:136|80:136,1,180,0|8
112,200,88115,1,0
152,256,88365,2,0,B|248:232|336:256,1,180,0|8
320,184,89115,1,0
320,112,89365,2,0,B|416:112,2,90,0|0|8
248,112,90115,1,0
176,112,90365,2,0,B|144:208|176:296,1,180,4|8
240,256,91115,5,8
304,312,91365,1,8
376,264,91615,1,0
352,192,91865,1,0
272,184,92115,1,0
240,256,92365,1,4
304,112,92865,1,0
272,184,93115,1,4
256,192,93240,12,4,94365
184,192,94615,5,0
112,152,94865,1,0
48,192,95115,1,0
88,256,95365,1,0
88,256,95490,1,0
128,320,95740,1,0
128,320,95865,1,0
200,320,96115,2,0,B|304:320,1,90
256,48,96865,5,0
320,104,97115,1,0
248,120,97365,2,0,B|224:208|144:208|104:144,1,180
96,80,98115,1,0
112,160,98365,2,0,B|112:344,1,180,4|0
192,304,99115,1,0
176,224,99365,1,4
192,96,99740,5,0
328,120,100115,1,0
408,120,100365,1,4
248,136,100865,1,0
304,200,101115,1,0
256,264,101365,2,0,B|352:304|440:256,1,180,0|0
48,192,102365,5,2
48,192,102865,1,0
128,192,103115,1,0
128,272,103365,1,2
128,272,103865,1,0
208,272,104115,1,0
208,192,104365,2,0,B|224:96|200:0,1,180,2|0
136,16,105115,2,0,B|112:128|144:208,1,180,6|0
138,193,105865,1,0
216,192,106115,6,0,B|320:192,1,90,0|4
400,104,106865,2,0,B|432:200|400:296,1,180
328,256,107615,1,0
248,288,107865,1,0
264,208,108115,2,0,B|160:184|72:216,1,180
128,288,108865,1,0
40,288,109115,2,0,B|40:176,1,90
456,192,109865,5,0
384,168,110115,1,0
400,240,110365,2,0,B|208:240,1,180,4|0
56,192,111365,1,0
120,152,111615,1,0
120,232,111865,2,0,B|320:232,1,180,0|4
256,192,112490,12,0,114365
