osu file format v5

[General]
AudioFilename: Ami Tokito - Kono Namida ga Aru Kara Tsugi no Ippo to Naru (TV Size).mp3
AudioLeadIn: 0
PreviewTime: -1
Countdown: 1
SampleSet: Normal
StackLeniency: 0.7
Mode: 0
LetterboxInBreaks: 0

[Metadata]
Title:Kono Namida ga Aru Kara Tsugi no Ippo to Naru
Artist:Tokito Ami
Creator:jmaeshawn
Version:Normal
Source:School Rumble
Tags:

[Difficulty]
HPDrainRate:5
CircleSize:5
OverallDifficulty:5
SliderMultiplier:1.1
SliderTickRate:2

[Events]
//Background and Video events
1,0,"School Rumble ED Video.avi"
//Break Periods
2,33374,35474
2,55860,57460
//Storyboard Layer 0 (Background)
//Storyboard Layer 1 (Failing)
//Storyboard Layer 2 (Passing)
//Storyboard Layer 3 (Foreground)
//Storyboard Sound Samples
//Background Colour Transformations
3,100,163,162,255

[TimingPoints]
1160,500,4,1,0,60,1

[Colours]
Combo1 : 255,128,128
Combo2 : 0,101,202
Combo3 : 0,128,0
Combo4 : 255,255,128

[HitObjects]
16,64,4660,1,0
80,136,5160,1,0
168,176,5660,1,0
264,192,6160,1,0
360,200,6660,1,0
432,272,7160,1,0
344,312,7660,1,0
248,320,8160,1,0
496,296,9410,6,0,B|475:277|475:277|448:304,2,55
400,264,10410,1,0
360,240,10660,1,0
320,216,10910,1,0
280,192,11160,1,0
320,160,11410,1,4
360,128,11660,1,4
464,296,12660,6,0,B|506:274|464:184,1,110
416,112,13660,2,0,B|288:112,1,110
208,112,14660,1,0
160,200,15160,2,0,B|16:112,1,165
48,80,16160,2,0,B|344:264,1,330,0|4
256,184,18160,5,0
48,72,19410,5,0
96,72,19660,1,0
144,72,19910,1,0
144,120,20160,1,0
200,200,20660,2,0,B|320:200,3,110
384,264,23410,1,0
384,264,23660,1,0
384,264,23910,1,0
384,264,24160,2,0,B|353:209|408:160,1,110,0|0
432,72,25160,1,0
336,72,25660,2,0,B|282:50|240:120,1,110,0|4
88,288,27410,5,0
128,256,27660,1,0
88,224,27910,1,0
128,192,28160,1,0
224,168,28660,1,0
224,72,29160,1,0
312,120,29660,1,0
408,120,30160,1,0
408,216,30660,1,0
320,256,31160,1,0
320,256,31660,1,0
232,296,32159,2,4,B|132:290|88:200,1,165
96,216,33160,1,0
488,64,36660,5,0
448,96,36910,1,0
408,64,37160,2,0,B|312:128,1,110
280,88,37910,1,0
240,112,38160,1,0
120,200,38910,1,0
168,200,39160,1,4
72,200,39660,1,4
256,120,40660,5,0
224,160,40910,1,0
256,200,41160,1,0
328,200,41535,1,0
392,168,41910,1,0
432,136,42160,1,0
504,64,42660,1,0
504,64,42910,1,0
352,272,44160,5,0
232,184,44910,1,0
184,184,45160,1,0
72,80,45910,1,0
72,80,46160,1,0
72,80,46410,2,0,B|184:104,2,110,4|0|4
48,176,47910,5,0
80,208,48160,1,0
160,264,48660,1,0
256,264,49160,1,0
296,232,49410,1,0
344,232,49660,1,0
392,232,49910,1,0
392,184,50160,2,0,B|390:64|216:80,1,220
104,160,51910,5,0
104,160,52160,1,0
200,128,52660,1,0
296,128,53160,1,0
336,160,53410,1,0
328,208,53660,1,0
280,232,53910,1,4
256,192,54160,12,4,55660
480,272,58660,5,0
440,240,58910,1,0
400,208,59160,1,0
400,160,59410,1,0
360,128,59660,1,0
312,128,59910,1,0
264,128,60160,2,0,B|257:224|136:248,1,165
161,242,61160,2,4,B|95:242|65:178,1,110
232,72,62660,5,0
208,112,62910,1,0
240,144,63160,2,0,B|284:109|336:128,1,82.5
352,184,63910,1,0
336,232,64159,2,0,B|312:288,3,55
64,280,66160,5,0
184,184,66910,1,4
216,152,67160,1,4
368,120,67910,1,0
416,136,68160,1,0
432,184,68410,1,0
336,192,68910,2,0,B|293:227|248:185|168:200,1,165,0|4
176,248,69910,5,0
136,280,70160,1,0
40,280,70660,1,0
40,192,71160,1,0
40,144,71410,1,0
72,104,71660,1,0
104,64,71910,1,0
144,96,72160,2,0,B|195:179|352:112,1,220,0|4
480,64,73910,5,0
440,88,74160,1,0
424,184,74660,1,0
400,280,75160,2,0,B|383:309|344:304,2,55
304,240,76160,1,0
256,192,76410,12,4,77660
384,256,80160,5,4
296,136,80910,5,4
200,136,81410,5,4
248,136,81660,1,4
168,192,82160,5,4
