osu file format v12

[General]
AudioFilename: BRYNHILDR IN THE DARKNESS.mp3
AudioLeadIn: 1500
PreviewTime: 56225
Countdown: 0
SampleSet: Soft
StackLeniency: 0.7
Mode: 0
LetterboxInBreaks: 0
WidescreenStoryboard: 0

[Editor]
DistanceSpacing: 1.2
BeatDivisor: 2
GridSize: 8
TimelineZoom: 1.5

[Metadata]
Title:BRYNHILDR IN THE DARKNESS -Ver. EJECTED-
TitleUnicode:BRYNHILDR IN THE DARKNESS -Ver. EJECTED-
Artist:Tokisawa Nao
ArtistUnicode:鴇沢直
Creator:wcx19911123
Version:Normal
Source:極黒のブリュンヒルデ
Tags:Gokukoku no Buryunhirude opening
BeatmapID:415913
BeatmapSetID:164075

[Difficulty]
HPDrainRate:4
CircleSize:4
OverallDifficulty:4
ApproachRate:5
SliderMultiplier:1.12
SliderTickRate:1

[Events]
//Background and Video events
Video,-170,"video.avi"
0,0,"Brynhildr.jpg",0,0
//Break Periods
//Storyboard Layer 0 (Background)
//Storyboard Layer 1 (Fail)
//Storyboard Layer 2 (Pass)
//Storyboard Layer 3 (Foreground)
//Storyboard Sound Samples
//Background Colour Transformations
3,100,163,162,255

[TimingPoints]
293,303.030303030303,4,2,1,35,1,0
293,-133.333333333333,4,2,1,35,0,0
596,-133.333333333333,4,2,1,45,0,0
2717,-133.333333333333,4,2,1,55,0,0
5141,-133.333333333333,4,2,1,80,0,0
5444,-133.333333333333,4,2,1,65,0,0
7565,-133.333333333333,4,2,1,40,0,0
7717,-133.333333333333,4,2,1,65,0,0
8694,303.030303030303,4,2,1,65,1,0
10004,275.330396475771,4,2,2,85,1,0
18814,-100,4,2,1,85,0,0
19089,-100,4,2,2,85,0,0
25835,-100,4,2,2,65,0,0
25973,-100,4,2,2,85,0,0
26523,-100,4,2,3,90,0,0
27074,-100,4,2,2,85,0,0
27625,-100,4,2,1,85,0,0
27900,-100,4,2,2,85,0,0
28588,-100,4,2,1,65,0,0
28726,-100,4,1,2,85,0,0
28864,-100,4,2,2,85,0,0
30791,-100,4,2,1,65,0,0
30929,-100,4,1,2,85,0,0
31066,-100,4,2,2,85,0,0
32994,-100,4,2,1,65,0,0
33131,-100,4,1,2,85,0,0
33269,-100,4,2,2,85,0,0
35334,-100,4,2,2,65,0,0
35885,-100,4,2,2,85,0,0
36435,-100,4,2,1,85,0,0
36711,-100,4,2,2,85,0,0
37399,-100,4,2,1,65,0,0
37537,-100,4,1,2,85,0,0
37674,-100,4,2,2,85,0,0
39602,-100,4,2,1,65,0,0
39739,-100,4,1,2,85,0,0
39877,-100,4,2,2,85,0,0
41804,-100,4,2,1,65,0,0
41942,-100,4,1,2,85,0,0
42079,-100,4,2,2,85,0,0
43869,-100,4,2,1,65,0,0
44144,-100,4,2,2,85,0,0
44695,-114.942528735632,4,2,2,85,0,0
45246,-133.333333333333,4,2,1,40,0,0
46347,-133.333333333333,4,2,1,65,0,0
49651,-114.942528735632,4,2,1,70,0,0
51854,-114.942528735632,4,2,1,75,0,0
54056,-100,4,2,1,75,0,0
54607,-100,4,2,2,60,0,0
55158,-100,4,2,1,75,0,0
56259,-100,4,2,2,75,0,1
56534,-100,4,2,2,85,0,1
56810,-100,4,2,1,75,0,1
57223,-100,4,2,2,85,0,1
57911,-100,4,2,1,75,0,1
58049,-100,4,2,2,85,0,1
59288,-100,4,2,1,75,0,1
59425,-100,4,2,2,85,0,1
60251,-100,4,2,1,75,0,1
60389,-100,4,2,2,85,0,1
60527,-100,4,2,1,75,0,1
60664,-100,4,2,2,85,0,1
61490,-100,4,2,1,75,0,1
61766,-100,4,2,2,85,0,1
62316,-100,4,2,2,95,0,1
62592,-100,4,2,1,75,0,1
62867,-90.9090909090909,4,2,2,95,0,1
63418,-83.3333333333333,4,2,2,95,0,1
63693,-83.3333333333333,4,2,1,85,0,1
63968,-76.9230769230769,4,2,2,95,0,1
64519,-100,4,2,2,85,0,1
64794,-100,4,2,1,85,0,1
65070,-100,4,2,2,85,0,1
65896,-100,4,2,1,80,0,1
66171,-100,4,2,2,85,0,1
66928,-100,4,2,1,80,0,1
67135,-100,4,2,2,85,0,1
67548,-100,4,2,1,70,0,1
67823,-90.9090909090909,4,2,2,85,0,1
68098,-90.9090909090909,4,2,1,70,0,1
68374,-83.3333333333333,4,2,2,90,0,1
68649,-83.3333333333333,4,2,1,80,0,1
68924,-76.9230769230769,4,2,2,90,0,1
69200,-76.9230769230769,4,2,1,80,0,1
69475,-100,4,2,2,95,0,1
70439,-100,4,2,1,80,0,1
70576,-100,4,1,2,95,0,1
70714,-100,4,2,2,95,0,1
71265,-100,4,2,1,80,0,1
71402,-100,4,2,2,95,0,1
71953,-100,4,2,1,80,0,1
72228,-100,4,2,2,95,0,1
72504,-100,4,2,1,80,0,1
72779,-100,4,2,2,95,0,1
73811,-100,4,2,2,95,0,0
73880,-100,4,2,1,90,0,1
74155,-100,4,2,1,80,0,1
74431,-100,4,2,2,95,0,1
74706,-100,4,2,1,80,0,1
74844,-100,4,2,2,95,0,1
74981,-100,4,1,2,95,0,1
75119,-100,4,2,2,95,0,1
75257,-100,4,2,1,80,0,1
75532,-100,4,2,2,95,0,1
75670,-100,4,2,1,80,0,1
75807,-100,4,2,2,95,0,1
75945,-100,4,2,1,80,0,1
76083,-90.9090909090909,4,2,1,95,0,1
76358,-90.9090909090909,4,2,1,80,0,1
76633,-90.9090909090909,4,2,2,95,0,1
76909,-90.9090909090909,4,2,1,80,0,1
77046,-90.9090909090909,4,2,2,95,0,1
77184,-90.9090909090909,4,1,2,95,0,1
77322,-90.9090909090909,4,2,2,95,0,1
77459,-90.9090909090909,4,2,1,80,0,1
77735,-90.9090909090909,4,2,2,95,0,1
77872,-90.9090909090909,4,2,1,80,0,1
78010,-90.9090909090909,4,2,2,95,0,1
78148,-90.9090909090909,4,2,1,80,0,1
78285,-83.3333333333333,4,2,1,95,0,1
78561,-83.3333333333333,4,2,1,90,0,1
78836,-83.3333333333333,4,2,2,100,0,1
79111,-83.3333333333333,4,2,1,90,0,1
79249,-83.3333333333333,4,2,2,100,0,1
79387,-83.3333333333333,4,1,2,100,0,1
79524,-83.3333333333333,4,2,2,100,0,1
79662,-83.3333333333333,4,2,1,90,0,1
79937,-83.3333333333333,4,2,2,100,0,1
80075,-83.3333333333333,4,2,1,90,0,1
80213,-83.3333333333333,4,2,2,100,0,1
80350,-83.3333333333333,4,2,1,90,0,1
80488,-76.9230769230769,4,2,1,100,0,1
80763,-76.9230769230769,4,2,1,90,0,1
81039,-76.9230769230769,4,2,2,100,0,1
81314,-76.9230769230769,4,2,1,90,0,1
81452,-76.9230769230769,4,2,2,100,0,1
81589,-76.9230769230769,4,1,2,100,0,1
81727,-76.9230769230769,4,2,2,100,0,1
81865,-76.9230769230769,4,2,1,90,0,1
82140,-76.9230769230769,4,2,2,100,0,1
82278,-76.9230769230769,4,2,1,90,0,1
82691,-76.9230769230769,4,2,2,100,0,1
87096,-76.9230769230769,4,2,2,5,0,0

[Colours]
Combo1 : 129,0,198
Combo2 : 251,19,19
Combo3 : 235,218,5
Combo4 : 19,213,253

[HitObjects]
152,80,293,6,0,P|128:104|104:160,1,84.0000032043458,2|0,0:1|0:0,0:0:0:0:
112,232,899,1,0,0:0:0:0:
168,296,1202,1,0,0:0:0:0:
192,216,1505,2,0,P|216:184|256:160,1,84.0000032043458
336,152,2111,1,0,0:0:0:0:
416,176,2414,1,0,0:0:0:0:
440,256,2717,6,0,P|384:288|328:288,1,84.0000032043458,2|0,0:0|0:0,0:0:0:0:
280,296,3323,1,0,0:0:0:0:
208,252,3626,1,0,0:0:0:0:
280,208,3929,2,0,P|288:160|272:112,1,84.0000032043458
216,72,4535,1,0,0:0:0:0:
216,72,4686,2,0,B|200:64|200:64|152:72|152:72|136:64,1,84.0000032043458
108,48,5141,6,0,P|64:56|32:88,1,84.0000032043458,2|0,0:1|0:0,0:0:0:0:
56,108,5596,2,0,B|80:140|80:140|56:184,1,84.0000032043458
40,208,6050,1,0,0:0:0:0:
96,272,6353,2,0,B|120:256|120:256|168:288,1,84.0000032043458,2|0,0:0|0:0,0:0:0:0:
240,328,6959,2,0,L|280:356,2,42.0000016021729
236,244,7565,5,4,0:1:0:0:
236,244,7717,2,0,B|232:216|256:192|256:192|256:160,1,84.0000032043458,2|0,0:0|0:0,0:0:0:0:
256,136,8171,2,0,P|280:80|360:40,1,145,0|2,0:0|0:0,0:0:0:0:
256,192,8845,12,6,10004,0:0:0:0:
336,208,10279,5,0,0:0:0:0:
280,112,10554,2,0,P|224:96|120:152,1,168
104,176,11105,1,12,0:0:0:0:
328,216,11655,1,0,0:0:0:0:
272,120,11931,1,0,0:0:0:0:
384,120,12206,5,2,0:0:0:0:
440,216,12481,1,0,0:0:0:0:
384,312,12757,2,0,P|304:328|224:280,1,168
216,248,13307,1,12,0:0:0:0:
392,112,13858,1,0,0:0:0:0:
448,208,14133,1,0,0:0:0:0:
336,208,14409,5,2,0:0:0:0:
280,112,14684,1,0,0:0:0:0:
168,96,14959,2,0,P|128:128|104:240,1,168
120,280,15510,1,12,0:0:0:0:
336,224,16061,1,0,0:0:0:0:
280,128,16336,1,0,0:0:0:0:
224,224,16611,6,0,P|168:248|112:240,1,112,2|0,0:0|0:0,0:0:0:0:
48,152,17162,2,0,P|104:128|160:136,1,112,8|0,0:0|0:0,0:0:0:0:
240,200,17713,1,8,0:0:0:0:
240,200,17850,2,0,B|352:224|352:224|400:200,1,168,8|8,0:0|0:0,0:0:0:0:
504,152,18539,1,0,0:0:0:0:
416,80,18814,5,4,0:0:0:0:
304,88,19089,1,0,0:0:0:0:
192,96,19365,2,0,B|192:152|192:152|272:232,1,168
304,264,19915,1,12,0:0:0:0:
424,72,20466,1,0,0:0:0:0:
312,80,20741,1,0,0:0:0:0:
376,176,21017,5,2,0:0:0:0:
280,232,21292,1,0,0:0:0:0:
184,288,21567,2,0,B|208:336|208:336|328:368,1,168
364,376,22118,1,12,0:0:0:0:
384,152,22669,1,0,0:0:0:0:
288,208,22944,1,0,0:0:0:0:
248,104,23219,5,2,0:0:0:0:
152,160,23495,1,0,0:0:0:0:
56,216,23770,2,0,B|128:296|128:296|192:312,1,168
224,288,24321,2,0,P|280:272|336:288,1,112,12|0,0:0|0:0,0:0:0:0:
368,312,24734,2,0,P|424:328|480:312,1,112,8|0,0:1|0:0,0:0:0:0:
504,280,25147,1,8,0:1:0:0:
424,200,25422,5,8,0:0:0:0:
424,200,25560,2,0,P|416:128|432:88,1,112,8|8,0:1|0:0,0:0:0:0:
464,64,25973,2,0,L|352:88,1,112,8|0,0:0|0:0,0:0:0:0:
244,108,26523,1,2,0:0:0:0:
36,28,27074,2,0,B|44:44|44:44|44:52|44:52|52:68|52:68|48:84|48:84|56:100|56:100|56:120|56:120|64:132,1,112
96,240,27625,6,0,P|144:272|200:272,1,112,4|0,0:0|0:0,0:0:0:0:
288,208,28175,1,8,0:0:0:0:
288,208,28313,1,0,0:0:0:0:
376,136,28588,2,0,P|432:144|480:192,1,112,2|0,0:0|0:0,0:0:0:0:
488,224,29001,1,0,0:0:0:0:
420,312,29277,2,0,L|380:360,2,56,8|0|0,0:0|0:0|0:0,0:0:0:0:
368,216,29827,6,0,P|312:200|256:216,1,112,2|0,0:0|0:0,0:0:0:0:
176,288,30378,1,8,0:0:0:0:
176,288,30516,1,0,0:0:0:0:
160,176,30791,2,0,L|144:64,1,112,2|0,0:0|0:0,0:0:0:0:
136,20,31204,1,0,0:0:0:0:
232,80,31479,2,0,P|288:88|344:64,1,112,12|0,0:0|0:0,0:0:0:0:
448,96,32030,6,0,B|472:128|472:128|456:200,1,112,2|0,0:0|0:0,0:0:0:0:
428,308,32581,1,8,0:0:0:0:
428,308,32718,1,0,0:0:0:0:
352,224,32994,2,0,P|296:208|224:232,1,112,2|0,0:0|0:0,0:0:0:0:
208,248,33407,1,0,0:0:0:0:
136,336,33682,2,0,P|80:336|24:296,1,112,8|0,0:0|0:0,0:0:0:0:
0,200,34233,6,0,L|24:88,1,112,2|0,0:0|0:0,0:0:0:0:
128,48,34783,2,0,L|104:160,1,112,8|0,0:0|0:0,0:0:0:0:
84,268,35334,1,0,0:0:0:0:
176,200,35609,1,0,0:0:0:0:
288,200,35885,1,8,0:0:0:0:
288,200,36022,1,8,0:0:0:0:
288,200,36160,1,8,0:0:0:0:
376,272,36435,6,0,P|432:272|480:232,1,112,4|0,0:0|0:0,0:0:0:0:
496,128,36986,1,8,0:0:0:0:
496,128,37124,1,0,0:0:0:0:
400,72,37399,2,0,B|360:48|360:48|288:64,1,112,2|0,0:0|0:0,0:0:0:0:
252,72,37812,1,0,0:0:0:0:
176,152,38087,2,0,L|104:168,2,56,8|0|0,0:0|0:0|0:0,0:0:0:0:
288,184,38638,6,0,P|336:224|344:288,1,112,2|0,0:0|0:0,0:0:0:0:
304,376,39189,1,8,0:0:0:0:
304,376,39326,1,0,0:0:0:0:
232,288,39602,2,0,P|184:272|104:296,1,112,2|0,0:0|0:0,0:0:0:0:
88,312,40015,1,0,0:0:0:0:
72,200,40290,2,0,L|56:88,1,112,12|0,0:0|0:0,0:0:0:0:
152,32,40841,6,0,L|168:144,1,112,2|0,0:0|0:0,0:0:0:0:
188,252,41391,1,8,0:0:0:0:
188,252,41529,1,0,0:0:0:0:
280,320,41804,2,0,P|328:328|392:296,1,112,2|0,0:0|0:0,0:0:0:0:
408,264,42217,1,0,0:0:0:0:
440,160,42492,2,0,B|384:152|384:152|352:96,1,112,8|0,0:0|0:0,0:0:0:0:
256,56,43043,6,0,L|200:32,2,56,2|0|0,0:0|0:0|0:0,0:0:0:0:
264,168,43594,2,0,L|216:200,2,56,8|0|2,0:0|0:0|0:0,0:0:0:0:
356,104,44144,1,8,0:0:0:0:
356,104,44282,1,8,0:0:0:0:
360,264,44695,1,8,0:0:0:0:
360,264,44833,2,0,P|321:308|224:328,1,146.160001226624,8|4,0:0|0:1,0:0:0:0:
48,176,46347,6,0,P|72:112|160:56,1,168.000006408692
320,72,47448,2,0,P|296:136|208:192,1,168.000006408692,2|0,0:0|0:0,0:0:0:0:
132,204,48274,1,0,0:0:0:0:
184,272,48550,2,0,P|232:296|344:288,1,168.000006408692,0|0,0:0|0:0,0:0:0:0:
400,224,49376,1,0,0:0:0:0:
316,208,49651,6,0,P|288:164|292:112,1,97.440000817749,2|0,0:0|0:0,0:0:0:0:
303,36,50202,2,0,P|342:52|372:144,2,146.160001226624,0|0|0,0:0|0:0|0:0,0:0:0:0:
240,112,51303,2,0,P|184:128|136:120,1,97.440000817749
64,72,51854,5,2,0:0:0:0:
64,168,52129,1,0,0:0:0:0:
64,264,52404,2,0,B|64:328|64:328|88:360,1,97.440000817749
180,364,52955,2,0,L|252:372,2,48.7200004088745,2|0|0,0:0|0:0|0:0,0:0:0:0:
216,272,53506,2,0,L|288:280,1,48.7200004088745,2|0,0:0|0:0,0:0:0:0:
296,304,53781,2,0,L|368:312,1,48.7200004088745
376,336,54056,6,0,B|408:336|424:352|424:352|440:344|440:344|488:352|480:312|480:312|460:300|456:272|456:272|464:256|464:232,1,224,4|8,0:1|0:0,0:0:0:0:
424,128,54882,1,8,0:0:0:0:
328,184,55158,2,0,B|304:200|304:200|288:192|288:192|264:200|248:184|248:184|228:184|216:200|216:200|192:200|176:212,1,168,2|0,0:0|0:0,0:0:0:0:
136,232,55708,2,0,B|112:232|96:216|96:216|64:224|48:208|48:208|52:192|48:176|48:176|64:160|64:136,1,168
48,96,56259,5,4,1:0:0:0:
144,40,56534,1,0,0:0:0:0:
256,56,56810,2,0,P|296:104|296:208,1,168,2|0,0:0|0:0,0:0:0:0:
272,240,57360,1,12,0:0:0:0:
168,280,57636,1,0,0:0:0:0:
64,320,57911,2,0,L|8:296,2,56,2|0|0,0:0|0:0|0:0,0:0:0:0:
168,368,58462,5,2,0:0:0:0:
280,360,58737,1,0,0:0:0:0:
376,304,59012,2,0,P|400:248|392:200,1,112,8|2,0:0|0:0,0:0:0:0:
364,164,59425,1,0,0:0:0:0:
324,144,59563,2,0,P|268:144|220:176,1,112,2|8,0:0|0:0,0:0:0:0:
168,272,60114,2,0,L|88:264,1,56,2|2,0:0|0:0,0:0:0:0:
72,288,60389,2,0,L|40:240,1,56,0|2,0:0|0:0,0:0:0:0:
0,224,60664,6,0,B|-4:208|-4:208|8:200|8:200|8:184|24:168|24:168|32:168|32:168|40:144|56:136,1,112,2|0,0:0|0:0,0:0:0:0:
160,104,61215,1,8,0:0:0:0:
264,152,61490,2,0,L|320:136,1,56,2|2,0:0|0:0,0:0:0:0:
360,128,61766,2,0,P|416:144|456:192,1,112,2|0,0:0|0:0,0:0:0:0:
416,288,62316,2,0,P|344:280|296:304,1,112,8|2,0:0|0:0,0:0:0:0:
280,176,62867,6,0,B|248:208|248:208|168:216,1,123.200003759766,2|8,0:0|0:0,0:0:0:0:
224,336,63418,2,0,B|176:288|152:320|104:272,1,134.399995898438,2|2,0:0|0:0,0:0:0:0:
152,136,63968,2,0,P|80:144|24:192,1,145.599993334961,2|8,0:0|0:0,0:0:0:0:
16,304,64519,1,2,0:0:0:0:
112,360,64794,1,2,0:0:0:0:
208,304,65070,6,0,L|192:192,1,112,2|0,0:0|0:0,0:0:0:0:
232,88,65620,2,0,P|288:64|344:72,1,112,12|2,0:0|0:0,0:0:0:0:
424,144,66171,1,2,0:0:0:0:
448,256,66446,1,8,0:0:0:0:
376,344,66722,2,0,P|408:364|464:368,2,84,2|2|0,0:0|0:0|0:0,0:0:0:0:
344,312,67272,6,0,P|296:296|240:320,1,112,2|2,0:0|0:0,0:0:0:0:
288,208,67823,2,0,P|216:232|184:280,1,123.200003759766,8|2,0:0|0:0,0:0:0:0:
172,136,68374,2,0,P|132:192|116:256,1,134.399995898438,2|2,0:0|0:0,0:0:0:0:
40,128,68924,2,0,P|36:200|44:276,1,145.599993334961,8|2,0:0|0:0,0:0:0:0:
88,376,69475,5,2,0:0:0:0:
160,288,69750,1,0,0:0:0:0:
264,248,70026,2,0,P|320:248|376:280,1,112,8|0,0:0|0:0,0:0:0:0:
400,304,70439,2,0,L|384:192,1,112,2|0,0:0|0:0,0:0:0:0:
376,148,70852,1,0,0:0:0:0:
464,80,71127,2,0,L|512:40,2,56,8|2|0,0:0|0:0|0:0,0:0:0:0:
376,148,71678,6,0,P|336:152|264:120,1,112,8|2,0:0|0:0,0:0:0:0:
208,32,72228,1,8,0:0:0:0:
96,56,72504,1,2,0:0:0:0:
16,136,72779,2,0,P|8:200|32:248,1,112,2|8,0:0|0:0,0:0:0:0:
120,304,73329,1,8,0:0:0:0:
120,304,73467,2,0,B|152:320|152:320|232:312,1,112,8|0,0:0|0:0,0:0:0:0:
272,304,73880,5,4,0:0:0:0:
384,320,74155,1,2,0:0:0:0:
472,256,74431,2,0,L|456:144,1,112,8|2,0:0|0:0,0:0:0:0:
432,192,74844,2,0,L|416:80,1,112
408,40,75257,1,2,0:0:0:0:
352,136,75532,2,0,P|320:160|288:168,1,56,8|2,0:0|0:0,0:0:0:0:
260,172,75807,2,0,P|228:172|188:156,1,56,0|2,0:0|0:0,0:0:0:0:
168,140,76083,6,0,B|128:120|88:144|88:144|96:168|88:184,1,123.200003759766,4|2,0:0|0:0,0:0:0:0:
8,256,76633,2,0,P|56:288|120:288,1,123.200003759766,8|2,0:0|0:0,0:0:0:0:
80,320,77046,2,0,P|128:352|192:352,1,123.200003759766
232,336,77459,1,2,0:0:0:0:
264,232,77735,2,0,L|280:168,1,61.6000018798829,12|2,0:0|0:0,0:0:0:0:
320,160,78010,2,0,L|336:96,1,61.6000018798829,0|2,0:0|0:0,0:0:0:0:
376,88,78285,6,0,B|400:56|400:56|456:136,1,134.399995898438,4|2,0:0|0:0,0:0:0:0:
512,224,78836,1,8,0:0:0:0:
416,264,79111,1,2,0:0:0:0:
416,264,79249,2,0,B|328:304|328:304|280:296,1,134.399995898438
248,288,79662,1,2,0:0:0:0:
248,184,79937,2,0,P|232:144|200:120,1,67.1999979492188,8|2,0:0|0:0,0:0:0:0:
176,112,80213,2,0,P|120:112|104:120,1,67.1999979492188,0|2,0:0|0:0,0:0:0:0:
76,140,80488,6,0,P|52:188|84:276,1,145.599993334961,4|2,0:0|0:0,0:0:0:0:
184,312,81039,2,0,L|328:296,1,145.599993334961,8|2,0:0|0:0,0:0:0:0:
280,264,81452,2,0,L|424:248,1,145.599993334961
468,244,81865,1,2,0:0:0:0:
472,128,82140,2,0,P|456:88|424:64,1,72.7999966674806,8|2,0:0|0:0,0:0:0:0:
392,52,82415,2,0,P|340:52|304:76,1,72.7999966674806,2|2,0:0|0:0,0:0:0:0:
296,96,82691,1,4,1:0:0:0:
256,192,82828,12,0,87096,0:0:0:0:
