osu file format v12

[General]
AudioFilename: BRYNHILDR IN THE DARKNESS.mp3
AudioLeadIn: 1500
PreviewTime: 56225
Countdown: 0
SampleSet: Soft
StackLeniency: 0.7
Mode: 0
LetterboxInBreaks: 0
WidescreenStoryboard: 0

[Editor]
DistanceSpacing: 1
BeatDivisor: 4
GridSize: 8
TimelineZoom: 1.5

[Metadata]
Title:BRYNHILDR IN THE DARKNESS -Ver. EJECTED-
TitleUnicode:BRYNHILDR IN THE DARKNESS -Ver. EJECTED-
Artist:Tokisawa Nao
ArtistUnicode:鴇沢直
Creator:wcx19911123
Version:Hard
Source:極黒のブリュンヒルデ
Tags:Gokukoku no Buryunhirude opening
BeatmapID:412854
BeatmapSetID:164075

[Difficulty]
HPDrainRate:6
CircleSize:4
OverallDifficulty:6
ApproachRate:8
SliderMultiplier:1.6
SliderTickRate:1

[Events]
//Background and Video events
Video,-170,"video.avi"
0,0,"Brynhildr.jpg",0,0
//Break Periods
//Storyboard Layer 0 (Background)
//Storyboard Layer 1 (Fail)
//Storyboard Layer 2 (Pass)
//Storyboard Layer 3 (Foreground)
//Storyboard Sound Samples
//Background Colour Transformations
3,100,163,162,255

[TimingPoints]
293,303.030303030303,4,2,1,35,1,0
293,-200,4,2,1,35,0,0
444,-200,4,2,1,45,0,0
2717,-166.666666666667,4,2,1,55,0,0
5141,-142.857142857143,4,2,1,80,0,0
5292,-142.857142857143,4,2,1,65,0,0
7565,-125,4,2,1,40,0,0
7717,-125,4,2,1,65,0,0
8694,303.030303030303,4,2,1,65,1,0
10004,275.330396475771,4,2,2,85,1,0
18814,-100,4,2,1,85,0,0
19915,-100,4,2,2,85,0,0
21843,-100,4,2,1,85,0,0
21980,-100,4,2,2,85,0,0
24045,-100,4,2,1,85,0,0
24183,-100,4,2,2,85,0,0
25835,-100,4,2,2,65,0,0
25973,-100,4,2,2,85,0,0
26523,-100,4,2,3,90,0,0
26661,-100,4,2,2,85,0,0
27625,-100,4,2,1,85,0,0
27900,-100,4,2,2,85,0,0
28588,-100,4,2,1,65,0,0
28726,-100,4,1,2,85,0,0
28864,-100,4,2,2,85,0,0
30791,-100,4,2,1,65,0,0
30929,-100,4,1,2,85,0,0
31066,-100,4,2,2,85,0,0
32994,-100,4,2,1,65,0,0
33131,-100,4,1,2,85,0,0
33269,-100,4,2,2,85,0,0
35334,-100,4,2,2,65,0,0
35885,-100,4,2,2,85,0,0
36435,-100,4,2,1,85,0,0
36711,-100,4,2,2,85,0,0
37399,-100,4,2,1,65,0,0
37537,-100,4,1,2,85,0,0
37674,-100,4,2,2,85,0,0
39602,-100,4,2,1,65,0,0
39739,-100,4,1,2,85,0,0
39877,-100,4,2,2,85,0,0
41804,-100,4,2,1,65,0,0
41942,-100,4,1,2,85,0,0
42079,-100,4,2,2,85,0,0
45246,-100,4,2,1,40,0,0
46072,-200,4,2,1,65,0,0
48550,-133.333333333333,4,2,1,65,0,0
49651,-133.333333333333,4,2,1,70,0,0
51854,-100,4,2,1,75,0,0
54607,-100,4,2,2,60,0,0
55020,-100,4,2,1,75,0,0
56259,-100,4,2,2,75,0,1
56534,-100,4,2,2,85,0,1
56947,-100,4,2,1,75,0,1
57085,-100,4,2,2,85,0,1
58049,-100,4,2,1,75,0,1
58186,-100,4,2,2,85,0,1
59150,-100,4,2,1,75,0,1
59288,-100,4,2,2,85,0,1
60251,-100,4,2,1,75,0,1
60389,-100,4,2,2,85,0,1
60527,-100,4,2,1,75,0,1
60664,-100,4,2,2,85,0,1
61490,-100,4,2,1,75,0,1
61766,-100,4,2,2,85,0,1
62316,-100,4,2,2,95,0,1
62592,-100,4,2,1,75,0,1
62867,-83.3333333333333,4,2,2,95,0,1
63418,-71.4285714285714,4,2,2,95,0,1
63693,-71.4285714285714,4,2,1,85,0,1
63968,-62.5,4,2,2,95,0,1
64244,-62.5,4,2,2,85,0,1
64519,-71.4285714285714,4,2,2,85,0,1
64794,-71.4285714285714,4,2,1,85,0,1
64863,-71.4285714285714,4,2,2,85,0,1
65070,-62.5,4,2,2,85,0,1
65620,-83.3333333333333,4,2,2,85,0,1
66033,-100,4,2,1,80,0,1
66171,-100,4,2,2,85,0,1
66584,-100,4,2,1,80,0,1
66722,-100,4,2,2,85,0,1
67548,-100,4,2,1,70,0,1
67685,-100,4,2,2,85,0,1
67823,-90.9090909090909,4,2,2,85,0,1
68098,-90.9090909090909,4,2,1,70,0,1
68236,-90.9090909090909,4,2,2,85,0,1
68374,-83.3333333333333,4,2,2,90,0,1
68649,-83.3333333333333,4,2,1,80,0,1
68787,-83.3333333333333,4,2,2,90,0,1
68924,-76.9230769230769,4,2,2,90,0,1
69200,-76.9230769230769,4,2,1,80,0,1
69337,-76.9230769230769,4,2,2,90,0,1
69475,-100,4,2,2,95,0,1
70439,-100,4,2,1,80,0,1
70576,-100,4,1,2,95,0,1
70714,-100,4,2,2,95,0,1
71265,-100,4,2,1,80,0,1
71402,-100,4,2,2,95,0,1
71953,-100,4,2,1,80,0,1
72091,-100,4,2,2,95,0,1
72504,-100,4,2,1,80,0,1
72641,-100,4,2,2,95,0,1
73811,-100,4,2,2,95,0,0
73880,-100,4,2,1,90,0,1
74155,-100,4,2,2,95,0,1
74293,-100,4,2,1,80,0,1
74431,-100,4,2,2,95,0,1
74706,-100,4,2,1,80,0,1
74844,-100,4,2,2,95,0,1
75119,-100,4,2,1,80,0,1
75257,-100,4,2,2,95,0,1
75670,-100,4,2,1,80,0,1
75807,-100,4,2,2,95,0,1
75945,-100,4,2,1,80,0,1
76083,-90.9090909090909,4,2,1,95,0,1
76358,-90.9090909090909,4,2,2,95,0,1
76496,-90.9090909090909,4,2,1,80,0,1
76633,-90.9090909090909,4,2,2,95,0,1
76909,-90.9090909090909,4,2,1,80,0,1
77046,-90.9090909090909,4,2,2,95,0,1
77322,-90.9090909090909,4,2,1,80,0,1
77459,-90.9090909090909,4,2,2,95,0,1
77872,-90.9090909090909,4,2,1,80,0,1
78010,-90.9090909090909,4,2,2,95,0,1
78148,-90.9090909090909,4,2,1,80,0,1
78217,-90.9090909090909,4,2,2,95,0,1
78285,-83.3333333333333,4,2,1,95,0,1
78561,-83.3333333333333,4,2,2,100,0,1
78698,-83.3333333333333,4,2,1,90,0,1
78836,-83.3333333333333,4,2,2,100,0,1
79111,-83.3333333333333,4,2,1,90,0,1
79249,-83.3333333333333,4,2,2,100,0,1
79524,-83.3333333333333,4,2,1,90,0,1
79662,-83.3333333333333,4,2,2,100,0,1
80075,-83.3333333333333,4,2,1,90,0,1
80213,-83.3333333333333,4,2,2,100,0,1
80350,-83.3333333333333,4,2,1,90,0,1
80488,-76.9230769230769,4,2,1,100,0,1
80763,-76.9230769230769,4,2,2,100,0,1
80901,-76.9230769230769,4,2,1,90,0,1
81039,-76.9230769230769,4,2,2,100,0,1
81314,-76.9230769230769,4,2,1,90,0,1
81452,-76.9230769230769,4,2,2,100,0,1
81727,-76.9230769230769,4,2,1,90,0,1
81865,-76.9230769230769,4,2,2,100,0,1
82278,-76.9230769230769,4,2,1,90,0,1
82691,-76.9230769230769,4,2,2,100,0,1
87096,-76.9230769230769,4,2,2,5,0,0

[Colours]
Combo1 : 129,0,198
Combo2 : 251,19,19
Combo3 : 235,218,5
Combo4 : 19,213,253

[HitObjects]
136,232,293,6,0,L|104:264,2,40,2|0|0,0:1|0:0|0:0,0:0:0:0:
192,176,747,1,0,0:0:0:0:
192,176,899,2,0,L|184:128,2,40
208,256,1353,5,0,0:0:0:0:
208,256,1505,2,0,L|256:272,1,40
304,320,1808,2,0,L|344:312,1,40
376,240,2111,2,0,L|408:208,1,40
472,168,2414,2,0,L|448:128,1,40
400,72,2717,6,0,P|376:56|336:56,2,47.9999985351563,2|0|0,0:0|0:0|0:0,0:0:0:0:
344,128,3171,1,0,0:0:0:0:
344,128,3323,2,0,P|321:123|302:109,2,47.9999985351563
416,152,3777,5,0,0:0:0:0:
416,152,3929,2,0,P|432:184|432:208,1,47.9999985351563
432,276,4232,2,0,P|421:310|404:327,1,47.9999985351563
344,360,4535,1,0,0:0:0:0:
344,280,4686,2,0,B|336:264|336:264|320:264|320:248|320:248|304:240|304:240|304:224|280:216,1,95.9999970703126
148,208,5141,6,0,P|196:208|220:192,1,55.9999982910157,2|0,0:1|0:0,0:0:0:0:
252,144,5444,2,0,L|260:96,2,27.9999991455078
282,217,5747,1,0,0:0:0:0:
232,280,5899,2,0,L|224:328,2,27.9999991455078
202,205,6202,1,0,0:0:0:0:
56,236,6353,6,0,B|48:264|48:264|128:232,1,111.999996582031,2|0,0:0|0:0,0:0:0:0:
202,205,6808,1,0,0:0:0:0:
136,152,6959,2,0,B|144:144|144:144|144:128|152:136|152:136|160:136|160:136|176:120|176:120|200:120|208:96|208:96|224:88,1,111.999996582031
288,56,7414,1,0,0:0:0:0:
368,64,7565,1,4,0:1:0:0:
464,168,7717,6,0,B|456:208|456:208|408:120,1,128,2|0,0:0|0:0,0:0:0:0:
304,104,8171,2,0,L|344:176,1,64
372,228,8474,1,0,0:0:0:0:
256,192,8694,2,0,L|216:176,2,40,2|0|0,0:0|0:0|0:0,0:0:0:0:
256,192,8921,12,6,10004,0:0:0:0:
224,304,10279,5,0,0:0:0:0:
80,184,10554,1,0,0:0:0:0:
152,152,10692,2,0,L|232:120,1,80
300,96,10967,5,0,0:0:0:0:
300,96,11105,2,0,P|332:108|360:144,1,80,12|0,0:0|0:0,0:0:0:0:
288,172,11380,1,0,0:0:0:0:
80,184,11655,1,0,0:0:0:0:
152,152,11793,2,0,L|232:120,1,80
408,56,12206,5,2,0:0:0:0:
432,248,12481,1,0,0:0:0:0:
260,332,12757,1,0,0:0:0:0:
244,252,12894,2,0,L|228:172,1,80
208,96,13170,5,0,0:0:0:0:
208,96,13307,2,0,P|176:76|116:84,1,80,12|0,0:0|0:0,0:0:0:0:
152,152,13583,1,0,0:0:0:0:
260,331,13858,2,0,L|244:251,1,80
300,196,14133,2,0,L|284:116,1,80
408,48,14409,6,0,B|384:72|348:72|348:72|316:32|264:40,1,160,2|0,0:0|0:0,0:0:0:0:
84,112,14959,1,0,0:0:0:0:
152,152,15097,2,0,L|224:192,1,80
292,228,15372,5,0,0:0:0:0:
292,228,15510,2,0,P|304:272|292:312,1,80,12|0,0:0|0:0,0:0:0:0:
224,272,15785,1,0,0:0:0:0:
84,112,16061,1,0,0:0:0:0:
152,152,16198,2,0,L|224:192,1,80
408,280,16611,6,0,L|424:200,1,80,2|0,0:0|0:0,0:0:0:0:
472,136,16887,2,0,L|488:56,1,80
348,28,17162,2,0,L|332:108,1,80,8|0,0:0|0:0,0:0:0:0:
344,188,17437,2,0,L|328:268,1,80
356,344,17713,5,8,0:0:0:0:
356,344,17850,1,8,0:0:0:0:
64,280,18263,2,0,B|88:248|88:248|120:248|120:248|168:232|160:176,1,160,8|0,0:0|0:0,0:0:0:0:
56,16,18814,5,4,0:0:0:0:
240,72,19089,1,0,0:0:0:0:
344,232,19365,1,0,0:0:0:0:
336,312,19502,2,0,P|304:352|248:360,1,80,0|8,0:0|0:0,0:0:0:0:
196,364,19778,5,0,0:0:0:0:
196,364,19915,2,0,P|160:344|136:296,1,80,12|0,0:0|0:0,0:0:0:0:
140,312,20191,1,0,0:0:0:0:
344,232,20466,1,0,0:0:0:0:
336,312,20604,2,0,P|304:352|248:360,1,80
88,368,21017,5,2,0:0:0:0:
120,176,21292,1,0,0:0:0:0:
280,72,21567,1,0,0:0:0:0:
360,64,21705,2,0,P|400:72|432:104,1,80,0|8,0:0|0:0,0:0:0:0:
444,176,21980,5,0,0:0:0:0:
444,176,22118,2,0,P|436:208|404:240,1,80,12|0,0:0|0:0,0:0:0:0:
403,240,22393,1,0,0:0:0:0:
280,72,22669,2,0,P|320:56|368:64,1,80
428,92,22944,2,0,P|444:120|444:168,1,80
320,280,23219,6,0,B|372:276|404:232|404:232|432:248|464:240,1,160,2|0,0:0|0:0,0:0:0:0:
288,152,23770,1,0,0:0:0:0:
216,120,23908,2,0,P|184:120|136:152,1,80,0|8,0:0|0:0,0:0:0:0:
124,220,24183,5,0,0:0:0:0:
124,220,24321,2,0,L|140:300,1,80,12|0,0:0|0:0,0:0:0:0:
200,200,24596,1,0,0:0:0:0:
200,200,24734,2,0,L|216:280,1,80,8|0,0:1|0:0,0:0:0:0:
276,180,25009,1,0,0:0:0:0:
276,180,25147,2,0,L|292:260,1,80,8|0,0:1|0:0,0:0:0:0:
320,384,25422,5,8,0:0:0:0:
352,312,25560,2,0,P|392:288|432:288,2,80,8|0|8,0:1|0:0|0:0,0:0:0:0:
252,288,25973,1,8,0:0:0:0:
204,224,26110,2,0,P|172:208|108:216,2,80
272,144,26523,5,2,0:0:0:0:
352,128,26661,2,0,L|392:120,4,40
248,64,27074,2,0,L|232:8,2,40
192,120,27349,2,0,L|144:104,2,40
352,168,27625,6,0,P|392:216|400:312,1,160,4|0,0:0|0:0,0:0:0:0:
344,368,28038,1,0,0:0:0:0:
264,360,28175,2,0,P|224:336|200:288,1,80,8|0,0:0|0:0,0:0:0:0:
40,152,28588,6,0,B|136:152|136:152|192:120,1,160,2|0,0:0|0:0,0:0:0:0:
256,72,29001,2,0,P|296:56|352:72,1,80
328,208,29277,2,0,P|304:168|304:136,1,80,8|0,0:0|0:0,0:0:0:0:
400,104,29552,1,0,0:0:0:0:
448,288,29827,6,0,L|424:192,1,80,2|0,0:0|0:0,0:0:0:0:
352,288,30103,2,0,P|304:288|264:256,1,80
224,208,30378,1,8,0:0:0:0:
224,208,30516,1,0,0:0:0:0:
24,304,30791,6,0,B|72:280|112:304|112:304|136:336|176:336,1,160,2|0,0:0|0:0,0:0:0:0:
256,248,31204,2,0,L|168:264,1,80
48,216,31479,1,12,0:0:0:0:
24,144,31617,2,0,P|32:104|64:72,2,80
104,144,32030,6,0,L|192:144,1,80,2|0,0:0|0:0,0:0:0:0:
248,192,32305,2,0,L|336:192,1,80
392,240,32581,1,8,0:0:0:0:
392,240,32718,1,0,0:0:0:0:
408,40,32994,6,0,P|440:72|448:184,1,160,2|0,0:0|0:0,0:0:0:0:
392,240,33407,2,0,P|352:256|296:240,1,80
312,108,33682,2,0,P|336:132|344:180,1,80,8|0,0:0|0:0,0:0:0:0:
248,208,33957,1,0,0:0:0:0:
52,120,34233,6,0,P|68:160|116:184,1,80,2|0,0:0|0:0,0:0:0:0:
176,168,34508,2,0,P|160:128|112:104,1,80
148,244,34783,2,0,P|192:248|232:224,1,80,8|0,0:0|0:0,0:0:0:0:
252,156,35059,2,0,P|208:152|168:176,1,80
136,240,35334,5,0,0:0:0:0:
124,236,35609,1,0,0:0:0:0:
176,48,35885,1,8,0:0:0:0:
256,32,36022,1,8,0:0:0:0:
336,48,36160,1,8,0:0:0:0:
472,216,36435,6,0,B|368:152|368:152|320:160,1,160,4|0,0:0|0:0,0:0:0:0:
252,172,36848,1,0,0:0:0:0:
176,192,36986,2,0,L|96:208,1,80,8|0,0:0|0:0,0:0:0:0:
280,360,37399,6,0,P|320:360|416:296,1,160,2|0,0:0|0:0,0:0:0:0:
432,216,37812,2,0,L|440:136,1,80
368,40,38087,2,0,L|360:120,1,80,8|0,0:0|0:0,0:0:0:0:
448,56,38363,1,0,0:0:0:0:
352,200,38638,6,0,P|312:216|264:208,1,80,2|0,0:0|0:0,0:0:0:0:
176,168,38913,2,0,P|224:152|248:120,1,80
256,52,39189,1,8,0:0:0:0:
256,52,39326,1,0,0:0:0:0:
56,88,39602,6,0,B|8:128|24:184|24:184|52:168|80:176,1,160,2|0,0:0|0:0,0:0:0:0:
128,288,40015,2,0,P|88:280|64:248,1,80
144,144,40290,1,12,0:0:0:0:
208,192,40428,2,0,P|216:232|192:288,2,80
216,112,40841,6,0,P|240:88|304:80,1,80,2|0,0:0|0:0,0:0:0:0:
360,104,41116,2,0,P|400:104|440:80,1,80
488,24,41391,1,8,0:0:0:0:
488,24,41529,1,0,0:0:0:0:
456,232,41804,6,0,B|440:344|440:344|480:376,1,160,2|0,0:0|0:0,0:0:0:0:
400,288,42217,2,0,P|360:280|312:296,1,80
240,208,42492,2,0,P|280:216|328:200,1,80,8|0,0:0|0:0,0:0:0:0:
368,144,42768,1,0,0:0:0:0:
176,80,43043,5,2,0:0:0:0:
176,80,43181,1,0,0:0:0:0:
176,80,43318,2,0,L|160:168,1,80
192,304,43594,1,8,0:0:0:0:
192,304,43731,1,0,0:0:0:0:
192,304,43869,2,0,L|208:216,1,80
264,168,44144,5,8,0:0:0:0:
264,168,44282,1,8,0:0:0:0:
112,344,44695,1,8,0:0:0:0:
112,344,44833,2,0,B|132:232|132:232|112:184,1,160,8|0,0:0|0:0,0:0:0:0:
72,120,45246,5,4,0:1:0:0:
384,104,46072,2,0,L|392:48,2,40,0|0|2,0:0|0:0|0:0,0:0:0:0:
288,272,46898,2,0,L|280:328,2,40,0|0|2,0:0|0:0|0:0,0:0:0:0:
280,176,47448,6,0,P|264:144|248:128,3,40
224,112,47999,2,0,P|208:104|168:104,3,40,2|0|0|0,0:0|0:0|0:0|0:0,0:0:0:0:
136,96,48550,6,0,P|112:96|72:116,1,60.0000022888184
40,140,48825,2,0,P|24:180|24:204,1,60.0000022888184
24,244,49100,2,0,P|28:268|64:312,1,60.0000022888184,2|0,0:0|0:0,0:0:0:0:
88,324,49376,2,0,P|128:340|168:336,1,60.0000022888184
208,296,49651,6,0,L|240:232,1,60.0000022888184
256,200,49926,1,0,0:0:0:0:
280,320,50202,2,0,L|312:256,1,60.0000022888184,2|0,0:0|0:0,0:0:0:0:
328,224,50477,1,0,0:0:0:0:
360,184,50615,6,0,P|400:160|472:160,1,120.000004577637
512,184,51028,1,0,0:0:0:0:
408,328,51303,2,0,L|440:264,1,60.0000022888184,2|0,0:0|0:0,0:0:0:0:
456,232,51578,1,0,0:0:0:0:
424,80,51854,6,0,P|376:56|332:64,2,80
440,160,52267,1,0,0:0:0:0:
368,136,52404,2,0,P|328:152|304:192,1,80,2|0,0:0|0:0,0:0:0:0:
280,256,52680,2,0,P|257:288|220:302,1,80,2|0,0:0|0:0,0:0:0:0:
208,224,52955,6,0,L|200:168,2,53.3333333333333
128,236,53230,2,0,L|120:180,2,53.3333333333333
140,316,53506,2,0,P|100:312|56:264,1,80,2|0,0:0|0:0,0:0:0:0:
44,212,53781,2,0,L|28:104,1,80,2|0,0:0|0:0,0:0:0:0:
8,8,54056,6,0,B|32:32|72:24|72:24|72:48|72:48|104:32|136:48|136:48|160:32|192:48|192:48|192:88|216:104,1,280,4|0,0:1|0:0,0:0:0:0:
288,136,54607,2,0,L|368:168,2,80,8|8|8,0:0|0:0|0:0,0:0:0:0:
280,56,55020,1,0,0:0:0:0:
214,102,55158,6,0,B|201:98|201:98|187:109|187:109|172:102|172:102|158:113|158:113|133:109|133:109|119:120,2,100,2|0|0,0:0|0:0|0:0,0:0:0:0:
352,88,55708,2,0,B|432:80|432:80|424:104|424:104|432:120|424:144|424:144|432:160|448:160|448:160|456:192|440:224,1,240
344,320,56259,6,0,P|296:336|184:304,1,160,4|0,1:0|0:0,0:0:0:0:
96,136,56810,1,0,0:0:0:0:
128,64,56947,1,2,0:0:0:0:
176,128,57085,2,0,P|216:144|256:144,1,80
424,144,57360,6,0,B|368:160|328:128|328:128|320:96|296:80,1,160,12|0,0:0|0:0,0:0:0:0:
96,136,57911,1,0,0:0:0:0:
128,64,58049,1,2,0:0:0:0:
176,128,58186,2,0,P|192:184|168:288,1,160,0|2,0:0|0:0,0:0:0:0:
0,368,58737,6,0,L|24:292,1,80
48,216,59012,1,8,0:0:0:0:
100,276,59150,2,0,P|144:280|184:256,2,80,2|0|0,0:0|0:0|0:0,0:0:0:0:
128,200,59563,6,0,P|152:168|200:152,1,80,2|0,0:0|0:0,0:0:0:0:
224,80,59838,2,0,P|256:108|268:144,1,80,8|0,0:0|0:0,0:0:0:0:
264,224,60114,1,2,0:0:0:0:
296,296,60251,1,2,0:0:0:0:
368,328,60389,1,0,0:0:0:0:
448,320,60527,1,2,0:0:0:0:
496,256,60664,6,0,B|504:224|504:224|496:208|496:208|504:176,1,80,2|0,0:0|0:0,0:0:0:0:
480,104,60940,2,0,L|464:56,2,40
416,232,61215,2,0,P|352:240|264:184,1,160,8|2,0:0|0:0,0:0:0:0:
216,136,61628,1,2,0:0:0:0:
144,96,61766,6,0,P|96:112|72:144,1,80,2|0,0:0|0:0,0:0:0:0:
80,216,62041,2,0,P|128:200|152:168,1,80
120,24,62316,2,0,P|64:40|0:120,1,160,8|2,0:0|0:0,0:0:0:0:
216,296,62867,6,0,B|224:336|224:336|72:296,1,191.999994140625,2|8,0:0|0:0,0:0:0:0:
352,112,63418,2,0,B|264:168|224:96|136:160,1,223.999993164063,2|2,0:0|0:0,0:0:0:0:
472,240,63968,6,0,B|420:276|376:240|376:240|288:232,1,192,2|0,0:0|0:0,0:0:0:0:
208,224,64244,1,8,0:0:0:0:
424,184,64519,2,0,P|448:152|440:60,1,111.999996582031,2|0,0:0|0:0,0:0:0:0:
360,16,64794,2,0,L|304:8,2,55.9999982910157,2|0|0,0:0|0:0|0:0,0:0:0:0:
248,88,65070,6,0,B|224:120|224:120|200:104|176:112|176:112|160:152,1,128,2|0,0:0|0:0,0:0:0:0:
216,256,65345,2,0,B|232:224|232:224|264:216|264:216|264:184|288:160,1,128
128,32,65620,2,0,L|48:224,1,191.999994140625,12|0,0:0|0:0,0:0:0:0:
32,288,66033,1,2,0:0:0:0:
96,336,66171,6,0,P|136:344|192:328,1,80,2|0,0:0|0:0,0:0:0:0:
344,320,66446,2,0,P|296:312|264:280,1,80,8|2,0:0|0:0,0:0:0:0:
232,184,66722,2,0,B|240:152|240:152|264:144|272:128|272:128|264:104|272:80,2,120,2|0|0,0:0|0:0|0:0,0:0:0:0:
376,32,67272,6,0,P|408:16|464:24,2,80,2|0|2,0:0|0:0|0:0,0:0:0:0:
344,104,67685,1,0,0:0:0:0:
432,120,67823,2,0,P|480:152|496:200,2,88.000002685547,8|0|2,0:0|0:0|0:0,0:0:0:0:
344,112,68236,1,0,0:0:0:0:
384,200,68374,6,0,P|392:248|384:304,2,95.9999970703126,2|0|2,0:0|0:0|0:0,0:0:0:0:
340,120,68787,1,0,0:0:0:0:
296,208,68924,2,0,P|256:264|200:312,2,103.999995239258,8|0|2,0:0|0:0|0:0,0:0:0:0:
336,128,69337,1,0,0:0:0:0:
264,40,69475,6,0,P|224:32|176:48,1,80,2|0,0:0|0:0,0:0:0:0:
128,96,69750,1,0,0:0:0:0:
128,96,69888,1,0,0:0:0:0:
204,120,70026,2,0,P|228:152|228:216,1,80,8|0,0:0|0:0,0:0:0:0:
200,264,70301,1,0,0:0:0:0:
104,336,70439,6,0,B|136:352|176:340|176:340|220:352|256:320,1,160,2|0,0:0|0:0,0:0:0:0:
280,244,70852,1,0,0:0:0:0:
280,244,70989,1,0,0:0:0:0:
256,168,71127,2,0,P|256:128|280:88,1,80,8|2,0:0|0:0,0:0:0:0:
344,56,71402,1,0,0:0:0:0:
496,168,71678,5,8,0:0:0:0:
496,168,71815,1,0,0:0:0:0:
496,168,71953,2,0,L|480:256,1,80,2|0,0:0|0:0,0:0:0:0:
400,368,72228,1,8,0:0:0:0:
400,368,72366,1,0,0:0:0:0:
400,368,72504,2,0,L|416:280,1,80,2|0,0:0|0:0,0:0:0:0:
400,208,72779,6,0,P|368:176|312:168,1,80,2|0,0:0|0:0,0:0:0:0:
256,176,73054,2,0,P|208:208|192:248,1,80,8|0,0:0|0:0,0:0:0:0:
176,328,73329,1,8,0:0:0:0:
176,328,73467,2,0,B|96:344|96:344|24:296,1,160,8|0,0:0|0:0,0:0:0:0:
8,168,73880,6,0,P|16:120|96:40,1,160,4|0,0:0|0:0,0:0:0:0:
168,24,74293,1,2,0:0:0:0:
168,24,74431,2,0,L|264:32,1,80,8|0,0:0|0:0,0:0:0:0:
248,112,74706,1,2,0:0:0:0:
248,112,74844,2,0,L|344:120,1,80,0|2,0:0|0:0,0:0:0:0:
328,200,75119,1,2,0:0:0:0:
328,200,75257,2,0,L|424:208,1,80
480,240,75532,5,8,0:0:0:0:
480,320,75670,1,2,0:0:0:0:
416,368,75807,2,0,P|368:384|312:368,1,80,0|2,0:0|0:0,0:0:0:0:
216,296,76083,6,0,B|256:320|256:320|384:288,1,176.000005371094,4|0,0:0|0:0,0:0:0:0:
464,256,76496,1,2,0:0:0:0:
464,256,76633,2,0,P|464:208|432:168,1,88.000002685547,8|0,0:0|0:0,0:0:0:0:
308,212,76909,1,2,0:0:0:0:
308,212,77046,2,0,P|350:236|401:229,1,88.000002685547,0|2,0:0|0:0,0:0:0:0:
424,100,77322,1,2,0:0:0:0:
424,100,77459,2,0,P|382:124|363:171,1,88.000002685547
352,236,77735,5,12,0:0:0:0:
328,312,77872,1,2,0:0:0:0:
256,344,78010,2,0,L|208:352,3,44.0000013427735,0|0|2|0,0:0|0:0|0:0|0:0,0:0:0:0:
104,336,78285,6,0,B|32:320|16:256|16:256|48:264|80:248,1,191.999994140625,4|0,0:0|0:0,0:0:0:0:
128,184,78698,1,2,0:0:0:0:
144,104,78836,2,0,L|240:72,1,95.9999970703126,8|0,0:0|0:0,0:0:0:0:
312,48,79111,1,2,0:0:0:0:
368,104,79249,2,0,L|272:136,1,95.9999970703126,0|2,0:0|0:0,0:0:0:0:
200,160,79524,1,2,0:0:0:0:
256,216,79662,2,0,L|352:184,1,95.9999970703126
424,160,79937,5,8,0:0:0:0:
496,192,80075,1,2,0:0:0:0:
496,272,80213,2,0,P|472:320|432:336,1,95.9999970703126,0|2,0:0|0:0,0:0:0:0:
240,256,80488,6,0,B|320:272|352:336|352:336|352:296|384:272,1,207.999990478516,4|0,0:0|0:0,0:0:0:0:
432,224,80901,1,2,0:0:0:0:
424,144,81039,2,0,P|392:104|328:88,1,103.999995239258,8|0,0:0|0:0,0:0:0:0:
288,32,81314,1,2,0:0:0:0:
223,79,81452,2,0,P|204:127|222:190,1,103.999995239258,0|2,0:0|0:0,0:0:0:0:
192,256,81727,1,2,0:0:0:0:
265,289,81865,2,0,P|316:281|362:234,1,103.999995239258
384,176,82140,5,8,0:0:0:0:
360,104,82278,1,2,0:0:0:0:
288,80,82415,1,2,0:0:0:0:
216,96,82553,1,2,0:0:0:0:
176,160,82691,1,4,1:0:0:0:
256,192,82760,12,0,87096,0:0:0:0:
