osu file format v12

[General]
AudioFilename: BRYNHILDR IN THE DARKNESS.mp3
AudioLeadIn: 1500
PreviewTime: 56225
Countdown: 0
SampleSet: Soft
StackLeniency: 0.7
Mode: 0
LetterboxInBreaks: 0
WidescreenStoryboard: 0

[Editor]
DistanceSpacing: 1
BeatDivisor: 2
GridSize: 4
TimelineZoom: 1.5

[Metadata]
Title:BRYNHILDR IN THE DARKNESS -Ver. EJECTED-
TitleUnicode:BRYNHILDR IN THE DARKNESS -Ver. EJECTED-
Artist:Tokisawa Nao
ArtistUnicode:鴇沢直
Creator:wcx19911123
Version:Easy
Source:極黒のブリュンヒルデ
Tags:Gokukoku no Buryunhirude opening
BeatmapID:418283
BeatmapSetID:164075

[Difficulty]
HPDrainRate:2
CircleSize:3
OverallDifficulty:2
ApproachRate:3
SliderMultiplier:0.8
SliderTickRate:1

[Events]
//Background and Video events
Video,-170,"video.avi"
0,0,"Brynhildr.jpg",0,0
//Break Periods
//Storyboard Layer 0 (Background)
//Storyboard Layer 1 (Fail)
//Storyboard Layer 2 (Pass)
//Storyboard Layer 3 (Foreground)
//Storyboard Sound Samples
//Background Colour Transformations
3,100,163,162,255

[TimingPoints]
293,303.030303030303,4,2,1,35,1,0
596,-100,4,2,1,45,0,0
2717,-100,4,2,1,55,0,0
5141,-100,4,2,1,65,0,0
7565,-100,4,2,1,40,0,0
8171,-100,4,2,1,65,0,0
8694,303.030303030303,4,2,1,65,1,0
10004,275.330396475771,4,2,2,85,1,0
18814,-100,4,2,1,85,0,0
19915,-100,4,2,2,85,0,0
21843,-100,4,2,1,85,0,0
22118,-100,4,2,2,85,0,0
24045,-100,4,2,1,85,0,0
24321,-100,4,2,2,85,0,0
26523,-100,4,2,3,90,0,0
27074,-100,4,2,2,85,0,0
27625,-100,4,2,1,85,0,0
27900,-100,4,2,2,85,0,0
28588,-100,4,2,1,65,0,0
28726,-100,4,1,2,85,0,0
28864,-100,4,2,2,85,0,0
30791,-100,4,2,1,65,0,0
30929,-100,4,1,2,85,0,0
31066,-100,4,2,2,85,0,0
32994,-100,4,2,1,65,0,0
33131,-100,4,1,2,85,0,0
33269,-100,4,2,2,85,0,0
36435,-100,4,2,1,85,0,0
36711,-100,4,2,2,85,0,0
37399,-100,4,2,1,65,0,0
37537,-100,4,1,2,85,0,0
37674,-100,4,2,2,85,0,0
39602,-100,4,2,1,65,0,0
39739,-100,4,1,2,85,0,0
39877,-100,4,2,2,85,0,0
41804,-100,4,2,1,65,0,0
41942,-100,4,1,2,85,0,0
42079,-100,4,2,2,85,0,0
43318,-100,4,2,1,65,0,0
43594,-100,4,2,2,85,0,0
43869,-100,4,2,1,65,0,0
44144,-100,4,2,2,85,0,0
45246,-100,4,2,1,40,0,0
46347,-100,4,2,1,65,0,0
49651,-100,4,2,1,70,0,0
51854,-100,4,2,1,75,0,0
54607,-100,4,2,2,60,0,0
55158,-100,4,2,1,75,0,0
55433,-100,4,2,2,75,0,0
56259,-100,4,2,2,75,0,1
56534,-100,4,2,2,85,0,1
56810,-100,4,2,1,75,0,1
57085,-100,4,2,2,85,0,1
57911,-100,4,2,1,75,0,1
58186,-100,4,2,2,85,0,1
59288,-100,4,2,1,75,0,1
59563,-100,4,2,2,85,0,1
60389,-100,4,2,1,75,0,1
60664,-100,4,2,2,85,0,1
62041,-100,4,2,1,75,0,1
62316,-100,4,2,2,95,0,1
64244,-100,4,2,2,85,0,1
64794,-100,4,2,1,85,0,1
65070,-100,4,2,2,85,0,1
66997,-100,4,2,1,80,0,1
67272,-100,4,2,2,85,0,1
68098,-100,4,2,1,70,0,1
68374,-100,4,2,2,90,0,1
69200,-100,4,2,1,80,0,1
69475,-100,4,2,2,95,0,1
70439,-100,4,2,1,80,0,1
70576,-100,4,1,2,95,0,1
70714,-100,4,2,2,95,0,1
73811,-100,4,2,2,95,0,0
73880,-100,4,2,1,90,0,1
74155,-100,4,2,1,80,0,1
74431,-100,4,2,2,95,0,1
74981,-100,4,1,2,95,0,1
75119,-100,4,2,2,95,0,1
75257,-100,4,2,1,80,0,1
75532,-100,4,2,2,95,0,1
75807,-100,4,2,1,80,0,1
76083,-100,4,2,1,95,0,1
76358,-100,4,2,1,80,0,1
76633,-100,4,2,2,95,0,1
77184,-100,4,1,2,95,0,1
77322,-100,4,2,2,95,0,1
77459,-100,4,2,1,80,0,1
77735,-100,4,2,2,95,0,1
78010,-100,4,2,1,80,0,1
78285,-100,4,2,1,95,0,1
78561,-100,4,2,1,90,0,1
78836,-100,4,2,2,100,0,1
79387,-100,4,1,2,100,0,1
79524,-100,4,2,2,100,0,1
79662,-100,4,2,1,90,0,1
79937,-100,4,2,2,100,0,1
80213,-100,4,2,1,90,0,1
80488,-100,4,2,1,100,0,1
80763,-100,4,2,1,90,0,1
81039,-100,4,2,2,100,0,1
81589,-100,4,1,2,100,0,1
81727,-100,4,2,2,100,0,1
81865,-100,4,2,1,90,0,1
82140,-100,4,2,2,100,0,1
82415,-100,4,2,1,90,0,1
82691,-100,4,2,2,100,0,1
87096,-100,4,2,2,5,0,0

[Colours]
Combo1 : 129,0,198
Combo2 : 251,19,19
Combo3 : 235,218,5
Combo4 : 19,213,253

[HitObjects]
208,80,293,6,0,P|256:72|352:120,1,160,2|0,0:1|0:0,0:0:0:0:
368,216,1202,1,0,0:0:0:0:
296,280,1505,2,0,P|248:288|152:240,1,160
136,144,2414,1,0,0:0:0:0:
224,176,2717,6,0,P|272:176|360:104,1,160,2|0,0:0|0:0,0:0:0:0:
376,16,3626,1,0,0:0:0:0:
448,80,3929,1,0,0:0:0:0:
432,176,4232,2,0,B|416:264|416:264|432:304,2,120,0|0|2,0:0|0:0|0:1,0:0:0:0:
448,80,5444,6,0,B|404:72|376:96|376:96|360:88|360:88|348:120|312:136,1,160
272,48,6353,2,0,B|240:32|240:32|160:128,1,160,2|0,0:0|0:0,0:0:0:0:
96,200,7262,1,0,0:0:0:0:
112,296,7565,5,4,0:1:0:0:
304,336,8171,2,0,P|336:288|328:208,1,138.1,0|2,0:0|0:0,0:0:0:0:
256,192,8845,12,6,10004,0:0:0:0:
152,96,10554,6,0,L|112:176,1,80
72,256,11105,1,12,0:0:0:0:
224,136,11655,2,0,L|184:216,1,80,0|0,0:0|0:0,0:0:0:0:
224,296,12206,6,0,P|256:312|304:312,1,80,2|0,0:0|0:0,0:0:0:0:
384,264,12757,2,0,L|368:184,1,80
348,92,13307,1,12,0:0:0:0:
464,248,13858,2,0,L|448:168,1,80
500,88,14409,6,0,P|444:72|400:88,1,80,2|0,0:0|0:0,0:0:0:0:
336,120,14959,2,0,L|248:112,1,80
160,104,15510,1,12,0:0:0:0:
328,200,16061,2,0,L|240:192,1,80
176,256,16611,6,0,P|120:256|96:240,1,80,2|0,0:0|0:0,0:0:0:0:
40,168,17162,2,0,P|40:112|64:80,1,80,8|0,0:0|0:0,0:0:0:0:
144,64,17713,2,0,L|184:56,1,40,8|8,0:0|0:0,0:0:0:0:
328,32,18263,1,8,0:0:0:0:
488,136,18814,6,0,P|488:208|440:280,1,160,4|0,0:0|0:0,0:0:0:0:
344,288,19640,1,8,0:0:0:0:
272,224,19915,2,0,P|272:152|320:80,1,160,12|0,0:0|0:0,0:0:0:0:
416,72,20741,1,0,0:0:0:0:
432,168,21017,6,0,B|440:216|440:216|344:312,1,160,2|0,0:0|0:0,0:0:0:0:
288,360,21843,1,8,0:0:0:0:
268,264,22118,2,0,L|236:96,1,160,12|0,0:0|0:0,0:0:0:0:
216,16,22944,1,0,0:0:0:0:
144,80,23219,6,0,P|112:128|112:232,1,160,2|0,0:0|0:0,0:0:0:0:
168,304,24045,1,8,0:0:0:0:
264,280,24321,2,0,L|384:304,2,120,12|8|8,0:0|0:1|0:1,0:0:0:0:
200,208,25422,6,0,P|184:168|216:56,1,160,8|8,0:0|0:0,0:0:0:0:
304,24,26248,1,0,0:0:0:0:
400,40,26523,1,2,0:0:0:0:
456,224,27074,2,0,B|448:252|448:252|456:272|456:272|448:300,1,80
368,352,27625,6,0,P|320:344|288:312,1,80,4|0,0:0|0:0,0:0:0:0:
264,232,28175,2,0,L|248:112,2,120,8|2|0,0:0|0:0|0:0,0:0:0:0:
204,308,29277,2,0,P|164:324|116:316,1,80,8|0,0:0|0:0,0:0:0:0:
64,248,29827,6,0,L|80:168,1,80,2|0,0:0|0:0,0:0:0:0:
168,128,30378,2,0,P|124:80|60:72,2,120,8|2|0,0:0|0:0|0:0,0:0:0:0:
184,224,31479,1,12,0:0:0:0:
272,264,31755,1,0,0:0:0:0:
368,264,32030,6,0,P|400:256|440:216,1,80,2|0,0:0|0:0,0:0:0:0:
472,136,32581,2,0,L|440:16,2,120,8|2|0,0:0|0:0|0:0,0:0:0:0:
376,120,33682,2,0,L|288:104,1,80,8|0,0:0|0:0,0:0:0:0:
240,184,34233,6,0,P|184:200|152:192,1,80,2|0,0:0|0:0,0:0:0:0:
88,136,34783,2,0,P|80:88|96:48,1,80,8|0,0:0|0:0,0:0:0:0:
172,12,35334,1,0,0:0:0:0:
336,112,35885,2,0,L|344:160,2,40,8|8|8,0:0|0:0|0:0,0:0:0:0:
424,72,36435,6,0,P|464:88|488:128,1,80,4|0,0:0|0:0,0:0:0:0:
448,208,36986,2,0,B|416:288|416:288|424:336,2,120,8|2|0,0:0|0:0|0:0,0:0:0:0:
484,117,38087,2,0,P|480:88|448:48,1,80,8|0,0:0|0:0,0:0:0:0:
352,48,38638,6,0,L|272:80,1,80,2|0,0:0|0:0,0:0:0:0:
216,152,39189,2,0,P|184:104|200:20,2,120,8|2|0,0:0|0:0|0:0,0:0:0:0:
304,192,40290,2,0,P|320:232|304:288,1,80,12|0,0:0|0:0,0:0:0:0:
240,328,40841,6,0,L|152:352,1,80,2|0,0:0|0:0,0:0:0:0:
64,344,41391,2,0,P|32:304|32:224,2,120,8|2|0,0:0|0:0|0:0,0:0:0:0:
120,264,42492,2,0,P|120:208|96:168,1,80,8|0,0:0|0:0,0:0:0:0:
32,132,43043,5,2,0:0:0:0:
120,96,43318,1,2,0:0:0:0:
208,60,43594,2,0,P|248:68|288:100,1,80,8|2,0:0|0:0,0:0:0:0:
336,168,44144,2,0,L|352:208,1,40,8|8,0:0|0:0,0:0:0:0:
392,336,44695,2,0,P|336:360|240:336,1,160,8|4,0:0|0:1,0:0:0:0:
56,124,46347,6,0,P|88:84|200:60,1,160,0|0,0:0|0:0,0:0:0:0:
376,104,47448,2,0,P|424:144|440:248,1,160,2|0,0:0|0:0,0:0:0:0:
280,336,48550,2,0,B|208:352|200:288|128:304,2,160,0|0|2,0:0|0:0|0:0,0:0:0:0:
232,152,50202,6,0,P|152:168|112:224,2,120,0|0|0,0:0|0:0|0:0,0:0:0:0:
320,192,51303,1,2,0:0:0:0:
456,56,51854,6,0,P|432:32|376:16,2,80,2|0|0,0:0|0:0|0:0,0:0:0:0:
496,144,52680,1,0,0:0:0:0:
456,232,52955,2,0,P|416:264|384:272,1,80,2|0,0:0|0:0,0:0:0:0:
304,224,53506,2,0,P|264:216|216:232,1,80,2|0,0:0|0:0,0:0:0:0:
208,320,54056,6,0,B|172:316|152:288|152:288|128:288|128:288|120:248|88:232,1,160,4|8,0:1|0:0,0:0:0:0:
0,200,54882,1,8,0:0:0:0:
72,136,55158,2,0,B|96:120|96:120|112:128|112:128|144:124|168:144|168:144|200:144|216:120,1,160,2|0,0:0|0:0,0:0:0:0:
376,16,56259,6,0,P|432:48|464:152,1,160,4|2,1:0|0:0,0:0:0:0:
432,224,57085,1,0,0:0:0:0:
336,224,57360,2,0,P|280:192|248:88,1,160,12|2,0:0|0:0,0:0:0:0:
280,16,58186,1,0,0:0:0:0:
340,92,58462,6,0,B|432:224,1,160,2|8,0:0|0:0,0:0:0:0:
488,304,59288,1,2,0:0:0:0:
400,352,59563,2,0,P|352:360|320:352,1,80,2|8,0:0|0:0,0:0:0:0:
248,288,60114,2,0,P|200:280|168:288,1,80,2|2,0:0|0:0,0:0:0:0:
88,336,60664,6,0,B|72:304|72:304|80:296|80:296|64:264,1,80,2|0,0:0|0:0,0:0:0:0:
32,176,61215,2,0,P|48:104|136:48,1,160,8|2,0:0|0:0,0:0:0:0:
208,48,62041,1,2,0:0:0:0:
168,136,62316,2,0,P|176:192|248:272,1,160,8|2,0:0|0:0,0:0:0:0:
336,280,63142,5,8,0:0:0:0:
296,192,63418,2,0,P|296:128|360:40,1,160,2|2,0:0|0:0,0:0:0:0:
440,24,64244,1,8,0:0:0:0:
480,112,64519,2,0,B|496:152|496:152|448:168,1,80,2|2,0:0|0:0,0:0:0:0:
368,192,65070,6,0,B|360:224|360:224|368:232|368:232|360:272,1,80,2|0,0:0|0:0,0:0:0:0:
352,364,65620,1,12,0:0:0:0:
264,192,66171,2,0,P|232:176|184:176,1,80,2|8,0:0|0:0,0:0:0:0:
96,200,66722,2,0,P|56:232|40:280,1,80,2|2,0:0|0:0,0:0:0:0:
108,332,67272,6,0,P|180:332|260:276,1,160,2|8,0:0|0:0,0:0:0:0:
264,192,68098,1,2,0:0:0:0:
176,228,68374,2,0,P|96:200|48:128,1,160,2|8,0:0|0:0,0:0:0:0:
40,48,69200,1,2,0:0:0:0:
128,88,69475,6,0,P|168:96|216:80,1,80,2|0,0:0|0:0,0:0:0:0:
288,40,70026,2,0,L|408:56,2,120,8|2|0,0:0|0:0|0:0,0:0:0:0:
288,136,71127,2,0,P|296:168|280:216,1,80,8|0,0:0|0:0,0:0:0:0:
200,264,71678,6,0,B|152:280|152:280|24:232,1,160,8|8,0:0|0:0,0:0:0:0:
208,128,72779,2,0,L|104:88,1,80,2|8,0:0|0:0,0:0:0:0:
48,56,73329,2,0,L|-16:32,1,40,8|8,0:0|0:0,0:0:0:0:
28,184,73880,6,0,P|60:216|108:224,1,80,4|2,0:0|0:0,0:0:0:0:
184,192,74431,2,0,P|216:192|288:248,2,120,8|0|2,0:0|0:0|0:0,0:0:0:0:
200,288,75532,2,0,P|228:320|272:336,1,80,8|2,0:0|0:0,0:0:0:0:
356,308,76083,6,0,P|376:276|380:228,1,80,4|2,0:0|0:0,0:0:0:0:
344,144,76633,2,0,B|352:96|352:96|416:56,2,120,8|0|2,0:0|0:0|0:0,0:0:0:0:
288,224,77735,1,12,0:0:0:0:
192,232,78010,1,2,0:0:0:0:
100,204,78285,6,0,P|76:164|76:116,1,80,4|2,0:0|0:0,0:0:0:0:
132,52,78836,2,0,L|260:28,2,120,8|0|2,0:0|0:0|0:0,0:0:0:0:
180,136,79937,1,8,0:0:0:0:
192,232,80213,1,2,0:0:0:0:
164,324,80488,6,0,P|208:328|256:304,1,80,4|2,0:0|0:0,0:0:0:0:
288,232,81039,2,0,P|328:272|328:352,2,120,8|0|2,0:0|0:0|0:0,0:0:0:0:
192,208,82140,1,8,0:0:0:0:
168,112,82415,1,2,0:0:0:0:
232,40,82691,1,4,1:0:0:0:
256,192,82828,12,0,87096,0:0:0:0:
