osu file format v14

[General]
AudioFilename: BRYNHILDR IN THE DARKNESS -Ver. EJECTED-.mp3
AudioLeadIn: 2000
PreviewTime: 10004
Countdown: 0
SampleSet: Soft
StackLeniency: 0.7
Mode: 0
LetterboxInBreaks: 0
WidescreenStoryboard: 0

[Editor]
DistanceSpacing: 1.1
BeatDivisor: 4
GridSize: 4
TimelineZoom: 2.4

[Metadata]
Title:BRYNHILDR IN THE DARKNESS -Ver. EJECTED-
TitleUnicode:BRYNHILDR IN THE DARKNESS -Ver. EJECTED-
Artist:Tokisawa Nao
ArtistUnicode:鴇沢直
Creator:gxytcgxytc
Version:Easy
Source:極黒のブリュンヒルデ
Tags:岡本倫 Bless Melt yf_bmp opening Gokukoku no Buryunhirude OblivioN
BeatmapID:415099
BeatmapSetID:170604

[Difficulty]
HPDrainRate:2
CircleSize:2
OverallDifficulty:2
ApproachRate:3
SliderMultiplier:0.625
SliderTickRate:1

[Events]
//Background and Video events
0,0,"1.jpg",0,0
Video,-193,"opopop.flv"
//Break Periods
2,45446,48211
//Storyboard Layer 0 (Background)
//Storyboard Layer 1 (Fail)
//Storyboard Layer 2 (Pass)
//Storyboard Layer 3 (Foreground)
//Storyboard Sound Samples

[TimingPoints]
293,303.030303030303,4,2,0,50,1,0
5141,-100,4,2,0,40,0,0
6353,-100,4,2,0,30,0,0
8694,303.030303030303,4,2,0,50,1,0
9678,-100,4,2,0,50,0,0
10004,275.330396475771,4,2,0,50,1,0
10141,-100,4,2,2,60,0,0
16611,-100,4,2,0,60,0,0
18814,-100,4,2,2,60,0,0
24321,-100,4,2,0,60,0,0
27625,-100,4,2,0,64,0,1
31410,-100,4,2,2,64,0,1
31548,-100,4,2,0,64,0,1
40221,-100,4,2,2,64,0,1
40359,-100,4,2,0,64,0,1
44144,-100,4,2,0,64,0,1
45246,-100,4,1,0,55,0,0
49651,-100,4,2,0,35,0,0
50752,-100,4,2,0,45,0,0
51854,-100,4,2,0,65,0,0
56259,-100,4,2,0,55,0,0
57223,-100,4,2,2,55,0,0
57429,-100,4,2,0,55,0,0
61215,-100,4,1,0,55,0,0
61572,-100,4,2,0,55,0,0
66171,-100,4,1,0,55,0,0
66584,-100,4,2,1,55,0,0
69475,-100,4,2,1,45,0,0
73880,-100,4,2,2,55,0,1
78285,-100,4,2,2,55,0,1
82622,-100,4,2,2,55,0,1
82691,-100,4,2,2,55,0,0
82760,-100,4,2,0,55,0,0
87096,-100,4,2,0,20,0,0

[Colours]
Combo1 : 0,152,225
Combo2 : 127,127,127
Combo3 : 100,60,196
Combo4 : 65,226,114

[HitObjects]
64,103,293,6,0,P|34:158|31:220,1,125,2|0,0:0|0:0,0:0:0:0:
116,311,1505,2,0,P|144:257|148:195,1,125,2|0,0:0|0:0,0:0:0:0:
87,84,2717,2,0,P|147:67|207:83,1,125,2|0,0:0|0:0,0:0:0:0:
292,176,3929,1,2,0:0:0:0:
268,300,4535,1,0,0:0:0:0:
387,268,5141,6,0,P|447:251|493:210,1,125,2|0,0:0|0:0,0:0:0:0:
495,88,6353,2,0,P|436:104|389:145,1,125,2|0,0:0|0:0,0:0:0:0:
256,192,7565,12,0,10004,0:0:0:0:
326,116,11105,6,0,L|336:240,1,125,2|0,0:3|0:0,0:0:0:0:
435,316,12206,2,0,P|357:363|267:346,1,187.5,4|0,0:3|0:0,0:0:0:0:
224,304,13307,1,2,0:3:0:0:
352,88,14409,6,0,L|341:212,1,125,4|0,0:3|0:0,0:0:0:0:
327,336,15510,2,0,P|269:317|232:268,1,125,2|0,0:3|0:0,0:0:0:0:
341,212,16611,2,0,P|399:231|461:224,2,125,8|2|2,0:3|0:3|0:3,0:0:0:0:
412,108,18263,1,4,1:0:0:0:
336,8,18814,6,0,B|272:16|272:104|186:111,1,187.5,4|0,0:3|0:0,0:0:0:0:
128,96,19915,2,0,L|150:218,1,125,2|0,0:3|0:0,0:0:0:0:
88,328,21017,2,0,P|176:350|257:307,1,187.5,4|0,0:3|0:0,0:0:0:0:
291,254,22118,1,2,0:3:0:0:
476,88,23219,6,0,L|476:212,1,125,4|0,0:3|0:0,0:0:0:0:
412,319,24321,2,0,P|373:345|327:353,2,93.75,2|2|2,0:3|0:3|0:3,0:3:0:0:
400,260,25422,2,0,L|400:166,2,93.75,8|8|4,0:3|0:3|0:3,0:0:0:0:
336,256,26523,2,0,L|148:256,1,187.5,4|2,1:3|0:0,0:0:0:0:
95,220,27625,6,0,P|116:161|158:115,1,125,4|8,1:3|0:3,0:0:0:0:
284,107,28726,2,0,P|263:166|221:212,1,125,4|8,0:3|0:3,0:0:0:0:
119,283,29827,2,0,P|168:322|228:336,1,125,4|8,0:3|0:3,0:0:0:0:
348,308,30929,2,0,L|386:357,2,62.5,4|0|10,0:3|0:0|3:0,0:0:0:0:
427,212,32030,6,0,P|446:153|426:95,1,125,4|8,0:3|0:3,0:0:0:0:
316,156,33131,2,0,L|191:156,1,125,4|8,0:3|0:3,0:0:0:0:
114,56,34233,2,0,P|62:163|124:266,1,250,4|0,0:3|0:0,0:0:0:0:
236,324,35885,1,0,1:0:0:0:
359,293,36435,6,0,L|441:199,1,125,4|8,0:3|0:3,0:0:0:0:
420,76,37537,2,0,L|339:171,1,125,4|8,0:3|0:3,0:0:0:0:
236,244,38638,2,0,P|211:187|221:126,2,125,4|8|4,0:3|0:3|0:3,0:0:0:0:
344,176,40290,1,10,0:3:0:0:
460,215,40841,6,0,P|423:265|366:291,1,125,4|8,0:3|0:3,0:0:0:0:
268,216,41942,1,4,0:3:0:0:
172,296,42492,1,8,0:3:0:0:
48,316,43043,2,0,P|17:262|19:200,1,125,4|8,0:3|0:3,0:0:0:0:
107,111,44144,2,0,P|138:165|135:227,1,125,4|4,0:3|0:3,0:0:0:0:
48,316,45246,5,4,1:0:0:0:
215,165,49651,6,0,P|235:107|219:48,1,125,0|0,0:0|1:0,0:0:0:0:
108,107,50752,2,0,P|88:164|104:223,1,125,0|0,0:0|1:0,0:0:0:0:
208,296,51854,2,0,B|300:356|392:296|386:299,2,187.5
84,312,54056,6,0,B|88:212|144:188|192:176|192:176|296:172|318:62,1,375,4|0,0:2|0:0,0:0:0:0:
192,52,56259,5,4,0:3:0:0:
380,220,57360,1,8,0:3:0:0:
132,188,58462,1,4,0:3:0:0:
15,150,59012,1,8,0:3:0:0:
39,270,59563,2,0,P|44:301|56:330,2,62.5,4|0|8,0:3|1:0|0:3,0:0:0:0:
164,276,60664,6,0,L|226:276,1,62.5,0|4,1:0|1:3,0:0:0:0:
281,303,61215,2,0,P|367:337|453:305,1,187.5,4|0,1:1|0:0,0:0:0:0:
492,256,62316,2,0,B|512:220|472:172|495:133,2,125,8|4|0,0:3|0:3|1:0,0:0:0:0:
367,251,63968,2,0,B|300:160|220:208|158:124,1,250,0|0,1:0|0:0,0:0:0:0:
40,84,65620,5,0,1:0:0:0:
80,203,66171,2,0,P|84:266|81:328,1,125,0|2,0:1|0:3,0:0:0:0:
204,328,67272,1,0,1:0:0:0:
324,300,67823,1,8,1:3:0:0:
400,204,68374,1,0,1:0:0:0:
376,81,68924,1,8,1:3:0:0:
251,83,69475,6,0,P|195:112|162:164,1,125,0|8,1:0|1:3,0:0:0:0:
280,204,70576,1,0,1:0:0:0:
400,236,71127,1,8,1:3:0:0:
366,115,71678,2,0,P|428:116|484:144,2,125,8|8|8,1:3|1:3|1:3,0:0:0:0:
319,156,73054,2,0,P|260:172|201:153,1,125,8|8,1:3|1:3,0:0:0:0:
156,112,73880,5,4,1:2:0:0:
264,52,74431,1,8,0:3:0:0:
384,84,74981,2,0,L|446:84,2,62.5,0|0|8,1:0|1:0|0:3,0:0:0:0:
372,208,76083,5,4,0:0:0:0:
291,304,76633,1,8,0:3:0:0:
168,300,77184,2,0,L|168:362,2,62.5,0|0|10,1:0|1:0|0:3,0:0:0:0:
80,212,78285,5,4,0:0:0:0:
168,123,78836,1,8,0:3:0:0:
292,123,79387,2,0,L|354:123,2,62.5,0|0|8,1:0|1:0|0:3,1:0:0:0:
236,236,80488,6,0,P|271:286|327:312,1,125,4|8,1:2|0:3,0:0:0:0:
444,267,81589,2,0,P|409:217|353:190,1,125,0|8,1:0|0:3,0:0:0:0:
228,188,82691,1,6,1:3:0:0:
256,192,82828,12,0,87096,0:0:0:0:
