osu file format v14

[General]
AudioFilename: BRYNHILDR IN THE DARKNESS -Ver. EJECTED-.mp3
AudioLeadIn: 2000
PreviewTime: 10004
Countdown: 0
SampleSet: Soft
StackLeniency: 0.7
Mode: 0
LetterboxInBreaks: 0
WidescreenStoryboard: 0

[Editor]
DistanceSpacing: 1.1
BeatDivisor: 4
GridSize: 4
TimelineZoom: 4.499998

[Metadata]
Title:BRYNHILDR IN THE DARKNESS -Ver. EJECTED-
TitleUnicode:BRYNHILDR IN THE DARKNESS -Ver. EJECTED-
Artist:Tokisawa Nao
ArtistUnicode:鴇沢直
Creator:gxytcgxytc
Version:Dark
Source:極黒のブリュンヒルデ
Tags:岡本倫 Bless Melt yf_bmp opening Gokukoku no Buryunhirude OblivioN
BeatmapID:412968
BeatmapSetID:170604

[Difficulty]
HPDrainRate:8
CircleSize:4
OverallDifficulty:8
ApproachRate:9
SliderMultiplier:1.025
SliderTickRate:1

[Events]
//Background and Video events
0,0,"1.jpg",0,0
Video,-193,"opopop.flv"
//Break Periods
//Storyboard Layer 0 (Background)
//Storyboard Layer 1 (Fail)
//Storyboard Layer 2 (Pass)
//Storyboard Layer 3 (Foreground)
//Storyboard Sound Samples

[TimingPoints]
293,303.030303030303,4,2,0,50,1,0
5141,-100,4,2,1,40,0,0
5747,-100,4,2,1,35,0,0
6353,-133.333333333333,4,2,1,30,0,0
6959,-133.333333333333,4,2,1,20,0,0
8694,303.030303030303,4,2,0,20,1,0
9603,-100,4,2,1,50,0,0
10004,275.330396475771,4,2,0,50,1,0
10210,-74.6268656716418,4,2,2,60,0,0
16611,-74.6268656716418,4,2,1,60,0,0
18913,-74.6268656716418,4,2,2,60,0,0
24390,-74.6268656716418,4,2,1,60,0,0
26902,-74.6268656716418,4,2,1,35,0,0
27074,-74.6268656716418,4,2,1,50,0,0
27108,-74.6268656716418,4,2,1,25,0,0
27349,-74.6268656716418,4,2,1,44,0,0
27384,-74.6268656716418,4,2,1,19,0,0
27625,-66.6666666666667,4,2,1,64,0,1
31504,-66.6666666666667,4,2,2,64,0,1
31642,-66.6666666666667,4,2,1,64,0,1
35334,-100,4,2,1,64,0,1
36435,-66.6666666666667,4,2,1,64,0,1
40221,-66.6666666666667,4,2,2,64,0,1
40359,-66.6666666666667,4,2,1,64,0,1
43043,-80,4,2,1,64,0,1
43456,-58.8235294117647,4,2,1,64,0,1
44144,-66.6666666666667,4,2,1,64,0,1
45246,-66.6666666666667,4,1,0,55,0,0
46347,-66.6666666666667,4,1,0,40,0,0
47448,-66.6666666666667,4,2,1,35,0,0
48550,-66.6666666666667,4,2,1,45,0,0
49651,-66.6666666666667,4,2,1,55,0,0
50752,-66.6666666666667,4,2,1,60,0,0
51941,-66.6666666666667,4,2,1,65,0,0
54263,-66.6666666666667,4,2,1,35,0,0
54332,-66.6666666666667,4,2,1,55,0,0
54538,-66.6666666666667,4,2,1,35,0,0
54607,-66.6666666666667,4,2,1,55,0,0
54814,-66.6666666666667,4,2,1,35,0,0
54882,-66.6666666666667,4,2,1,55,0,0
55089,-66.6666666666667,4,2,1,35,0,0
55158,-50,4,2,1,55,0,0
55571,-133.333333333333,4,1,0,55,0,0
56259,-66.6666666666667,4,2,0,55,0,0
57291,-66.6666666666667,4,2,2,55,0,0
57429,-66.6666666666667,4,2,0,55,0,0
61215,-50,4,1,0,55,0,0
61421,-66.6666666666667,4,2,0,55,0,0
63968,-50,4,2,0,55,0,0
64175,-66.6666666666667,4,2,0,55,0,0
66252,-66.6666666666667,4,1,0,55,0,0
66803,-66.6666666666667,4,2,0,55,0,0
67272,-133.333333333333,4,2,0,55,0,0
67823,-100,4,2,0,55,0,0
68374,-80,4,2,0,55,0,0
68924,-66.6666666666667,4,2,0,55,0,0
69475,-66.6666666666667,4,2,1,55,0,0
73880,-66.6666666666667,4,2,1,55,0,1
78285,-58.8235294117647,4,2,0,65,0,1
82691,-66.6666666666667,4,2,2,65,0,0
82760,-66.6666666666667,4,2,1,30,0,0

[Colours]
Combo1 : 0,152,225
Combo2 : 127,127,127
Combo3 : 100,60,196
Combo4 : 65,226,114

[HitObjects]
108,60,293,6,0,L|114:110,1,51.25,2|0,0:0|0:0,0:0:0:0:
188,148,596,2,0,L|196:212,1,51.25,2|0,0:0|0:0,0:0:0:0:
248,344,899,2,0,L|280:292,1,51.25,2|0,0:0|0:0,0:0:0:0:
344,328,1202,2,0,L|376:276,1,51.25,2|0,0:0|0:0,0:0:0:0:
392,136,1505,5,2,0:0:0:0:
373,61,1656,1,0,0:0:0:0:
294,55,1808,1,0,0:0:0:0:
265,127,1959,1,2,0:0:0:0:
323,177,2111,1,0,0:0:0:0:
294,249,2262,1,0,0:0:0:0:
215,243,2414,1,2,0:0:0:0:
196,168,2565,1,0,0:0:0:0:
120,84,2717,6,0,L|56:100,1,51.25,2|0,0:0|0:0,0:0:0:0:
96,172,3020,2,0,L|36:188,1,51.25,2|0,0:0|0:0,0:0:0:0:
96,312,3323,2,0,L|160:320,1,51.25,2|0,0:0|0:0,0:0:0:0:
176,240,3626,2,0,L|248:248,1,51.25,2|0,0:0|0:0,0:0:0:0:
317,293,3929,5,2,0:0:0:0:
391,315,4080,1,0,0:0:0:0:
437,249,4232,1,0,0:0:0:0:
391,188,4383,1,2,0:0:0:0:
318,212,4535,1,0,0:0:0:0:
271,150,4686,1,0,0:0:0:0:
316,85,4838,1,2,0:0:0:0:
390,108,4989,1,0,0:0:0:0:
180,100,5141,6,0,L|124:100,1,51.25,2|0,0:0|0:0,0:0:0:0:
116,184,5444,2,0,L|44:184,1,51.25,2|0,0:0|0:0,0:0:0:0:
308,160,5747,6,0,L|380:160,1,51.25,2|0,0:0|0:0,0:0:0:0:
373,229,6050,2,0,L|437:229,1,51.25,2|0,0:0|0:0,0:0:0:0:
212,232,6353,6,0,L|168:232,1,38.4375014662743,2|0,0:0|0:0,0:0:0:0:
160,280,6656,2,0,L|108:280,1,38.4375014662743,2|0,0:0|0:0,0:0:0:0:
280,288,6959,6,0,L|332:288,1,38.4375014662743,2|0,0:0|0:0,0:0:0:0:
316,320,7262,2,0,L|360:320,1,38.4375014662743,2|0,0:0|0:0,0:0:0:0:
256,192,7565,12,0,9603,0:0:0:0:
344,184,10004,5,4,0:3:0:0:
308,104,10141,1,0,0:0:0:0:
378,48,10279,1,0,0:0:0:0:
424,284,10554,6,0,L|406:353,1,68.6749967515184,0|2,0:0|0:0,0:0:0:0:
256,320,10829,1,0,0:0:0:0:
102,283,10967,1,0,0:0:0:0:
102,283,11105,2,0,L|120:352,1,68.6749967515184,2|0,1:3|0:0,0:0:0:0:
196,276,11380,2,0,P|180:227|130:193,1,103.012495127278
72,140,11655,2,0,P|54:194|62:227,1,68.6749967515184,0|2,0:0|0:0,0:0:0:0:
248,144,11931,2,0,P|260:112|256:72,1,68.6749967515184
296,236,12206,37,4,0:3:0:0:
172,192,12344,1,0,0:0:0:0:
328,144,12481,1,0,0:0:0:0:
100,280,12757,6,0,L|23:280,1,68.6749967515184,0|2,0:0|0:0,0:0:0:0:
328,320,13032,2,0,L|400:320,1,68.6749967515184,0|0,0:0|0:0,0:0:0:0:
172,192,13307,1,2,1:3:0:0:
296,236,13445,1,2,0:0:0:0:
328,144,13583,1,0,0:0:0:0:
296,236,13720,1,0,0:0:0:0:
444,80,13858,5,2,0:0:0:0:
424,200,13996,1,2,0:0:0:0:
336,128,14133,1,2,0:0:0:0:
280,192,14271,1,2,0:0:0:0:
256,112,14409,22,0,P|212:116|176:104,1,68.6749967515184,4|0,0:3|0:0,0:0:0:0:
56,64,14684,1,0,0:0:0:0:
56,248,14959,6,0,L|143:228,1,68.6749967515184,0|2,0:0|0:0,0:0:0:0:
244,292,15235,2,0,L|156:311,1,68.6749967515184,0|0,0:0|0:0,0:0:0:0:
452,292,15510,2,0,L|512:336,1,68.6749967515184,2|0,1:3|0:0,0:0:0:0:
454,212,15785,2,0,P|404:176|364:176,1,103.012495127278,0|0,0:0|0:0,0:0:0:0:
380,259,16061,2,0,L|356:324,2,68.6749967515184,0|2|0,0:0|0:0|0:0,0:0:0:0:
400,24,16611,6,4,L|324:32,1,68.6749967515184,4|4,0:3|0:3,0:0:0:0:
252,132,16887,2,0,L|320:125,1,68.6749967515184
208,44,17162,2,0,L|139:50,1,68.6749967515184,8|0,0:3|0:0,0:0:0:0:
68,148,17437,2,0,L|136:141,1,68.6749967515184,2|2,0:0|0:0,0:0:0:0:
172,212,17713,5,8,0:3:0:0:
144,288,17850,1,8,0:3:0:0:
384,288,17988,1,4,0:3:0:0:
356,212,18126,1,0,0:0:0:0:
228,280,18263,5,8,0:3:0:0:
200,356,18401,1,0,0:0:0:0:
332,356,18539,1,6,0:0:0:0:
304,280,18676,1,2,0:0:0:0:
384,288,18814,6,0,P|420:264|440:224,1,68.6749967515184,4|0,0:3|0:0,0:0:0:0:
460,100,19089,1,0,0:0:0:0:
460,100,19365,2,0,P|448:140|472:184,1,68.6749967515184,0|2,0:0|0:0,0:0:0:0:
304,280,19640,2,0,P|312:236|302:208,1,68.6749967515184,4|0,0:3|0:0,0:0:0:0:
140,180,19915,6,0,P|88:152|68:100,1,103.012495127278,10|0,1:3|0:0,0:0:0:0:
140,28,20191,2,0,L|150:111,1,68.6749967515184,2|0,0:0|0:0,0:0:0:0:
240,204,20466,1,0,0:0:0:0:
408,148,20604,1,2,0:0:0:0:
312,80,20741,2,0,L|320:160,1,68.6749967515184,0|0,0:0|0:0,0:0:0:0:
432,352,21017,6,0,L|424:280,1,68.6749967515184,4|0,0:3|0:0,0:0:0:0:
240,204,21292,1,0,0:0:0:0:
240,204,21567,2,0,P|196:196|160:184,2,68.6749967515184,0|2|4,0:0|0:0|0:3,0:0:0:0:
336,284,21980,1,0,0:0:0:0:
432,64,22118,6,0,P|444:128|424:176,1,103.012495127278,10|0,1:3|0:0,0:0:0:0:
384,184,22393,2,0,L|312:184,1,68.6749967515184,2|0,0:0|0:0,0:0:0:0:
208,124,22669,5,2,0:0:0:0:
204,264,22806,1,2,0:0:0:0:
144,188,22944,1,2,0:0:0:0:
116,296,23082,1,2,0:0:0:0:
10,346,23219,6,0,L|48:269,1,68.6749967515184,4|0,0:3|0:0,0:0:0:0:
224,80,23495,2,0,L|192:156,1,68.6749967515184,0|0,0:0|0:0,0:0:0:0:
160,284,23770,2,0,L|124:360,1,68.6749967515184,2|0,0:0|0:0,0:0:0:0:
88,148,24045,2,0,L|116:80,1,68.6749967515184,4|2,0:3|0:0,0:0:0:0:
312,176,24321,6,0,P|276:192|236:188,1,68.6749967515184,10|2,1:3|0:0,0:0:0:0:
236,180,24527,1,0,0:0:0:0:
228,168,24596,2,0,L|236:240,1,68.6749967515184,2|2,0:0|0:3,0:0:0:0:
376,112,24871,2,0,L|368:40,1,68.6749967515184,2|0,0:0|0:0,0:0:0:0:
424,244,25147,2,0,P|372:292|328:292,1,103.012495127278,2|0,0:3|0:0,0:0:0:0:
308,292,25422,5,4,0:3:0:0:
332,368,25560,2,0,L|176:348,1,137.349993503037,2|0,1:3|1:0,0:0:0:0:
308,292,25973,1,4,0:3:0:0:
168,140,26110,2,0,L|224:280,1,137.349993503037,8|6,0:3|0:0,0:0:0:0:
420,260,26523,6,0,L|438:193,1,68.6749967515184,4|0,0:3|0:0,0:0:0:0:
452,92,26730,2,0,L|404:84,1,34.3374983757592
384,56,26867,6,0,L|376:32,4,17.1687491878796
312,56,27074,2,0,L|288:48,6,17.1687491878796
276,120,27349,2,0,L|252:120,6,17.1687491878796
331,143,27625,6,0,P|325:178|332:224,1,76.8750029325486,4|0,0:3|0:0,0:0:0:0:
408,184,27900,1,2,0:3:0:0:
172,312,28038,1,0,0:0:0:0:
172,312,28106,1,0,0:0:0:0:
172,312,28175,2,0,P|180:272|164:224,1,76.8750029325486,8|2,1:3|0:0,0:0:0:0:
96,272,28451,1,0,0:0:0:0:
138,76,28588,1,0,0:0:0:0:
160,160,28726,6,0,P|104:161|62:124,1,115.312504398823,4|0,0:3|0:0,0:0:0:0:
50,100,29001,1,2,0:3:0:0:
248,200,29139,1,2,0:3:0:0:
316,256,29277,2,0,P|335:290|348:335,1,76.8750029325486,8|2,1:3|0:0,0:0:0:0:
204,136,29552,2,0,P|184:101|172:57,1,76.8750029325486,0|0,0:0|0:0,0:0:0:0:
380,12,29827,5,4,0:3:0:0:
349,126,29965,2,0,P|313:112|288:84,2,76.8750029325486,0|2|0,0:0|0:3|0:0,0:0:0:0:
376,120,30309,1,0,0:0:0:0:
400,108,30378,2,0,L|400:188,1,76.8750029325486,8|2,1:3|0:0,0:0:0:0:
416,304,30653,2,0,P|368:296|332:268,1,76.8750029325486
145,171,30929,5,4,0:3:0:0:
216,128,31066,1,0,0:0:0:0:
257,200,31204,1,2,0:3:0:0:
186,242,31342,1,2,0:3:0:0:
154,99,31479,5,10,1:3:0:0:
288,135,31617,1,2,0:0:0:0:
252,268,31755,1,2,0:0:0:0:
118,233,31892,1,0,0:0:0:0:
216,128,32030,5,4,0:3:0:0:
252,268,32168,1,0,0:0:0:0:
68,356,32305,2,0,P|44:296|68:253,1,115.312504398823,2|0,0:3|2:0,0:0:0:0:
66,254,32581,1,8,1:3:0:0:
284,232,32718,2,0,P|216:264|147:235,1,153.750005865097,2|0,0:0|2:0,0:0:0:0:
256,104,33131,6,0,L|212:180,1,76.8750029325486,4|0,0:3|0:3,0:0:0:0:
328,164,33407,2,0,P|404:175|444:153,1,115.312504398823,2|0,0:3|0:0,0:0:0:0:
472,128,33682,2,0,L|464:216,1,76.8750029325486,8|2,1:3|0:0,0:0:0:0:
380,96,33957,1,0,0:0:0:0:
212,352,34233,5,4,0:3:0:0:
188,280,34370,1,0,0:0:0:0:
296,320,34508,1,2,0:3:0:0:
320,248,34646,1,0,0:0:0:0:
188,280,34783,5,8,1:3:0:0:
148,180,34921,1,2,0:0:0:0:
320,248,35059,1,0,0:0:0:0:
364,128,35196,1,0,0:0:0:0:
232,128,35334,22,0,L|192:192,1,51.25,2|0,0:3|0:0,0:0:0:0:
312,128,35609,2,0,L|368:128,1,51.25,2|0,0:3|0:0,0:0:0:0:
256,55,35885,5,4,1:0:0:0:
256,55,36022,1,4,1:0:0:0:
256,55,36160,1,4,1:0:0:0:
200,192,36435,5,4,0:3:0:0:
200,192,36573,1,0,0:0:0:0:
200,192,36711,2,0,P|212:252|168:312,1,115.312504398823,2|0,0:3|0:0,0:0:0:0:
120,236,36986,2,0,P|104:204|116:148,1,76.8750029325486,8|2,1:3|0:0,0:0:0:0:
348,40,37261,2,0,P|364:72|352:128,1,76.8750029325486
268,352,37537,5,4,0:3:0:0:
232,220,37674,1,0,0:0:0:0:
284,96,37812,1,2,0:3:0:0:
324,240,37950,1,2,0:3:0:0:
324,240,38018,1,0,0:0:0:0:
324,240,38087,1,8,1:3:0:0:
148,200,38225,1,2,0:0:0:0:
284,96,38363,1,0,0:0:0:0:
284,96,38638,6,0,P|296:144|288:176,2,76.8750029325486,4|0|2,0:3|0:0|0:3,0:0:0:0:
140,120,39051,1,0,0:0:0:0:
147,97,39120,1,0,0:0:0:0:
155,75,39189,1,8,1:3:0:0:
48,168,39326,2,0,P|44:208|64:256,1,76.8750029325486,2|0,0:0|0:0,0:0:0:0:
160,324,39602,1,0,0:0:0:0:
148,200,39739,6,0,L|236:200,2,76.8750029325486,4|0|2,0:3|0:0|0:3,0:0:0:0:
308,224,40152,1,2,0:3:0:0:
304,332,40290,5,10,1:3:0:0:
432,280,40428,1,2,0:0:0:0:
308,224,40565,1,2,0:0:0:0:
408,176,40703,1,0,0:0:0:0:
312,112,40841,6,0,P|360:92|392:56,1,76.8750029325486,4|0,0:3|0:0,0:0:0:0:
224,92,41116,1,2,0:3:0:0:
140,72,41254,1,0,0:0:0:0:
140,72,41322,1,0,0:0:0:0:
139,71,41391,2,0,P|102:72|64:96,1,76.8750029325486,8|2,1:3|0:0,0:0:0:0:
192,252,41666,2,0,P|204:296|228:320,1,76.8750029325486
320,232,41942,6,0,L|400:232,2,76.8750029325486,4|0|2,0:3|0:0|0:3,0:0:0:0:
408,144,42355,1,2,0:3:0:0:
384,332,42492,2,0,L|464:332,2,76.8750029325486,8|2|0,1:3|0:0|0:0,0:0:0:0:
208,268,43043,6,0,L|184:328,1,64.0625,4|0,0:3|0:0,0:0:0:0:
304,268,43318,2,0,L|326:328,1,64.0625,2|0,0:3|0:0,0:0:0:0:
152,124,43594,6,0,L|72:172,1,87.1250016617775,8|2,1:3|0:0,0:0:0:0:
360,124,43869,2,0,L|440:172,1,87.1250016617775
256,192,44144,5,4,0:3:0:0:
359,123,44282,2,0,P|387:194|365:265,1,153.750005865097,0|0,1:0|0:0,0:0:0:0:
256,192,44695,1,4,0:3:0:0:
152,123,44833,2,0,P|124:194|146:265,1,153.750005865097,0|0,1:0|1:0,0:0:0:0:
256,192,45246,12,0,46898,2:2:0:0:
84,84,47448,6,0,L|40:160,1,76.8750029325486
120,172,47724,2,0,L|104:256,1,76.8750029325486
184,240,47999,2,0,L|206:313,1,76.8750029325486
276,280,48274,2,0,L|336:344,1,76.8750029325486
424,152,48550,6,0,L|412:248,1,76.8750029325486
336,96,48825,2,0,L|352:188,1,76.8750029325486
232,60,49100,2,0,L|268:132,1,76.8750029325486
120,56,49376,2,0,L|180:120,1,76.8750029325486
216,264,49651,5,0,0:0:0:0:
292,168,49789,1,0,0:0:0:0:
132,232,49926,2,0,P|124:287|159:332,1,115.312504398823,2|0,0:0|0:0,0:0:0:0:
188,348,50202,2,0,L|284:347,1,76.8750029325486
448,236,50477,2,0,L|368:236,1,76.8750029325486
248,192,50752,6,0,L|248:108,1,76.8750029325486
288,264,51028,1,2,0:0:0:0:
228,328,51165,1,0,0:0:0:0:
168,264,51303,2,0,L|168:187,2,76.8750029325486,0|0|0,0:0|0:0|0:0,0:0:0:0:
84,92,51854,22,0,L|40:112,1,38.4375014662743
64,184,51991,2,0,L|40:216,1,38.4375014662743
96,264,52129,2,0,L|96:352,1,76.8750029325486,0|0,0:0|0:0,0:0:0:0:
224,160,52404,2,2,L|224:76,2,76.8750029325486,2|2|0,0:0|0:0|0:0,0:0:0:0:
304,276,52817,1,0,0:0:0:0:
368,48,52955,21,0,0:0:0:0:
360,80,53047,1,0,0:0:0:0:
352,112,53139,1,0,0:0:0:0:
376,160,53230,5,2,0:0:0:0:
388,200,53322,1,0,0:0:0:0:
400,240,53414,1,0,0:0:0:0:
381,277,53506,6,0,L|297:277,1,76.8750029325486,0|2,0:0|0:0,0:0:0:0:
120,124,53781,2,0,L|64:192,1,76.8750029325486,0|2,0:0|0:0,0:0:0:0:
208,260,54056,6,0,P|216:316|268:360,1,115.312504398823,4|0,1:2|0:0,0:0:0:0:
256,192,54332,2,0,P|203:171|151:192,1,115.312504398823,2|0,0:0|0:0,0:0:0:0:
304,276,54607,2,0,P|347:239|357:184,1,115.312504398823,8|0,0:3|0:0,0:0:0:0:
256,180,54882,2,0,P|203:159|151:180,1,115.312504398823,2|0,0:0|0:0,0:0:0:0:
152,192,55158,6,0,B|128:96|128:96|112:136,2,128.125,0|0|0,0:0|0:0|0:0,0:1:0:0:
276,232,55708,22,2,L|396:228,1,115.312504398823,0|0,2:1|2:0,1:1:0:0:
252,152,56259,6,0,L|336:148,1,76.8750029325486,4|0,1:3|0:0,0:0:0:0:
400,48,56534,1,0,0:0:0:0:
196,92,56810,2,0,L|120:96,2,76.8750029325486,2|0|0,0:0|0:0|0:0,0:0:0:0:
336,220,57223,1,2,0:0:0:0:
292,336,57360,6,0,P|224:336|192:300,1,115.312504398823,10|0,1:3|0:0,0:0:0:0:
192,272,57636,2,0,L|112:324,1,76.8750029325486,2|2,0:0|0:0,0:0:0:0:
200,176,57911,2,0,L|268:132,1,76.8750029325486
128,224,58186,1,6,0:0:0:0:
256,19,58462,5,0,1:0:0:0:
256,364,58737,1,0,0:0:0:0:
448,192,59012,1,4,0:3:0:0:
512,112,59150,2,0,P|456:88|432:88,2,76.8750029325486,0|0|2,0:0|0:0|0:0,0:0:0:0:
448,192,59563,21,4,0:3:0:0:
64,192,59838,1,0,1:0:0:0:
256,40,60114,1,0,0:0:0:0:
222,141,60251,2,0,P|259:150|296:140,2,76.8750029325486,0|2|0,0:0|0:0|0:0,0:0:0:0:
8,84,60664,6,0,B|56:112|56:112|108:80,1,115.312504398823,0|0,1:0|0:0,0:0:0:0:
140,60,60940,2,0,B|188:32|188:32|240:64,1,115.312504398823,4|0,0:3|0:0,0:0:0:0:
289,121,61215,22,2,P|336:88|276:88,1,153.750005865097,2|0,1:0|0:0,0:0:0:0:
280,128,61490,5,0,0:0:0:0:
271,167,61628,1,0,0:0:0:0:
159,163,61766,5,0,0:0:0:0:
147,203,61903,1,0,0:0:0:0:
35,195,62041,5,0,0:0:0:0:
23,231,62179,1,0,0:0:0:0:
248,324,62316,6,0,L|324:324,1,76.8750029325486,8|0,0:3|0:0,0:0:0:0:
156,324,62592,1,0,0:0:0:0:
244,136,62729,1,0,0:0:0:0:
248,236,62867,2,0,P|168:200|144:156,1,115.312504398823,4|0,0:3|0:0,0:0:0:0:
368,240,63142,2,0,P|381:295|365:350,1,115.312504398823,0|0,1:0|0:0,0:0:0:0:
316,120,63418,2,0,P|376:56|426:48,1,115.312504398823,4|0,0:3|0:0,0:0:0:0:
424,152,63693,2,0,L|456:272,1,115.312504398823,0|0,0:3|0:0,0:0:0:0:
480,296,63968,6,0,P|434:313|447:296,1,153.750005865097,4|0,0:3|0:0,0:0:0:0:
424,256,64244,6,0,L|392:132,1,115.312504398823,0|0,1:0|0:0,0:0:0:0:
388,112,64519,2,0,B|340:148|340:148|296:112,1,115.312504398823,8|0,0:3|0:0,0:0:0:0:
244,104,64794,6,0,L|212:104,7,19.2187507331372
244,104,65070,2,0,P|220:180|240:224,1,115.312504398823,8|0,0:3|0:0,0:0:0:0:
192,296,65345,2,0,P|248:304|312:256,1,115.312504398823,4|0,0:3|0:0,0:0:0:0:
104,344,65620,2,0,P|89:291|113:233,2,115.312504398823,4|0|0,0:0|0:0|0:0,0:0:0:0:
48,144,66171,6,2,B|116:121|116:121|211:128|211:128|279:106,1,230.625008797646,2|0,0:0|0:0,0:0:0:0:
368,236,66722,6,2,B|384:240|384:240|396:224|408:256|424:240|424:240|440:224|448:240|448:240|472:240,2,115.312504398823,2|2|2,2:0|2:0|2:0,1:0:0:0:
236,80,67272,6,0,P|272:124|284:160,1,76.8750029325486,4|0,0:3|0:0,0:0:0:0:
184,160,67685,1,0,0:0:0:0:
344,96,67823,6,0,P|348:152|332:206,1,102.5,4|0,0:3|0:0,0:0:0:0:
184,160,68236,1,0,0:0:0:0:
420,184,68374,6,0,P|386:253|316:284,1,128.125,4|0,0:3|0:0,0:0:0:0:
184,160,68787,1,0,0:0:0:0:
436,308,68924,6,0,P|376:348|293:340,1,153.750005865097,8|0,0:3|0:0,0:0:0:0:
184,160,69337,1,0,0:0:0:0:
260,32,69475,6,0,P|255:70|238:105,1,76.8750029325486,4|0,0:3|0:0,0:0:0:0:
256,304,69750,2,0,P|261:266|278:231,1,76.8750029325486,0|0,0:0|0:0,0:0:0:0:
344,136,70026,1,0,1:0:0:0:
322,343,70163,2,0,P|258:380|192:348,1,153.750005865097,2|0,0:0|0:0,0:0:0:0:
104,272,70576,6,0,L|30:295,1,76.8750029325486,4|0,0:3|0:0,0:0:0:0:
220,140,70852,2,0,L|293:116,1,76.8750029325486
104,140,71127,1,0,1:0:0:0:
192,348,71265,1,2,2:0:0:0:
326,168,71402,1,0,0:0:0:0:
327,168,71678,6,0,L|439:167,1,76.8750029325486,4|2,1:3|0:0,0:0:0:0:
223,283,71953,2,0,L|167:186,1,76.8750029325486
377,317,72228,2,0,L|321:412,1,76.8750029325486,8|2,1:3|0:0,0:0:0:0:
242,195,72504,2,0,L|297:98,1,76.8750029325486
288,344,72779,2,0,L|211:343,1,76.8750029325486,8|0,1:3|0:0,0:0:0:0:
395,228,73054,2,0,L|452:323,1,76.8750029325486,2|2,1:2|1:2,0:0:0:0:
308,184,73329,1,4,0:3:0:0:
340,272,73467,2,0,P|268:268|216:200,1,153.750005865097,2|0,1:2|0:0,0:0:0:0:
128,104,73880,6,0,P|124:188|64:236,1,153.750005865097,4|0,1:2|0:0,0:0:0:0:
24,136,74293,1,0,0:0:0:0:
324,212,74431,2,0,P|253:190|241:178,1,76.8750029325486,2|0,1:2|0:0,0:0:0:0:
200,88,74706,1,0,0:0:0:0:
208,324,74844,2,0,P|182:294|170:259,1,76.8750029325486,2|4,0:0|0:3,0:0:0:0:
200,88,75119,1,0,0:0:0:0:
231,183,75257,2,0,P|192:188|155:173,1,76.8750029325486,0|2,0:0|0:0,0:0:0:0:
286,259,75532,5,0,1:0:0:0:
286,110,75670,1,0,0:0:0:0:
373,231,75807,1,0,0:0:0:0:
373,138,75945,1,2,0:0:0:0:
232,184,76083,6,0,P|196:268|228:328,1,153.750005865097,4|0,1:2|0:0,0:0:0:0:
286,259,76496,1,0,0:0:0:0:
299,72,76633,2,0,P|262:81|228:100,1,76.8750029325486,2|0,1:2|0:2,0:0:0:0:
160,232,76909,1,0,0:0:0:0:
312,188,77046,2,0,P|294:222|286:259,1,76.8750029325486,2|4,0:0|0:3,0:0:0:0:
344,340,77322,1,0,0:0:0:0:
384,252,77459,2,0,L|460:252,1,76.8750029325486,0|2,0:0|0:0,0:0:0:0:
244,340,77735,5,0,1:0:0:0:
269,347,77804,1,0,0:0:0:0:
295,340,77872,1,0,0:0:0:0:
318,346,77941,1,0,0:0:0:0:
344,340,78010,2,0,L|444:340,1,76.8750029325486,2|0,0:0|0:0,0:0:0:0:
156,264,78285,6,0,P|95:206|116:112,1,174.250003323555,4|0,1:2|0:0,0:0:0:0:
180,176,78698,1,0,0:0:0:0:
256,295,78836,2,0,P|232:332|192:356,1,87.1250016617775,2|0,1:2|0:0,0:0:0:0:
180,176,79111,1,0,0:0:0:0:
312,212,79249,2,0,P|348:252|356:304,1,87.1250016617775,2|4,0:0|0:3,0:0:0:0:
180,176,79524,1,0,0:0:0:0:
420,328,79662,2,0,P|377:356|333:355,1,87.1250016617775,0|2,0:0|0:0,0:0:0:0:
392,194,79937,5,0,1:0:0:0:
256,296,80075,1,0,0:0:0:0:
425,294,80213,1,2,0:0:0:0:
286,196,80350,1,0,0:0:0:0:
343,355,80488,6,4,P|420:328|460:244,1,174.250003323555,4|0,1:2|0:0,1:2:0:0:
336,224,80901,1,0,0:0:0:0:
100,288,81039,2,0,P|66:260|51:219,1,87.1250016617775,2|0,1:2|0:0,0:0:0:0:
196,80,81314,1,0,0:0:0:0:
336,276,81452,2,0,P|318:314|289:347,1,87.1250016617775,2|4,0:0|0:3,0:0:0:0:
100,288,81727,1,0,0:0:0:0:
196,81,81865,6,0,P|240:64|288:72,2,87.1250016617775,2|0|8,0:0|0:0|0:3,0:0:0:0:
251,320,82278,1,2,0:0:0:0:
354,89,82415,1,2,0:3:0:0:
136,216,82553,1,0,0:0:0:0:
386,241,82691,1,2,1:3:0:0:
256,192,82828,12,0,87096,0:0:0:0:
