osu file format v12

[General]
AudioFilename: Gokukoku.mp3
AudioLeadIn: 0
PreviewTime: 56574
Countdown: 0
SampleSet: Soft
StackLeniency: 0.7
Mode: 0
LetterboxInBreaks: 1
WidescreenStoryboard: 1

[Editor]
DistanceSpacing: 1
BeatDivisor: 4
GridSize: 4
TimelineZoom: 0.9

[Metadata]
Title:BRYNHILDR IN THE DARKNESS -Ver. EJECTED- (TV Size)
TitleUnicode:BRYNHILDR IN THE DARKNESS -Ver. EJECTED- (TV Size)
Artist:Tokisawa Nao
ArtistUnicode:Tokisawa Nao
Creator:FlowHomie
Version:Easy
Source:Gokukoku No Brynhildr
Tags:Darkness Witch Horror Drama Romance Kenssai Zinsser Piano Dubstep Key Anime Julie Lordraika
BeatmapID:404727
BeatmapSetID:164118

[Difficulty]
HPDrainRate:0
CircleSize:2
OverallDifficulty:0
ApproachRate:1
SliderMultiplier:1.00000000596046
SliderTickRate:2

[Events]
//Background and Video events
Video,-109,"Gokukoku no Brynhildr OP.avi"
0,0,"Demi-Diogo4D-Gokukoku-no-Brynhildr-01.png",0,0
//Break Periods
//Storyboard Layer 0 (Background)
//Storyboard Layer 1 (Fail)
//Storyboard Layer 2 (Pass)
//Storyboard Layer 3 (Foreground)
//Storyboard Sound Samples
//Background Colour Transformations
3,100,163,162,255

[TimingPoints]
575.662227746212,606.060606060606,4,2,1,40,1,0
6636,-100,4,2,1,5,0,0
6787,-100,4,2,1,30,0,0
8984,-100,4,2,1,30,0,0
10121,-76.9230769230769,4,2,1,5,0,0
10267,550.45871559633,4,2,1,70,1,0
27881,-76.9230769230769,4,2,1,70,0,0
35588,-76.9230769230769,4,2,1,70,0,0
36138,-76.9230769230769,4,2,1,100,0,0
36689,-76.9230769230769,4,2,1,80,0,0
37239,-76.9230769230769,4,2,1,70,0,0
43844,-76.9230769230769,4,2,1,100,0,0
43982,-76.9230769230769,4,2,1,70,0,0
44395,-76.9230769230769,4,2,1,100,0,0
44808,-76.9230769230769,4,2,1,5,0,0
44945,-76.9230769230769,4,2,1,100,0,0
45221,-76.9230769230769,4,2,1,50,0,0
46046,-76.9230769230769,4,2,1,20,0,0
47973,-76.9230769230769,4,2,1,30,0,0
48523,-76.9230769230769,4,2,1,35,0,0
49074,-76.9230769230769,4,2,1,40,0,0
49624,-76.9230769230769,4,2,1,45,0,0
50175,-76.9230769230769,4,2,1,50,0,0
50725,-76.9230769230769,4,2,1,55,0,0
51276,-76.9230769230769,4,2,1,60,0,0
51826,-76.9230769230769,4,2,1,65,0,0
54166,-76.9230769230769,4,2,1,5,0,0
54303,-76.9230769230769,4,2,1,60,0,0
56367,-76.9230769230769,4,2,1,50,0,0
56505,-66.6666666666667,4,2,1,80,0,1
57606,-66.6666666666667,4,2,1,100,0,1
57744,-66.6666666666667,4,2,1,80,0,1
58569,-66.6666666666667,4,2,1,5,0,1
58707,-66.6666666666667,4,2,1,80,0,1
60909,-66.6666666666667,4,2,1,50,0,1
61046,-66.6666666666667,4,2,1,80,0,1
61322,-66.6666666666667,4,2,1,5,0,1
61459,-66.6666666666667,4,2,1,80,0,1
61597,-66.6666666666667,4,2,1,80,0,1
62560,-66.6666666666667,4,2,1,100,0,1
62973,-66.6666666666667,4,2,1,5,0,1
63111,-66.6666666666667,4,2,1,80,0,1
63386,-66.6666666666667,4,2,1,100,0,1
63523,-66.6666666666667,4,2,1,80,0,1
64074,-66.6666666666667,4,2,1,5,0,1
64211,-66.6666666666667,4,2,1,80,0,1
64487,-76.9230769230769,4,2,1,100,0,0
64624,-76.9230769230769,4,2,1,80,0,0
65863,-76.9230769230769,4,2,1,100,0,1
66413,-76.9230769230769,4,2,1,80,0,1
66964,-76.9230769230769,4,2,1,50,0,1
67514,-100,4,2,1,80,0,1
82927,-76.9230769230769,4,2,1,70,0,0
87331,-100,4,2,1,5,0,0

[Colours]
Combo1 : 225,73,0
Combo2 : 0,103,230
Combo3 : 91,0,0
Combo4 : 0,72,0
Combo5 : 255,255,111
Combo6 : 149,0,149

[HitObjects]
120,192,575,5,0,0:0:0:0:
168,104,1181,1,0,0:0:0:0:
236,180,1787,2,0,P|232:220|192:272,1,100.000000596046
104,304,2999,5,0,0:0:0:0:
28,240,3605,1,0,0:0:0:0:
36,140,4212,2,0,P|54:104|110:69,1,100.000000596046
152,72,5121,5,0,0:0:0:0:
200,72,5424,2,0,P|244:84|260:108,2,75.0000004470348
256,192,6636,12,0,8984,0:0:0:0:
396,104,10267,6,0,P|396:148|296:284,1,200.000001192092,4|8,0:1|1:2,0:0:0:0:
264,156,11918,1,0,0:0:0:0:
224,32,12468,2,0,P|157:105|141:202,1,200.000001192092,4|8,0:0|1:2,0:0:0:0:
208,276,14120,1,0,0:0:0:0:
292,328,14670,6,0,B|344:288|392:284|392:284|432:196,1,200.000001192092,4|8,0:0|1:2,0:0:0:0:
328,208,16322,1,0,0:0:0:0:
360,84,16872,2,0,B|308:124|260:128|260:128|220:216,1,200.000001192092,4|0,0:0|1:2,0:0:0:0:
192,304,18523,1,0,1:0:0:0:
100,268,19074,6,0,B|108:192|76:172|76:172|100:148|80:76,1,200.000001192092,4|8,0:1|1:2,0:0:0:0:
176,160,20725,1,0,0:0:0:0:
256,56,21276,2,0,B|248:132|280:152|280:152|256:176|276:248,1,200.000001192092,4|8,0:0|1:2,0:0:0:0:
364,200,22927,1,0,0:0:0:0:
352,104,23478,6,0,B|384:104|408:84|408:84|456:120|456:228,1,200.000001192092,4|8,0:0|1:2,0:0:0:0:
392,288,25129,1,0,0:0:0:0:
292,304,25679,2,0,B|248:256|248:256|232:272|200:280,1,100.000000596046,4|4,0:0|0:0,0:0:0:0:
116,164,26780,2,0,B|160:212|160:212|176:196|208:188,1,100.000000596046,4|0,0:0|0:0,0:0:0:0:
188,68,27881,5,4,1:0:0:0:
300,136,28432,1,0,1:0:0:0:
412,68,28982,1,4,0:0:0:0:
412,200,29533,1,0,1:0:0:0:
292,252,30083,6,0,B|240:252|240:252|220:284|156:284,1,129.999994823932,4|0,0:0|1:0,0:0:0:0:
52,224,31184,2,0,B|104:224|104:224|124:192|188:192,1,129.999994823932,4|8,0:0|1:2,0:0:0:0:
307,132,32285,6,0,B|345:120|381:68|381:68|421:68,1,129.999994823932,4|0,0:0|1:0,0:0:0:0:
408,200,33386,2,0,B|370:212|334:264|334:264|294:264,1,129.999994823932,4|0,0:0|1:0,0:0:0:0:
196,192,34487,1,4,0:0:0:0:
307,132,35037,1,0,1:0:0:0:
196,64,35588,2,0,B|152:88|108:76|108:76|72:124|72:124,1,129.999994823932,4|0,0:0|1:0,0:0:0:0:
196,192,36689,5,4,1:0:0:0:
116,292,37239,1,0,1:0:0:0:
196,192,37789,2,0,B|244:216|288:204|288:204|320:252,1,129.999994823932,4|0,0:0|1:0,0:0:0:0:
240,344,38890,1,4,0:0:0:0:
116,292,39441,1,0,1:0:0:0:
116,162,39991,1,4,0:0:0:0:
256,112,40542,1,8,1:2:0:0:
412,164,41092,6,0,P|400:242|356:282,1,129.999994823932,4|0,0:0|1:0,0:0:0:0:
224,300,42193,2,0,P|236:222|280:182,1,129.999994823932,4|0,0:0|1:0,0:0:0:0:
356,92,43294,2,0,L|492:44,1,129.999994823932,4|0,0:0|1:0,0:0:0:0:
312,12,44395,2,0,L|176:60,1,129.999994823932,0|0,1:0|1:0,0:0:0:0:
97,147,45496,1,4,0:1:0:0:
160,88,47698,5,8,0:0:0:0:
184,116,49900,5,8,0:0:0:0:
208,148,52101,5,8,0:0:0:0:
228,180,52652,1,2,0:0:0:0:
253,218,53202,2,0,L|329:338,1,129.999994823932,2|2,0:0|0:0,0:0:0:0:
120,328,54303,1,4,0:1:0:0:
120,119,54854,5,0,0:0:0:0:
308,28,55404,2,0,P|304:76|220:116,1,129.999994823932
300,192,56505,6,0,B|348:180|384:116|384:116|432:128,1,150.000006616115,4|0,1:1|0:0,0:0:0:0:
420,276,57606,1,8,1:2:0:0:
256,340,58156,1,0,0:0:0:0:
156,192,58707,5,4,0:0:0:0:
296,136,59257,1,0,1:0:0:0:
176,40,59808,2,0,L|60:144,1,150.000006616115,4|4,0:0|0:0,0:0:0:0:
176,280,60909,5,4,0:0:0:0:
176,280,61459,2,0,P|204:312|256:328,1,75.0000033080576,4|0,1:2|0:0,0:0:0:0:
260,292,62010,2,0,P|259:249|229:203,1,75.0000033080576
196,92,62560,5,0,1:0:0:0:
336,48,63111,2,0,P|376:76|392:104,1,75.0000033080576,4|0,0:0|1:0,0:0:0:0:
440,112,63661,2,0,P|392:156|296:148,1,150.000006616115,4|4,0:0|0:0,0:0:0:0:
266,139,64487,2,0,L|222:199,1,64.9999974119661,4|4,1:2|0:0,0:0:0:0:
196,240,65037,1,4,0:0:0:0:
304,328,65312,5,4,0:0:0:0:
304,328,65587,1,4,0:0:0:0:
408,240,65863,5,8,1:2:0:0:
408,84,66413,2,0,L|356:140,1,64.9999974119661,4|0,0:0|1:0,0:0:0:0:
320,160,66964,2,0,B|292:116|292:116|260:148|260:148|216:112,1,129.999994823932,4|4,0:0|0:0,0:0:0:0:
112,72,68065,1,0,1:0:0:0:
112,192,68615,1,4,0:0:0:0:
112,312,69166,1,0,1:0:0:0:
216,252,69716,6,0,B|256:240|264:232|264:232|296:240|300:264,1,100.000000596046,4|0,0:0|1:0,0:0:0:0:
256,140,70817,2,0,B|216:152|208:160|208:160|176:152|172:128,1,100.000000596046,4|0,0:0|1:0,0:0:0:0:
256,44,71918,5,0,1:0:0:0:
296,60,72468,1,0,1:0:0:0:
340,80,73019,1,0,1:0:0:0:
388,104,73569,1,0,1:0:0:0:
436,128,74120,6,0,P|444:208|424:240,1,100.000000596046,4|0,0:1|1:0,0:0:0:0:
292,292,75221,2,0,P|284:212|304:180,1,100.000000596046,4|0,0:0|1:0,0:0:0:0:
168,96,76322,6,0,L|68:48,1,100.000000596046,4|0,0:1|1:0,0:0:0:0:
148,196,77422,2,0,L|248:244,1,100.000000596046,4|0,0:0|1:0,0:0:0:0:
308,96,78523,5,4,0:1:0:0:
460,148,79074,1,0,1:0:0:0:
408,320,79624,2,0,L|308:272,1,100.000000596046,4|0,0:0|1:0,0:0:0:0:
148,192,80725,5,4,0:1:0:0:
56,56,81276,1,0,1:0:0:0:
56,192,81826,1,4,0:0:0:0:
56,328,82377,1,0,1:0:0:0:
212,192,82927,1,4,1:1:0:0:
256,192,83065,12,0,87331,0:0:0:0:
