osu file format v13

[General]
AudioFilename: Analyze.mp3
AudioLeadIn: 0
PreviewTime: 45616
Countdown: 0
SampleSet: Soft
StackLeniency: 0.7
Mode: 3
LetterboxInBreaks: 0
EpilepsyWarning: 1
SpecialStyle: 0
WidescreenStoryboard: 1

[Editor]
DistanceSpacing: 0.8
BeatDivisor: 4
GridSize: 32
TimelineZoom: 0.7999998

[Metadata]
Title:Analyze
TitleUnicode:Analyze
Artist:Tokisawa Nao
ArtistUnicode:鴇沢 直
Creator:Heart of Bitch
Version:7K NM
Source:極黒のブリュンヒルデ
Tags:Gokukoku No Brynhildr witch horror drama romance ecafree2 Luckman richardfeder arviejhay
BeatmapID:420168
BeatmapSetID:173152

[Difficulty]
HPDrainRate:7
CircleSize:7
OverallDifficulty:7
ApproachRate:5
SliderMultiplier:1.4
SliderTickRate:1

[Events]
//Background and Video events
0,0,"Analyze BG.jpg",0,0
//Break Periods
//Storyboard Layer 0 (Background)
//Storyboard Layer 1 (Fail)
//Storyboard Layer 2 (Pass)
//Storyboard Layer 3 (Foreground)
//Storyboard Sound Samples

[TimingPoints]
889,545.454545454546,4,2,0,50,1,0
6479,-100,4,2,0,25,0,0
35798,-100,4,2,0,50,0,0
46707,-100,4,2,0,50,0,1
81616,-100,4,2,0,25,0,0

[HitObjects]
402,192,889,5,0,2:0:0:10:normal-hitnormal.wav
329,192,1161,1,0,2:0:0:10:normal-hitnormal.wav
109,192,1434,1,0,2:2:0:10:normal-hitnormal.wav
36,192,3070,1,0,2:2:0:15:normal-hitnormal.wav
402,192,3207,1,0,0:0:0:10:normal-hitnormal.wav
182,192,3343,128,0,3616:0:0:0:15:normal-hitnormal.wav
402,192,3616,1,0,0:0:0:15:normal-hitnormal.wav
182,192,4025,1,0,0:0:0:10:normal-hitnormal.wav
475,192,4161,1,0,0:0:0:10:normal-hitnormal.wav
36,192,4434,1,0,0:0:0:10:normal-hitnormal.wav
320,192,4752,1,0,0:0:0:10:normal-hitnormal.wav
182,192,5116,1,0,0:0:0:10:normal-hitnormal.wav
402,192,5252,1,0,0:0:0:10:normal-hitnormal.wav
182,192,5389,1,0,0:0:0:10:normal-hitnormal.wav
109,192,5525,1,0,0:0:0:10:normal-hitnormal.wav
329,192,6525,1,0,0:0:0:10:normal-hitnormal.wav
109,192,6798,1,0,0:0:0:10:normal-hitnormal.wav
402,192,7070,1,0,0:0:0:10:normal-hitnormal.wav
329,192,7479,1,0,0:0:0:10:normal-hitnormal.wav
182,192,7889,128,0,9616:0:0:0:0:
402,192,8025,128,0,9616:0:0:0:0:
64,192,10843,1,0,0:0:0:30:normal-hitnormal.wav
475,192,10979,1,0,0:0:0:30:normal-hitnormal.wav
109,192,11116,1,0,0:0:0:30:normal-hitnormal.wav
402,192,11252,1,0,0:0:0:30:normal-hitnormal.wav
192,192,11389,1,0,0:0:0:30:normal-hitnormal.wav
329,192,11525,1,0,0:0:0:30:normal-hitnormal.wav
109,192,11661,1,0,0:0:0:30:normal-hitnormal.wav
256,192,11798,1,0,0:0:0:0:
402,192,11798,1,0,0:0:0:0:
64,192,12070,1,0,0:0:0:0:
320,192,12343,1,0,0:0:0:0:
448,192,12343,128,0,13979:0:0:0:0:
36,192,12752,1,0,0:0:0:0:
109,192,12889,1,0,0:0:0:0:
109,192,13161,1,0,0:0:0:0:
182,192,13298,1,0,0:0:0:0:
329,192,13434,1,8,0:0:0:0:
109,192,13434,1,0,3:0:0:0:
109,192,13979,128,0,14525:0:0:0:0:
475,192,14525,128,0,14798:0:0:0:0:
329,192,14798,128,0,15070:0:0:0:0:
475,192,15070,128,0,15343:0:0:0:0:
329,192,15343,128,0,15889:0:0:0:0:
109,192,16161,1,0,0:0:0:0:
329,192,16434,1,0,0:0:0:0:
192,192,16707,128,0,18070:0:0:0:0:
475,192,16707,1,0,0:0:0:30:normal-hitnormal.wav
329,192,16843,1,0,0:0:0:30:normal-hitnormal.wav
402,192,16979,1,0,0:0:0:0:
402,192,17525,1,0,0:0:0:30:normal-hitnormal.wav
256,192,17798,1,0,0:0:0:20:normal-hitnormal.wav
402,192,17934,1,0,0:0:0:20:normal-hitnormal.wav
448,192,18070,1,0,0:0:0:20:normal-hitnormal.wav
36,192,18070,1,0,0:0:0:0:
329,192,18343,1,0,0:0:0:0:
109,192,18343,1,0,0:0:0:50:normal-hitnormal.wav
256,192,18616,1,0,0:0:0:40:normal-hitnormal.wav
402,192,18616,128,0,19161:0:0:0:40:normal-hitnormal.wav
109,192,18889,1,0,0:0:0:30:normal-hitnormal.wav
256,192,19025,1,0,0:0:0:30:normal-hitnormal.wav
182,192,19161,1,0,0:0:0:30:normal-hitnormal.wav
320,192,19434,128,0,20525:0:0:0:0:
36,192,19707,1,0,0:0:0:30:normal-hitnormal.wav
448,192,19843,1,0,0:0:0:30:normal-hitnormal.wav
109,192,19979,1,0,0:0:0:20:normal-hitnormal.wav
402,192,20116,1,0,0:0:0:20:normal-hitnormal.wav
192,192,20252,1,0,0:0:0:20:normal-hitnormal.wav
109,192,20389,1,0,0:0:0:20:normal-hitnormal.wav
256,192,20525,1,0,3:0:0:0:
402,192,20525,1,0,3:0:0:0:
475,192,20798,128,0,21343:0:0:0:0:
182,192,20798,128,0,21070:0:0:0:0:
329,192,21070,1,0,0:0:0:0:
402,192,21343,1,0,0:0:0:0:
192,192,21616,1,0,0:0:0:0:
36,192,21616,1,0,0:0:0:0:
109,192,22025,1,0,0:0:0:0:
320,192,22161,1,0,0:0:0:0:
475,192,22161,1,0,0:0:0:0:
402,192,22570,1,0,0:0:0:0:
329,192,22707,1,0,0:0:0:0:
36,192,22707,128,0,23252:0:0:0:0:
109,192,23252,1,0,0:0:0:0:
475,192,23252,128,0,23798:0:0:0:0:
402,192,23798,1,0,0:0:0:0:
329,192,24070,1,0,0:0:0:40:normal-hitnormal.wav
402,192,24207,1,0,0:0:0:40:normal-hitnormal.wav
182,192,24343,128,0,24616:0:0:0:50:normal-hitclap.wav
320,192,24616,128,0,24889:0:0:0:0:
109,192,24889,1,0,0:0:0:0:
448,192,25161,1,0,0:0:0:0:
182,192,25434,1,0,3:0:0:0:
109,192,25434,1,0,3:0:0:0:
320,192,25570,1,0,3:0:0:0:
256,192,25707,1,0,3:0:0:0:
109,192,25843,1,0,0:0:0:0:
402,192,25979,1,0,0:0:0:0:
329,192,26252,1,0,0:0:0:0:
36,192,26252,1,0,0:0:0:0:
182,192,26525,1,0,0:0:0:30:normal-hitclap.wav
109,192,26661,1,0,0:0:0:30:normal-hitclap.wav
329,192,26798,1,0,0:0:0:30:normal-hitclap.wav
402,192,26934,1,0,0:0:0:30:normal-hitclap.wav
182,192,27070,128,0,27207:0:0:0:50:normal-hitclap.wav
329,192,27343,128,0,27479:0:0:0:50:normal-hitclap.wav
109,192,27616,1,0,0:0:0:30:normal-hitnormal.wav
402,192,27752,1,0,0:0:0:30:normal-hitnormal.wav
182,192,27889,128,0,28025:0:0:0:50:normal-hitclap.wav
329,192,28161,128,0,28434:0:0:0:30:normal-hitclap.wav
36,192,28434,128,0,28707:0:0:0:30:normal-hitclap.wav
109,192,28707,128,0,29252:0:0:0:30:normal-hitclap.wav
329,192,29252,128,0,29525:0:0:0:30:normal-hitnormal.wav
402,192,29252,1,0,0:0:0:30:normal-hitnormal.wav
182,192,29525,128,0,29798:0:0:0:0:
36,192,29798,1,0,0:0:0:30:normal-hitnormal.wav
109,192,29934,1,0,0:0:0:30:normal-hitnormal.wav
329,192,30207,1,0,0:0:0:30:normal-hitnormal.wav
475,192,30343,1,0,1:0:0:0:
402,192,30343,1,0,1:0:0:0:
182,192,30479,1,0,0:0:0:0:
36,192,30616,1,0,0:0:0:0:
182,192,30752,1,0,0:0:0:0:
402,192,30889,128,0,31434:0:0:0:0:
109,192,31434,1,0,0:0:0:30:normal-hitnormal.wav
182,192,31434,1,0,0:0:0:30:normal-hitnormal.wav
329,192,31570,1,0,0:0:0:0:
448,192,31707,1,0,0:0:0:0:
256,192,31843,1,0,0:0:0:0:
402,192,31979,1,0,0:0:0:0:
182,192,32116,1,0,0:0:0:0:
329,192,32252,1,0,0:0:0:0:
109,192,32389,1,0,0:0:0:0:
329,192,32525,1,0,1:0:0:0:
402,192,32525,1,0,1:0:0:0:
402,192,32798,1,0,0:0:0:50:normal-hitclap.wav
402,192,32934,1,0,0:0:0:30:normal-hitclap.wav
329,192,33070,1,0,0:0:0:50:normal-hitclap.wav
329,192,33207,1,0,0:0:0:30:normal-hitclap.wav
182,192,33343,1,0,0:0:0:50:normal-hitclap.wav
182,192,33479,1,0,0:0:0:30:normal-hitclap.wav
109,192,33616,1,0,1:0:0:0:
402,192,33616,1,0,0:0:0:50:normal-hitnormal.wav
109,192,33889,1,0,0:0:0:30:normal-hitnormal.wav
448,192,34025,1,0,0:0:0:30:normal-hitnormal.wav
320,192,34298,1,0,0:0:0:30:normal-hitnormal.wav
36,192,34570,1,0,0:0:0:30:normal-hitnormal.wav
329,192,34707,1,0,1:0:0:30:normal-hitnormal.wav
402,192,34707,128,0,35252:1:0:0:0:
109,192,34843,1,0,0:0:0:30:normal-hitnormal.wav
329,192,34979,1,0,0:0:0:30:normal-hitnormal.wav
182,192,35116,1,0,0:0:0:30:normal-hitnormal.wav
64,192,35252,128,0,35798:0:0:0:40:normal-hitclap.wav
475,192,35798,1,0,3:0:0:30:normal-hitnormal.wav
182,192,35798,1,0,1:0:0:0:
36,192,36207,1,0,3:0:0:30:normal-hitnormal.wav
329,192,36207,1,0,1:0:0:0:
475,192,36616,1,0,3:0:0:30:normal-hitnormal.wav
182,192,36616,1,0,1:0:0:0:
256,192,36889,1,0,1:0:0:0:
402,192,36889,1,0,1:0:0:0:
109,192,36889,1,0,0:0:0:0:
475,192,37161,128,0,37979:0:0:0:0:
36,192,37161,128,0,37979:0:0:0:0:
182,192,37979,128,0,38525:0:0:0:30:normal-hitnormal.wav
256,192,37979,1,0,0:0:0:30:normal-hitnormal.wav
402,192,37979,1,0,0:0:0:30:normal-hitnormal.wav
109,192,38525,1,0,0:0:0:30:normal-hitnormal.wav
320,192,38661,1,0,0:0:0:30:normal-hitnormal.wav
192,192,38934,1,0,0:0:0:0:
402,192,39070,1,0,1:0:0:0:
320,192,39070,1,0,1:0:0:0:
109,192,39207,1,0,0:0:0:0:
256,192,39343,1,0,0:0:0:0:
402,192,39479,1,0,0:0:0:0:
182,192,39616,128,0,40161:0:0:0:8:
475,192,39616,128,0,40161:0:0:0:8:
64,192,40161,1,0,0:0:0:30:normal-hitnormal.wav
256,192,40161,1,0,0:0:0:30:normal-hitnormal.wav
329,192,40298,1,0,0:0:0:0:
109,192,40434,1,0,0:0:0:0:
402,192,40570,1,0,0:0:0:0:
448,192,40707,1,0,0:0:0:0:
402,192,40843,1,0,0:0:0:0:
256,192,40979,1,0,0:0:0:0:
109,192,41116,1,0,0:0:0:0:
320,192,41252,1,0,1:0:0:0:
402,192,41252,1,0,1:0:0:0:
36,192,41389,1,0,0:0:0:0:
182,192,41525,1,0,0:0:0:0:
329,192,41661,1,0,0:0:0:0:
109,192,41798,128,0,42343:0:0:0:35:normal-hitclap.wav
320,192,42343,1,0,0:0:0:50:normal-hitclap.wav
320,192,42616,1,0,0:0:0:50:normal-hitclap.wav
448,192,42889,1,0,0:0:0:0:
109,192,43025,1,0,0:0:0:0:
402,192,43161,1,0,0:0:0:0:
64,192,43298,1,0,0:0:0:0:
329,192,43434,1,0,1:0:0:0:
402,192,43434,1,0,1:0:0:0:
182,192,43570,1,0,0:0:0:0:
109,192,43707,1,0,2:0:0:0:
329,192,43843,1,0,0:0:0:0:
402,192,43979,128,0,44525:0:0:0:30:normal-hitnormal.wav
182,192,44525,1,0,0:0:0:25:normal-hitnormal.wav
329,192,44525,1,0,0:0:0:25:normal-hitnormal.wav
329,192,44934,1,0,0:0:0:25:normal-hitnormal.wav
109,192,44934,1,0,0:0:0:25:normal-hitnormal.wav
329,192,45343,1,0,0:0:0:25:normal-hitnormal.wav
64,192,45343,1,0,0:0:0:25:normal-hitnormal.wav
329,192,45616,1,0,1:0:0:0:
402,192,45616,1,0,1:0:0:0:
182,192,45752,1,0,1:0:0:0:
109,192,45752,1,0,1:0:0:0:
329,192,45889,1,0,0:0:0:0:
109,192,46025,1,0,0:0:0:15:normal-hitnormal.wav
192,192,46161,1,0,0:0:0:15:normal-hitnormal.wav
402,192,46298,1,0,0:0:0:30:normal-hitnormal.wav
329,192,46298,128,0,46570:0:0:0:0:
64,192,46570,1,0,0:0:0:0:
256,192,46707,1,0,1:0:0:0:
182,192,46707,1,0,1:0:0:0:
402,192,46707,1,0,0:0:0:0:
36,192,46979,1,0,0:0:0:0:
320,192,47252,1,0,1:0:0:0:
402,192,47252,1,0,1:0:0:0:
36,192,47525,1,0,0:0:0:30:normal-hitnormal.wav
256,192,47661,1,0,0:0:0:40:normal-hitnormal.wav
402,192,47661,1,0,0:0:0:0:
475,192,47934,1,0,0:0:0:30:normal-hitnormal.wav
256,192,48070,1,0,0:0:0:40:normal-hitnormal.wav
109,192,48070,1,0,0:0:0:0:
320,192,48343,1,0,1:0:0:0:
402,192,48343,1,0,0:0:0:0:
109,192,48889,1,0,0:0:0:40:normal-hitnormal.wav
182,192,48889,128,0,49434:0:0:0:0:
329,192,49434,1,0,1:0:0:0:
402,192,49434,1,0,1:0:0:0:
475,192,49979,1,0,0:0:0:30:normal-hitnormal.wav
402,192,49979,1,0,0:0:0:30:normal-hitnormal.wav
109,192,50252,1,0,0:0:0:30:normal-hitnormal.wav
36,192,50252,1,0,0:0:0:30:normal-hitnormal.wav
402,192,50525,1,0,1:0:0:0:
329,192,50525,1,0,1:0:0:0:
192,192,50661,1,0,0:0:0:0:
329,192,50798,1,0,0:0:0:0:
402,192,50934,1,0,0:0:0:0:
329,192,51070,1,0,1:0:0:0:
182,192,51070,1,0,3:0:0:0:
182,192,51343,1,0,0:0:0:0:
36,192,51343,1,0,0:0:0:0:
329,192,51616,1,0,1:0:0:0:
402,192,51616,1,0,1:0:0:0:
36,192,51889,1,0,0:0:0:25:normal-hitnormal.wav
256,192,52025,1,0,0:0:0:30:normal-hitnormal.wav
109,192,52025,1,0,0:0:0:0:
475,192,52298,1,0,0:0:0:30:normal-hitnormal.wav
256,192,52434,1,0,0:0:0:30:normal-hitnormal.wav
402,192,52434,1,0,0:0:0:0:
329,192,52707,1,0,1:0:0:0:
402,192,52707,1,0,1:0:0:0:
320,192,52979,128,0,53252:0:0:0:0:
192,192,53252,128,0,53525:3:0:0:0:
109,192,53525,128,0,54343:0:0:0:0:
329,192,53525,1,0,1:0:0:0:
329,192,53798,1,0,1:0:0:0:
402,192,53798,1,0,1:0:0:0:
182,192,54343,1,0,0:0:0:0:
402,192,54616,128,0,55434:0:0:0:0:
475,192,54616,1,0,0:0:0:0:
182,192,54752,1,0,0:0:0:0:
256,192,54889,1,0,1:0:0:60:
36,192,55434,1,0,0:0:0:0:
182,192,55707,1,0,0:0:0:50:normal-hitnormal.wav
329,192,55979,1,0,1:0:0:0:
402,192,55979,1,0,1:0:0:0:
448,192,56252,1,0,0:0:0:25:normal-hitnormal.wav
256,192,56389,1,0,0:0:0:30:normal-hitnormal.wav
402,192,56389,1,0,0:0:0:0:
64,192,56661,1,0,0:0:0:25:normal-hitnormal.wav
256,192,56798,1,0,0:0:0:30:normal-hitnormal.wav
109,192,56798,1,0,0:0:0:0:
320,192,57070,1,0,1:0:0:0:
402,192,57070,1,0,1:0:0:0:
329,192,57479,1,0,0:0:0:40:normal-hitnormal.wav
329,192,57752,1,0,0:0:0:40:normal-hitnormal.wav
182,192,57889,1,0,0:0:0:40:normal-hitnormal.wav
329,192,58161,128,0,58434:1:0:0:0:
402,192,58161,1,0,1:0:0:0:
402,192,58434,128,0,58707:0:0:0:0:
329,192,58707,128,0,58979:0:0:0:0:
64,192,58707,1,0,0:0:0:40:normal-hitnormal.wav
402,192,58979,128,0,59252:0:0:0:0:
64,192,58979,1,0,0:0:0:40:normal-hitnormal.wav
320,192,59252,128,0,59798:1:0:0:0:
182,192,59252,1,0,1:0:0:0:
109,192,59798,1,0,0:0:0:0:
36,192,60070,1,0,0:0:0:0:
329,192,60343,1,0,1:0:0:0:
402,192,60343,1,0,1:0:0:0:
475,192,60616,1,0,0:0:0:30:normal-hitnormal.wav
256,192,60752,1,0,0:0:0:30:normal-hitnormal.wav
402,192,60752,1,0,0:0:0:0:
36,192,61025,1,0,0:0:0:30:normal-hitnormal.wav
256,192,61161,1,0,0:0:0:30:normal-hitnormal.wav
109,192,61161,1,0,0:0:0:0:
402,192,61434,1,0,1:0:0:0:
329,192,61434,1,0,1:0:0:0:
64,192,61707,1,0,0:0:0:0:
182,192,61979,1,0,3:0:0:0:
329,192,61979,1,0,3:0:0:0:
402,192,62252,1,0,3:0:0:0:
256,192,62252,1,0,3:0:0:0:
320,192,62525,1,0,1:0:0:0:
448,192,62525,1,0,1:0:0:0:
192,192,62661,1,0,0:0:0:0:
402,192,62798,1,0,0:0:0:0:
329,192,62934,1,0,0:0:0:0:
182,192,63070,1,0,0:0:0:0:
109,192,63207,1,0,0:0:0:0:
182,192,63343,1,0,0:0:0:0:
329,192,63479,1,0,0:0:0:0:
109,192,63616,1,0,1:0:0:0:
182,192,63616,1,0,1:0:0:0:
402,192,63752,1,0,1:0:0:0:
329,192,63752,1,0,1:0:0:0:
109,192,63889,1,0,1:0:0:0:
182,192,63889,1,0,1:0:0:0:
402,192,64025,1,0,1:0:0:0:
329,192,64025,1,0,1:0:0:0:
36,192,64161,1,0,0:0:0:30:normal-hitnormal.wav
182,192,64434,1,0,0:0:0:0:
320,192,64707,1,0,1:0:0:0:
192,192,64707,1,0,1:0:0:0:
320,192,64979,1,0,0:0:0:30:normal-hitnormal.wav
64,192,64979,1,0,0:0:0:0:
402,192,65116,1,0,0:0:0:30:normal-hitnormal.wav
109,192,65389,1,0,0:0:0:30:normal-hitnormal.wav
329,192,65525,1,0,0:0:0:30:normal-hitnormal.wav
475,192,65661,1,0,0:0:0:30:normal-hitnormal.wav
329,192,65798,1,0,1:0:0:0:
402,192,65798,1,0,1:0:0:0:
329,192,66343,1,0,0:0:0:0:
182,192,66343,128,0,66889:0:0:0:30:normal-hitclap.wav
402,192,66343,1,0,0:0:0:0:
109,192,66889,1,0,1:0:0:0:
402,192,66889,128,0,67161:1:0:0:0:
329,192,67161,128,0,67434:0:0:0:0:
109,192,67434,1,0,0:0:0:30:normal-hitnormal.wav
402,192,67434,128,0,67707:0:0:0:0:
109,192,67707,1,0,0:0:0:30:normal-hitnormal.wav
329,192,67707,128,0,67979:0:0:0:30:normal-hitnormal.wav
182,192,67979,1,0,1:0:0:0:
475,192,67979,1,0,1:0:0:0:
109,192,68116,1,0,0:0:0:0:
329,192,68252,1,0,0:0:0:0:
182,192,68389,1,0,0:0:0:0:
109,192,68525,1,0,0:0:0:30:normal-hitnormal.wav
36,192,68798,1,0,0:0:0:0:
329,192,69070,1,0,1:0:0:0:
402,192,69070,1,0,1:0:0:0:
475,192,69343,1,0,1:0:0:30:normal-hitnormal.wav
256,192,69479,1,0,0:0:0:30:normal-hitnormal.wav
402,192,69479,1,0,0:0:0:0:
36,192,69752,1,0,0:0:0:30:normal-hitnormal.wav
256,192,69889,1,0,0:0:0:30:normal-hitnormal.wav
109,192,69889,1,0,0:0:0:0:
320,192,70161,1,0,1:0:0:0:
402,192,70161,1,0,1:0:0:0:
475,192,70434,1,0,0:0:0:0:
402,192,70707,1,0,3:0:0:0:
182,192,70707,1,0,0:0:0:0:
329,192,70979,1,0,0:0:0:0:
109,192,70979,1,0,3:0:0:0:
320,192,71252,1,0,1:0:0:0:
402,192,71252,1,0,1:0:0:0:
109,192,71798,1,0,0:0:0:50:normal-hitnormal.wav
256,192,71798,1,0,0:0:0:50:normal-hitnormal.wav
109,192,72207,1,0,0:0:0:50:normal-hitnormal.wav
256,192,72207,1,0,0:0:0:50:normal-hitnormal.wav
402,192,72343,1,0,1:0:0:0:
329,192,72343,1,0,1:0:0:0:
109,192,72889,1,0,0:0:0:0:
64,192,73161,1,0,0:0:0:0:
320,192,73434,1,0,1:0:0:0:
192,192,73434,1,0,1:0:0:0:
402,192,73707,1,0,0:0:0:0:
109,192,73707,1,0,0:0:0:30:normal-hitnormal.wav
256,192,73843,1,0,0:0:0:40:normal-hitnormal.wav
182,192,74116,1,0,0:0:0:30:normal-hitnormal.wav
329,192,74116,1,0,0:0:0:30:normal-hitnormal.wav
475,192,74252,128,0,75070:0:0:0:0:
36,192,74252,128,0,75070:0:0:0:0:
256,192,74525,1,0,1:0:0:100:
329,192,74934,1,0,0:0:0:30:normal-hitnormal.wav
329,192,75207,1,0,0:0:0:30:normal-hitnormal.wav
182,192,75343,1,0,0:0:0:30:normal-hitnormal.wav
320,192,75616,1,0,1:0:0:0:
402,192,75616,1,0,1:0:0:0:
109,192,75889,128,0,76161:0:0:0:30:normal-hitclap.wav
329,192,76161,128,0,76434:0:0:0:30:normal-hitclap.wav
448,192,76434,1,0,0:0:0:30:normal-hitclap.wav
182,192,76570,1,0,0:0:0:30:normal-hitclap.wav
109,192,76707,128,0,76979:0:0:0:30:normal-hitclap.wav
182,192,77252,1,0,0:0:0:25:normal-hitnormal.wav
109,192,77525,1,0,3:0:0:0:
402,192,77798,1,0,1:0:0:0:
320,192,77798,1,0,1:0:0:0:
475,192,78070,1,0,0:0:0:30:normal-hitnormal.wav
256,192,78207,1,0,0:0:0:30:normal-hitnormal.wav
402,192,78207,1,0,0:0:0:0:
64,192,78479,1,0,0:0:0:30:normal-hitnormal.wav
256,192,78616,1,0,0:0:0:30:normal-hitnormal.wav
109,192,78616,1,0,0:0:0:0:
320,192,78889,1,0,1:0:0:0:
402,192,78889,1,0,1:0:0:0:
192,192,79161,1,0,3:0:0:0:
109,192,79434,1,0,1:0:0:0:
64,192,79434,1,0,0:0:0:30:normal-hitnormal.wav
329,192,79707,1,0,1:0:0:70:
182,192,79707,1,0,0:0:0:70:normal-hitnormal.wav
320,192,79979,1,0,1:0:0:0:
402,192,79979,1,0,1:0:0:0:
402,192,80252,1,0,0:0:0:0:
329,192,80389,1,0,0:0:0:0:
109,192,80525,1,0,0:0:0:0:
182,192,80661,1,0,0:0:0:0:
329,192,80798,1,0,0:0:0:0:
182,192,80934,1,0,0:0:0:0:
36,192,81070,1,0,1:0:0:0:
109,192,81070,1,0,1:0:0:0:
402,192,81207,1,0,1:0:0:0:
475,192,81207,1,0,1:0:0:0:
109,192,81343,1,0,1:0:0:0:
36,192,81343,1,0,1:0:0:0:
402,192,81479,1,0,1:0:0:0:
475,192,81479,1,0,1:0:0:0:
109,192,81616,128,0,83252:0:0:0:0:
320,192,81616,1,0,0:0:0:0:
182,192,81616,1,0,0:0:0:0:
402,192,81889,1,0,0:0:0:35:
402,192,82298,1,0,0:0:0:35:
329,192,82434,1,0,0:0:0:35:
329,192,82843,1,0,0:0:0:0:
475,192,82979,1,0,0:0:0:0:
475,192,83389,1,0,0:0:0:0:
402,192,83525,1,0,0:0:0:0:
329,192,83798,128,0,84070:0:0:0:0:
36,192,84070,128,0,84616:0:0:0:0:
109,192,84616,128,0,85161:0:0:0:0:
182,192,85161,128,0,85707:0:0:0:0:
402,192,85707,128,0,86252:0:0:0:0:
320,192,86252,128,0,86798:0:0:0:30:
182,192,86798,128,0,87343:0:0:0:0:
329,192,87343,128,0,87616:0:0:0:0:
109,192,87616,1,0,0:0:0:0:
182,192,87752,1,0,0:0:0:0:
402,192,87889,128,0,88434:0:0:0:0:
109,192,88434,128,0,88979:0:0:0:0:
182,192,88979,128,0,89525:0:0:0:0:
329,192,89525,128,0,90070:0:0:0:0:
182,192,90070,128,0,90343:0:0:0:0:
64,192,90343,1,0,0:0:0:40:normal-hitnormal.wav
402,192,90616,1,0,0:0:0:40:normal-hitnormal.wav
256,192,90616,1,0,0:0:0:40:normal-hitnormal.wav
402,192,91025,1,0,0:0:0:30:normal-hitnormal.wav
256,192,91025,1,0,0:0:0:30:normal-hitnormal.wav
109,192,91707,1,0,0:0:0:30:normal-hitnormal.wav
256,192,91707,1,0,0:0:0:30:normal-hitnormal.wav
109,192,92116,1,0,0:0:0:30:normal-hitnormal.wav
256,192,92116,1,0,0:0:0:30:normal-hitnormal.wav
448,192,92525,128,0,93616:0:0:0:0:
36,192,92798,1,0,0:0:0:0:
109,192,92934,1,0,0:0:0:0:
182,192,93070,1,0,0:0:0:0:
329,192,93207,1,0,0:0:0:0:normal-hitnormal.wav
109,192,93343,1,0,0:0:0:0:
182,192,93479,1,0,0:0:0:0:
329,192,93616,1,0,0:0:0:0:
402,192,93752,1,0,0:0:0:0:normal-hitnormal.wav
109,192,93889,1,0,0:0:0:0:
182,192,94025,1,0,0:0:0:0:
402,192,94161,1,0,0:0:0:0:
475,192,94298,1,0,0:0:0:0:normal-hitnormal.wav
182,192,94434,1,0,0:0:0:0:
329,192,94570,1,0,0:0:0:0:
402,192,94707,1,0,0:0:0:0:
448,192,94843,1,0,0:0:0:0:
36,192,94979,1,0,0:0:0:0:
109,192,95116,1,0,0:0:0:0:
182,192,95252,1,0,0:0:0:0:
329,192,95389,1,0,0:0:0:0:
475,192,95525,1,0,0:0:0:0:
402,192,95661,1,0,0:0:0:0:
329,192,95798,1,0,0:0:0:0:
109,192,95934,128,0,96479:0:0:0:30:normal-hitclap.wav
256,192,95934,1,0,0:0:0:0:
402,192,96752,128,0,97298:0:0:0:30:normal-hitclap.wav
256,192,96752,1,0,0:0:0:0:
109,192,97570,128,0,97843:0:0:0:30:normal-hitclap.wav
256,192,97570,1,0,0:0:0:0:
329,192,97843,128,0,98116:0:0:0:0:
182,192,98116,128,0,98389:0:0:0:0:
109,192,98389,1,0,0:0:0:0:
329,192,98525,1,0,0:0:0:35:
475,192,98661,1,0,0:0:0:35:
