osu file format v5

[General]
AudioFilename: Tokio Hotel - Monsoon.mp3
AudioLeadIn: 0
PreviewTime: -1
Countdown: 1
SampleSet: Normal
StackLeniency: 0.7
Mode: 0
LetterboxInBreaks: 1

[Metadata]
Title:Monsoon
Artist:Tokio Hotel
Creator:Agent_J
Version:Easy
Source:
Tags:

[Difficulty]
HPDrainRate:7
CircleSize:3
OverallDifficulty:7
SliderMultiplier:1
SliderTickRate:4

[Events]
//Background and Video events
0,0,"Sunset.jpg"
//Break Periods
2,22831,25213
2,133179,136096
2,182191,188056
//Storyboard Layer 0 (Background)
//Storyboard Layer 1 (Failing)
//Storyboard Layer 2 (Passing)
//Storyboard Layer 3 (Foreground)
//Storyboard Sound Samples
//Background Colour Transformations
3,100,163,162,255

[TimingPoints]
0,535.666458351933,4,1,0,100,1

[HitObjects]
256,192,8972,1,14
224,160,9775,1,14
192,224,10847,1,14
96,224,13257,6,14,B|288:224,3,175
288,224,17275,1,2
384,224,19417,5,2
288,224,20489,1,2
224,224,21560,1,2
224,160,22364,1,2
224,160,22631,1,2
256,192,26113,5,2
192,224,26917,1,2
224,256,27988,1,2
288,128,30399,5,2
224,128,31202,1,2
224,224,32273,1,2
96,192,34684,5,2
160,256,35487,1,2
160,256,35755,1,2
256,288,36559,1,2
160,192,37630,1,2
224,192,38701,5,2
224,192,39103,1,2
224,192,39505,1,2
160,128,42049,6,2,B|416:352,1,325
96,128,44728,2,2,B|320:128|384:288|256:352,1,400
128,96,47406,2,2,B|288:96|512:256|512:288,1,425
192,192,51825,1,2
32,192,52897,5,2
128,192,53566,1,2
224,352,54905,1,2
128,192,56111,1,2
192,288,56914,1,2
160,224,57450,1,2
160,224,57985,1,2
32,64,59325,1,2
128,160,60262,1,2
256,128,61065,1,2
320,192,61735,1,2
288,256,62271,1,2
224,192,64681,5,2
288,256,66824,1,2
480,288,68967,1,2
352,224,69770,1,2
352,224,70574,5,2
320,288,71109,1,2
128,192,72582,2,2,B|256:128|384:224,1,250
256,224,74591,2,2,B,3,100
64,128,77135,2,2,B|416:256,1,350
64,192,81019,1,2
96,224,81555,1,2
256,192,83563,5,2
352,256,84233,1,2
352,256,84903,1,2
288,256,85304,1,2
288,256,85840,1,2
288,192,86376,1,2
288,192,86644,1,2
224,192,88251,5,2
288,192,90393,1,2
288,224,91465,5,2
256,224,92536,1,2
192,192,93607,1,2
224,160,94812,5,2
256,224,95750,1,2
192,224,96687,1,2
160,160,97893,1,2
256,192,98964,5,2
160,160,100035,1,2
192,256,101107,1,2
224,224,102178,5,2
288,224,103249,1,2
352,224,104454,1,2
416,256,105392,1,2
96,192,107535,6,2,B|224:352,1,200
160,160,109275,2,2,B|480:320,1,350
384,96,112489,2,2,B|160:288,1,275
128,160,114900,2,2,B|384:320,1,275
224,192,117578,2,2,B|192:384,3,175
128,256,122131,1,2
256,192,124676,5,2
320,192,125479,1,2
320,128,126551,1,2
192,192,128961,5,2
352,224,129765,1,2
416,192,132041,5,6
320,192,132979,1,6
256,192,136996,5,4
224,128,138335,5,4
288,160,139675,1,4
288,160,140478,1,4
288,224,141817,5,4
224,224,142621,1,4
192,160,143960,1,4
256,160,144629,1,4
494,230,146236,5,4
387,219,146906,1,4
387,219,147174,1,4
285,203,148245,1,4
243,170,149049,1,4
243,170,149317,1,4
338,226,150388,5,4
278,233,151191,1,4
278,233,151459,1,4
244,187,152531,5,4
209,247,153066,1,4
262,273,153602,1,4
282,244,154138,1,4
282,244,154807,5,4
339,279,155477,1,4
339,279,155745,1,4
244,152,156816,1,4
211,220,157619,1,4
211,220,157887,1,4
292,244,158959,5,4
276,128,159628,1,4
276,128,159896,1,4
177,177,161101,1,4
243,223,161637,1,4
294,204,162173,1,4
302,237,162574,1,4
192,218,163244,1,4
83,150,164583,6,4,B|504:261|298:337|152:268|144:261,1,450
158,188,169806,1,4
230,281,170609,1,4
168,199,171279,1,4
122,257,171815,1,4
497,120,173957,5,6
322,170,174761,1,6
299,243,175564,1,6
348,271,176100,1,6
445,264,178243,5,4
118,142,180117,6,4,B|343:298|381:48,1,350
257,189,188956,5,4
193,191,189759,1,4
214,256,190563,1,4
272,259,191099,1,4
263,212,191902,1,4
211,162,192706,1,4
193,265,193241,1,4
247,268,194045,5,4
274,179,194848,1,4
308,224,195384,1,4
308,224,196053,5,4
372,272,196991,1,4
349,216,197527,1,4
291,228,198196,1,4
256,192,200339,12,4,203955
80,206,205829,5,4
279,230,207169,1,4
238,187,207972,1,4
153,253,208508,1,4
188,274,209043,1,4
188,274,209579,1,4
260,276,210115,1,4
228,184,210650,1,4
164,228,211186,1,4
239,284,211990,1,4
239,284,212525,1,4
43,147,215337,6,4,B|221:284|436:174|360:24,1,450
180,245,220024,1,4
140,190,220828,1,4
204,197,221364,1,4
41,172,222569,6,4,B|198:263|308:68|240:20|169:138,2,425
17,202,228997,5,4
84,228,229131,1,4
