osu file format v14

[General]
AudioFilename: moezomi.mp3
AudioLeadIn: 500
PreviewTime: 142204
Countdown: 0
SampleSet: Soft
StackLeniency: 0.8
Mode: 0
LetterboxInBreaks: 0
WidescreenStoryboard: 0

[Editor]
Bookmarks: 163583,208411
DistanceSpacing: 1.8
BeatDivisor: 4
GridSize: 4
TimelineZoom: 1.6

[Metadata]
Title:Moshimo kara Kitto
TitleUnicode:もしもからきっと
Artist:Tojo Nozomi(CV.Kusuda Aina)
ArtistUnicode:東條希(CV.楠田亜衣奈)
Creator:Sekai-nyan
Version:My Wish
Source:
Tags:Hata Aki ラブライブ! Love Live School Idol project Toujou Kussun marathon
BeatmapID:647450
BeatmapSetID:286828

[Difficulty]
HPDrainRate:6
CircleSize:4
OverallDifficulty:6
ApproachRate:7
SliderMultiplier:1.6
SliderTickRate:2

[Events]
//Background and Video events
0,0,"moe.png",0,0
//Break Periods
//Storyboard Layer 0 (Background)
//Storyboard Layer 1 (Fail)
//Storyboard Layer 2 (Pass)
//Storyboard Layer 3 (Foreground)
//Storyboard Sound Samples

[TimingPoints]
1515,689.655172413793,3,2,2,70,1,0
19101,-100,3,2,3,50,0,0
19273,-100,3,2,2,50,0,0
55652,-100,3,2,2,70,0,0
57377,-100,3,2,1,80,0,1
57549,-100,3,2,2,80,0,1
61514,-100,3,2,1,80,0,1
61687,-100,3,2,2,80,0,1
73928,-100,3,2,1,80,0,1
74101,-100,3,2,2,80,0,1
82204,-100,3,2,1,50,0,1
82377,-100,3,2,2,80,0,1
84273,-100,3,2,1,80,0,1
84446,-100,3,2,2,80,0,1
88411,-100,3,2,1,80,0,1
88583,-100,3,2,2,70,0,1
90480,-100,3,2,1,80,0,1
90652,-100,3,2,2,80,0,1
92549,-100,3,2,2,50,0,0
107032,-100,3,2,1,50,0,0
107204,-100,3,2,2,50,0,0
123583,-100,3,2,1,50,0,0
123756,-100,3,2,2,50,0,0
139101,-100,3,2,3,40,0,0
139273,-100,3,2,2,70,0,0
142204,-100,3,2,1,80,0,1
142377,-100,3,2,2,80,0,1
145308,-100,3,2,3,50,0,1
145480,-100,3,2,2,80,0,1
149446,-100,3,2,3,50,0,1
149618,-100,3,2,2,80,0,1
150480,-100,3,2,1,50,0,1
150652,-100,3,2,2,80,0,1
153583,-100,3,2,3,50,0,1
153756,-100,3,2,2,80,0,1
154618,-100,3,2,1,80,0,1
154790,-100,3,2,2,80,0,1
156687,-100,3,2,1,80,0,1
156859,-100,3,2,2,80,0,1
157721,-100,3,2,3,50,0,1
157894,-100,3,2,2,80,0,1
158756,-100,3,2,1,80,0,1
158928,-100,3,2,2,80,0,1
161859,-100,3,2,3,50,0,1
162032,-100,3,2,2,80,0,1
164963,-100,3,2,1,80,0,1
165135,-100,3,2,2,80,0,1
165997,-100,3,2,3,50,0,1
166170,-100,3,2,2,80,0,1
167032,-100,3,2,1,80,0,1
167204,-100,3,2,2,80,0,1
173928,-100,3,2,2,70,0,1
175308,-100,3,2,1,80,0,1
175480,-100,3,2,2,80,0,1
177377,-100,3,2,2,70,0,0
179446,-100,3,2,1,70,0,0
179618,-100,3,2,2,70,0,0
183583,-100,3,2,1,70,0,0
183756,-100,3,2,2,70,0,0
208411,-100,3,2,1,70,0,0
208583,-100,3,2,2,70,0,0
224963,-100,3,2,1,70,0,0
225135,-100,3,2,2,70,0,0
232204,-100,3,2,3,50,0,0
232377,-100,3,2,2,70,0,0
236342,-100,3,2,3,50,0,0
236514,-100,3,2,2,70,0,0
240480,-100,3,2,3,50,0,0
240652,-100,3,2,2,70,0,0
242549,-100,3,2,3,50,0,0
242721,-100,3,2,2,50,0,0
254963,-100,3,2,3,30,0,0
255135,-100,3,2,2,50,0,0
259446,-100,3,2,2,70,0,0
260135,-100,3,2,1,80,0,1
260308,-100,3,2,2,80,0,1
263239,-100,3,2,3,50,0,1
263411,-100,3,2,2,80,0,1
267377,-100,3,2,3,50,0,1
267549,-100,3,2,2,80,0,1
271514,-100,3,2,3,50,0,1
271687,-100,3,2,2,80,0,1
276342,-100,3,2,1,80,0,1
276859,-100,3,2,2,80,0,1
279790,-100,3,2,3,50,0,1
279963,-100,3,2,2,80,0,1
283928,-100,3,2,3,50,0,1
284101,-100,3,2,2,80,0,1
291859,-100,3,2,2,70,0,1
293239,-100,3,2,2,40,0,0
295997,745.340740740742,3,2,2,40,1,0
297487,638.297872340426,3,2,2,35,1,0
297487,-117.647058823529,3,2,2,35,0,0
297806,681.818181818182,3,2,2,35,1,0
298146,681.818181818182,3,2,2,35,1,0
298486,720.720720720721,3,2,2,35,1,0
299206,845.070422535211,3,2,2,35,1,0
299628,666.666666666667,3,2,2,35,1,0
300294,631.578947368421,3,2,2,35,1,0
300609,705.882352941176,3,2,2,35,1,0
300961,740.740740740741,3,2,2,35,1,0
301331,937.5,3,2,2,35,1,0
301799,685.714285714286,3,2,2,35,1,0
302141,600,3,2,2,35,1,0
302291,-100,3,2,2,35,0,0
302441,652.173913043478,3,2,2,35,1,0
302767,697.674418604651,3,2,2,35,1,0
303464,810.810810810811,3,2,2,35,1,0
303666,-100,3,2,2,35,0,0
303869,909.090909090909,3,2,2,35,1,0
304323,1224.48979591837,3,2,2,35,1,0
304935,1602.13618157543,3,2,2,35,1,0
305736,2758.62068965517,3,2,2,10,1,0
305736,-100,3,2,2,10,0,0
307115,-100,3,2,2,5,0,0

[Colours]
Combo1 : 195,195,229
Combo2 : 140,72,159
Combo3 : 151,151,255
SliderBorder : 151,83,157

[HitObjects]
256,192,1515,12,2,2894,0:0:0:0:
256,272,3239,5,2,0:0:0:0:
256,272,3583,2,0,P|224:200|256:120,1,160,4|0,0:3|0:0,0:0:0:0:
400,200,4618,1,8,0:0:0:0:
400,200,4963,2,0,L|488:244,1,80,2|0,0:0|0:0,0:0:0:0:
432,108,5652,2,0,P|352:108|296:44,1,160,4|0,0:3|0:0,0:0:0:0:
188,88,6687,1,4,2:1:0:0:
188,88,7032,2,0,L|104:64,1,80,2|0,0:0|0:0,0:0:0:0:
48,144,7721,6,0,L|206:189,1,160,4|0,3:0|0:0,0:0:0:0:
284,224,8756,1,8,0:0:0:0:
313,318,9101,2,0,P|348:300|372:268,1,80,2|0,0:0|0:0,0:0:0:0:
472,244,9790,1,4,3:0:0:0:
432,156,10135,1,0,0:0:0:0:
432,156,10480,2,0,L|340:140,1,80,0|4,0:0|2:1,0:0:0:0:
256,80,11170,1,0,0:0:0:0:
164,28,11514,1,2,0:0:0:0:
256,80,11859,6,0,P|180:132|108:120,1,160,4|0,3:0|0:0,0:0:0:0:
28,192,12894,2,0,L|112:344,1,160,2|2,0:0|0:0,0:0:0:0:
240,328,13928,2,0,L|162:187,1,160,2|2,0:0|0:0,0:0:0:0:
256,128,14963,1,4,2:1:0:0:
352,192,15308,2,0,P|396:192|436:164,1,80,2|0,0:0|0:0,0:0:0:0:
328,72,15997,6,0,P|256:44|176:80,1,160,4|2,3:0|0:0,0:0:0:0:
128,168,17032,1,8,0:0:0:0:
128,168,17377,2,0,P|92:140|80:92,1,80,2|0,0:0|0:0,0:0:0:0:
224,192,18066,2,0,P|186:246|87:259,1,160,4|0,3:0|0:0,0:0:0:0:
128,168,19101,2,0,L|292:140,1,160,2|2,0:0|0:0,0:0:0:0:
256,192,19963,12,2,21170,0:0:0:0:
256,68,21514,5,2,0:0:0:0:
336,140,21859,1,2,0:0:0:0:
208,168,22204,6,0,P|128:172|72:100,1,160,2|0,0:0|0:0,0:0:0:0:
156,52,23239,1,8,0:0:0:0:
156,52,23583,2,0,L|236:24,1,80,0|2,0:0|0:0,0:0:0:0:
256,116,24273,2,0,L|420:58,1,160,2|0,0:0|0:0,0:0:0:0:
508,52,25308,1,8,0:0:0:0:
476,144,25652,2,0,P|480:188|464:236,1,80
512,296,26342,6,0,P|464:264|356:304,1,160,2|2,0:0|0:0,0:0:0:0:
308,352,27377,1,8,0:0:0:0:
260,264,27721,2,0,L|176:240,1,80,0|2,0:0|0:0,0:0:0:0:
100,168,28411,2,0,P|88:128|152:28,1,160,2|0,0:0|0:0,0:0:0:0:
224,88,29446,1,4,2:1:0:0:
224,88,29790,2,0,P|260:88|304:60,1,80,2|0,0:0|0:0,0:0:0:0:
392,104,30480,6,0,L|392:272,1,160,2|0,0:0|0:0,0:0:0:0:
348,356,31514,1,8,0:0:0:0:
272,288,31859,2,0,P|220:276|188:280,1,80,0|2,0:0|0:0,0:0:0:0:
104,344,32549,2,0,P|56:296|64:204,1,160,2|0,0:0|0:0,0:0:0:0:
132,132,33583,1,8,0:0:0:0:
224,56,33928,2,0,L|224:144,1,80,2|0,0:0|0:0,0:0:0:0:
344,228,34618,6,0,P|352:300|432:352,1,160,2|0,0:0|0:0,0:0:0:0:
456,240,35652,1,8,0:0:0:0:
456,240,35997,2,0,L|476:148,1,80,0|2,0:0|0:0,0:0:0:0:
392,48,36687,2,0,L|358:204,1,160,2|2,0:0|0:0,0:0:0:0:
236,256,37721,2,0,L|269:99,1,160,4|2,2:1|0:0,0:0:0:0:
80,192,38756,6,0,P|68:264|112:344,1,160,2|2,0:0|0:0,0:0:0:0:
180,248,39790,1,8,0:0:0:0:
152,144,40135,2,0,P|116:116|64:112,1,80,0|2,0:0|0:0,0:0:0:0:
180,248,40825,2,0,L|340:296,1,160,2|2,0:0|0:0,0:0:0:0:
424,328,41859,1,8,0:0:0:0:
472,244,42204,2,0,P|488:200|488:160,1,80,0|2,0:0|0:0,0:0:0:0:
368,136,42894,6,0,P|292:108|264:40,1,160,2|2,0:0|0:0,0:0:0:0:
152,48,43928,2,0,L|184:212,1,160,8|2,0:0|0:0,0:0:0:0:
92,228,44963,2,0,L|76:136,2,80,2|0|2,0:0|0:0|0:0,0:0:0:0:
136,316,45997,2,0,P|188:304|280:348,1,160,4|2,2:1|0:0,0:0:0:0:
388,328,47032,6,0,L|436:252,1,80,2|0,0:0|0:0,0:0:0:0:
416,148,47721,1,0,0:0:0:0:
344,64,48066,1,8,0:0:0:0:
416,148,48411,1,0,0:0:0:0:
292,192,48756,1,2,0:0:0:0:
344,64,49101,1,2,0:0:0:0:
184,64,49446,5,0,0:0:0:0:
184,64,49790,2,0,B|136:64|136:64|96:44,1,80,0|8,0:0|0:0,0:0:0:0:
20,192,50480,2,0,B|68:192|68:192|108:212,1,80,2|0,0:0|0:0,0:0:0:0:
184,288,51170,2,0,P|256:280|336:312,1,160,2|2,0:0|0:0,0:0:0:0:
428,344,52204,1,8,0:0:0:0:
428,344,52549,2,0,P|448:304|448:264,1,80,0|2,0:0|0:0,0:0:0:0:
488,160,53239,6,0,P|400:140|356:76,1,160,2|2,0:0|0:0,0:0:0:0:
256,40,54273,1,4,2:1:0:0:
256,148,54618,2,0,L|256:228,1,80,2|2,0:0|0:0,0:0:0:0:
256,40,55308,5,4,2:1:0:0:
148,92,55652,2,0,P|80:100|16:176,1,160,4|4,3:0|3:0,0:0:0:0:
24,280,56687,1,2,0:0:0:0:
144,352,57032,1,2,0:0:0:0:
164,216,57377,5,4,0:0:0:0:
256,304,57721,2,0,P|296:312|348:296,1,80
436,332,58411,2,0,P|432:256|368:196,1,160,8|2,0:0|0:0,0:0:0:0:
256,176,59446,2,0,L|256:84,1,80,2|0,0:0|0:0,0:0:0:0:
136,40,60135,2,0,L|136:120,1,80,0|4,0:0|2:1,0:0:0:0:
176,248,60825,1,2,0:0:0:0:
256,348,61170,1,2,0:0:0:0:
336,248,61514,5,2,0:0:0:0:
160,332,61859,2,0,P|122:315|92:262,1,80
64,164,62549,1,8,0:0:0:0:
64,164,62894,2,0,L|96:68,1,80,0|2,0:0|0:0,0:0:0:0:
172,16,63583,2,0,L|172:184,1,160,2|2,0:0|0:0,0:0:0:0:
300,276,64618,2,0,L|300:116,1,160,4|0,2:1|0:0,0:0:0:0:
396,192,65652,5,2,0:0:0:0:
396,192,65997,2,0,L|396:284,2,80,0|0|8,0:0|0:0|0:0,0:0:0:0:
456,84,67032,2,0,B|420:104|420:104|372:104,1,80,0|2,0:0|0:0,0:0:0:0:
292,60,67721,1,2,0:0:0:0:
204,136,68066,1,2,0:0:0:0:
204,136,68411,2,0,L|164:216,1,80,0|4,0:0|2:1,0:0:0:0:
256,344,69101,2,0,L|256:256,1,80,2|2,0:0|0:0,0:0:0:0:
204,136,69790,6,0,P|124:120|44:160,1,160,2|2,0:0|0:0,0:0:0:0:
12,248,70825,1,8,0:0:0:0:
92,336,71170,1,2,0:0:0:0:
136,220,71514,1,0,0:0:0:0:
92,336,71859,2,0,P|164:352|248:296,1,160,2|2,0:0|0:0,0:0:0:0:
248,208,72894,1,4,2:1:0:0:
340,256,73239,2,0,L|424:288,1,80,2|2,0:0|0:0,0:0:0:0:
320,156,73928,6,0,P|248:120|172:168,1,160,4|2,0:0|0:0,0:0:0:0:
152,256,74963,1,8,0:0:0:0:
152,256,75308,2,0,P|112:236|88:188,1,80,2|0,0:0|0:0,0:0:0:0:
256,208,75997,2,0,L|256:292,1,80,2|0,0:0|0:0,0:0:0:0:
348,188,76687,2,0,L|348:104,1,80,2|0,0:0|0:0,0:0:0:0:
256,40,77377,1,2,0:0:0:0:
192,124,77721,1,2,0:0:0:0:
256,40,78066,6,0,P|176:24|104:68,1,160,2|2,0:0|0:0,0:0:0:0:
56,152,79101,1,8,0:0:0:0:
108,256,79446,2,0,L|200:268,1,80,0|2,0:0|0:0,0:0:0:0:
336,180,80135,2,0,L|168:158,1,160,2|2,0:0|0:0,0:0:0:0:
256,72,81170,2,0,L|414:92,1,160,4|2,2:1|0:0,0:0:0:0:
480,228,82204,5,4,0:0:0:0:
396,328,82549,1,2,0:0:0:0:
480,228,82894,2,0,P|432:220|380:236,1,80,0|2,0:0|0:0,0:0:0:0:
256,328,83583,1,0,0:0:0:0:
256,196,83928,1,2,0:0:0:0:
256,328,84273,6,0,L|176:312,1,80,2|0,0:0|0:0,0:0:0:0:
76,288,84963,1,2,0:0:0:0:
168,192,85308,1,4,2:1:0:0:
80,116,85652,1,0,0:0:0:0:
208,68,85997,1,2,0:0:0:0:
168,192,86342,6,0,P|240:192|284:108,1,160,2|2,0:0|0:0,0:0:0:0:
208,68,87377,2,0,L|388:96,1,160,2|2,0:0|0:0,0:0:0:0:
488,192,88411,5,4,0:0:0:0:
420,320,88756,1,0,0:0:0:0:
352,220,89101,2,0,L|352:184,3,26.6666666666667,0|0|0|0,3:0|3:0|3:0|3:0,0:0:0:0:
240,284,89790,2,0,P|180:292|140:316,1,80,0|0,0:0|3:0,0:0:0:0:
104,216,90480,2,0,P|84:176|120:56,1,160,4|2,0:0|0:0,0:0:0:0:
204,112,91514,1,8,0:0:0:0:
256,192,91859,2,0,P|304:176|344:152,1,80,2|2,0:0|0:0,0:0:0:0:
448,192,92549,2,0,P|448:264|464:360,1,160,2|2,0:0|0:0,0:0:0:0:
344,332,93583,1,4,2:1:0:0:
344,332,93928,2,0,P|284:320|248:324,1,80,2|2,0:0|0:0,0:0:0:0:
164,344,94618,6,0,P|128:304|116:196,1,160,2|2,0:0|0:0,0:0:0:0:
172,120,95652,1,8,0:0:0:0:
172,120,95997,2,0,L|112:64,1,80,0|2,0:0|0:0,0:0:0:0:
256,160,96687,2,0,P|332:148|392:80,1,160,2|2,0:0|0:0,0:0:0:0:
472,156,97721,1,4,2:1:0:0:
472,272,98066,1,2,0:0:0:0:
364,216,98411,1,2,0:0:0:0:
472,272,98756,5,2,0:0:0:0:
360,340,99101,1,2,0:0:0:0:
268,304,99446,2,0,B|268:288|256:268|256:268|264:240|256:212,1,80,2|8,0:0|0:0,0:0:0:0:
164,240,100135,1,2,0:0:0:0:
168,340,100480,1,2,0:0:0:0:
168,340,100825,2,0,B|128:360|88:337|48:320|-4:340,1,160,2|2,0:0|0:0,0:0:0:0:
52,224,101859,1,4,2:1:0:0:
136,164,102204,1,2,0:0:0:0:
52,224,102549,1,2,0:0:0:0:
48,88,102894,6,0,P|108:52|204:68,1,160,2|2,0:0|0:0,0:0:0:0:
256,144,103928,1,4,0:0:0:0:
328,60,104273,1,2,0:0:0:0:
412,120,104618,1,2,0:0:0:0:
344,208,104963,5,2,0:0:0:0:
392,312,105308,1,4,3:0:0:0:
392,312,105480,1,0,0:0:0:0:
392,312,105652,2,0,L|368:356,1,40,4|0,3:0|0:0,0:0:0:0:
292,272,105997,2,0,L|292:324,1,40,4|0,2:1|0:0,0:0:0:0:
203,339,106342,2,0,L|184:304,1,40,4|0,3:0|0:0,0:0:0:0:
92,264,106687,2,0,L|132:228,1,40,4|0,3:0|0:0,0:0:0:0:
112,146,107032,6,0,P|151:153|184:176,1,80,4|0,0:0|0:0,0:0:0:0:
292,192,107721,2,0,P|336:176|372:144,1,80,0|8,0:0|0:0,0:0:0:0:
412,72,108411,1,0,0:0:0:0:
472,152,108756,1,2,0:0:0:0:
412,72,109101,2,0,P|368:80|240:16,1,160,2|0,0:0|0:0,0:0:0:0:
160,52,110135,1,8,0:0:0:0:
84,136,110480,2,0,P|56:100|52:52,1,80,0|2,0:0|0:0,0:0:0:0:
192,152,111170,6,0,P|196:220|124:288,1,160,2|2,0:0|0:0,0:0:0:0:
200,364,112204,2,0,L|364:336,1,160,8|2,0:0|0:0,0:0:0:0:
392,244,113239,2,0,L|284:264,1,80,2|2,0:0|0:0,0:0:0:0:
340,168,113928,2,0,L|418:153,1,80,2|4,0:0|2:1,0:0:0:0:
360,68,114618,1,0,0:0:0:0:
256,96,114963,1,0,0:0:0:0:
340,168,115308,6,0,P|268:208|192:188,1,160,2|2,0:0|0:0,0:0:0:0:
100,144,116342,1,8,0:0:0:0:
24,244,116687,1,0,0:0:0:0:
152,288,117032,1,2,0:0:0:0:
100,144,117377,2,0,P|48:128|0:132,1,80,2|2,0:0|0:0,0:0:0:0:
152,288,118066,2,0,P|204:304|252:300,1,80,2|8,0:0|0:0,0:0:0:0:
324,244,118756,1,0,0:0:0:0:
380,332,119101,1,2,0:0:0:0:
380,332,119446,6,0,L|512:216,1,160,2|2,0:0|0:0,0:0:0:0:
460,128,120480,1,8,0:0:0:0:
460,128,120825,2,0,P|420:100|364:96,1,80,0|2,0:0|0:0,0:0:0:0:
256,44,121514,2,0,L|292:136,1,80,2|2,0:0|0:0,0:0:0:0:
208,192,122204,2,0,L|176:108,1,80,2|4,0:0|2:1,0:0:0:0:
116,296,122894,1,2,0:0:0:0:
80,188,123239,1,2,0:0:0:0:
216,280,123583,6,0,P|260:264|288:160,1,160,4|2,0:0|0:0,0:0:0:0:
396,140,124618,1,8,0:0:0:0:
312,68,124963,2,0,P|272:68|236:84,1,80,0|2,0:0|0:0,0:0:0:0:
396,140,125652,1,2,0:0:0:0:
464,236,125997,1,2,0:0:0:0:
340,244,126342,1,2,0:0:0:0:
476,140,126687,1,8,0:0:0:0:
340,244,127032,2,0,P|288:232|252:204,1,80,2|0,0:0|0:0,0:0:0:0:
200,136,127721,6,0,P|128:112|48:136,1,160,2|2,0:0|0:0,0:0:0:0:
48,280,128756,2,0,P|123:302|198:278,1,160,8|2,0:0|0:0,0:0:0:0:
308,340,129790,2,0,L|308:164,1,160,2|2,0:0|0:0,0:0:0:0:
412,112,130825,1,4,2:1:0:0:
412,216,131170,2,0,L|412:308,1,80,0|2,0:0|0:0,0:0:0:0:
320,112,131859,6,0,P|272:104|236:112,1,80,2|0,0:0|0:0,0:0:0:0:
144,160,132549,1,0,0:0:0:0:
144,160,132894,2,0,L|88:92,1,80,2|2,0:0|0:0,0:0:0:0:
56,236,133583,1,2,0:0:0:0:
56,236,133928,2,0,P|60:320|136:356,1,160,2|2,0:0|0:0,0:0:0:0:
216,272,134963,1,8,0:0:0:0:
284,160,135308,1,2,0:0:0:0:
352,272,135652,1,2,0:0:0:0:
284,160,135997,6,0,P|288:108|316:68,1,80,2|0,0:0|0:0,0:0:0:0:
440,252,136687,2,0,P|436:304|408:344,1,80,2|8,0:0|0:0,0:0:0:0:
256,304,137377,1,2,0:0:0:0:
204,188,137721,1,2,0:0:0:0:
256,304,138066,6,0,B|200:312|176:284|140:264|76:288,1,160,2|2,0:0|0:0,0:0:0:0:
100,103,139101,2,0,B|140:120|176:100|200:72|256:80,1,160,2|2,0:0|0:0,0:0:0:0:
392,192,140135,6,0,P|404:236|404:276,1,80,2|4,0:0|3:0,0:0:0:0:
308,192,140825,1,2,0:0:0:0:
476,192,141170,1,4,3:0:0:0:
308,192,141514,1,4,3:0:0:0:
392,80,141859,1,4,3:0:0:0:
256,104,142204,6,0,P|216:96|164:108,1,80,4|0,0:0|0:0,0:0:0:0:
80,160,142894,1,0,0:0:0:0:
80,160,143239,2,0,L|16:92,1,80,8|0,0:0|0:0,0:0:0:0:
36,256,143928,1,2,0:0:0:0:
36,256,144273,2,0,P|72:280|184:240,1,160,2|0,0:0|0:0,0:0:0:0:
256,188,145308,1,2,0:0:0:0:
340,276,145652,1,2,0:0:0:0:
372,140,145997,1,2,0:0:0:0:
256,284,146342,6,0,P|292:348|388:348,1,160,2|2,0:0|0:0,0:0:0:0:
468,316,147377,1,8,0:0:0:0:
452,220,147721,2,0,L|368:168,1,80,2|2,0:0|0:0,0:0:0:0:
292,128,148411,2,0,B|256:116|228:132|228:132|188:88|128:96,1,160,2|2,0:0|0:0,0:0:0:0:
148,204,149446,2,0,P|140:276|192:352,1,160,2|2,0:0|0:0,0:0:0:0:
352,276,150480,5,4,0:0:0:0:
384,160,150825,2,0,P|340:148|288:160,1,80
180,132,151514,1,2,0:0:0:0:
148,248,151859,2,0,P|192:260|244:248,1,80,0|2,0:0|0:0,0:0:0:0:
180,132,152549,2,0,P|130:126|39:196,1,160,2|2,0:0|0:0,0:0:0:0:
148,248,153583,1,2,0:0:0:0:
256,336,153928,1,2,0:0:0:0:
364,248,154273,1,2,0:0:0:0:
148,248,154618,6,0,L|96:328,1,80,2|2,0:0|0:0,0:0:0:0:
256,336,155308,2,0,L|256:244,1,80,2|8,0:0|0:0,0:0:0:0:
364,248,155997,2,0,L|416:328,1,80,2|2,0:0|0:0,0:0:0:0:
452,192,156687,1,2,0:0:0:0:
376,92,157032,1,2,0:0:0:0:
304,192,157377,1,2,0:0:0:0:
456,92,157721,2,0,P|440:48|408:20,1,80,2|2,0:0|0:0,0:0:0:0:
300,100,158411,2,0,P|256:116|228:148,1,80,2|4,0:0|0:0,0:0:0:0:
144,240,159101,5,0,0:0:0:0:
144,240,159446,2,0,L|56:192,1,80,2|8,0:0|0:0,0:0:0:0:
112,332,160135,1,2,0:0:0:0:
228,272,160480,1,0,0:0:0:0:
112,332,160825,2,0,P|172:368|272:352,1,160,2|2,0:0|0:0,0:0:0:0:
228,272,161859,1,2,0:0:0:0:
356,292,162204,1,2,0:0:0:0:
304,176,162549,1,2,0:0:0:0:
436,264,162894,6,0,P|440:304|420:352,1,80,2|0,0:0|0:0,0:0:0:0:
216,192,163583,2,0,P|212:152|232:104,1,80,0|8,0:0|0:0,0:0:0:0:
304,176,164273,1,2,0:0:0:0:
360,264,164618,1,2,0:0:0:0:
256,268,164963,2,0,P|184:272|132:188,1,160,2|2,0:0|0:0,0:0:0:0:
264,96,165997,2,0,P|336:92|388:176,1,160,2|2,0:0|0:0,0:0:0:0:
472,248,167032,6,0,P|432:320|328:340,1,160,2|2,0:0|0:0,0:0:0:0:
260,288,168066,2,0,L|88:312,1,160,8|2,0:0|0:0,0:0:0:0:
152,192,169101,1,2,0:0:0:0:
96,92,169446,1,0,0:0:0:0:
152,192,169790,2,0,P|104:208|68:200,1,80,2|4,0:0|2:1,0:0:0:0:
192,104,170480,2,0,P|240:88|276:96,1,80,0|2,0:0|0:0,0:0:0:0:
420,192,171170,6,0,P|344:188|280:260,1,160,2|2,0:0|0:0,0:0:0:0:
424,272,172204,2,0,L|435:112,1,160,8|2,0:0|0:0,0:0:0:0:
435,112,173239,1,2,0:0:0:0:
256,28,173583,5,4,3:0:0:0:
160,84,173928,2,0,L|128:60,3,26.6666666666667,0|0|0|0,0:0|0:0|0:0|1:0,0:0:0:0:
268,140,174618,2,0,P|260:176|228:208,1,80,0|0,0:0|3:0,0:0:0:0:
132,256,175308,6,0,P|84:264|28:360,1,160,4|0,0:0|0:0,0:0:0:0:
200,320,176342,1,2,0:0:0:0:
200,320,176687,2,0,L|256:256,1,80,2|0,0:0|0:0,0:0:0:0:
256,112,177377,2,0,L|203:172,1,80,4|4,3:0|3:0,0:0:0:0:
384,148,178066,2,0,B|424:148|424:148|464:116,1,80,2|4,0:0|2:1,0:0:0:0:
456,276,178756,2,0,B|424:251|424:251|384:251,1,80,2|2,0:0|0:0,0:0:0:0:
256,316,179446,6,0,P|184:300|112:348,1,160,4|0,0:0|0:0,0:0:0:0:
52,264,180480,2,0,B|28:208|28:208|28:92,1,160,8|2,0:0|0:0,0:0:0:0:
168,20,181514,2,0,B|192:76|192:76|192:192,1,160,2|0,0:0|0:0,0:0:0:0:
256,292,182549,1,4,2:1:0:0:
324,168,182894,1,2,0:0:0:0:
400,280,183239,1,2,0:0:0:0:
244,188,183583,6,0,P|244:144|340:88,1,160,4|0,0:0|0:0,0:0:0:0:
408,192,184618,2,0,L|424:272,1,80,8|0,0:0|0:0,0:0:0:0:
388,100,185308,1,0,0:0:0:0:
320,196,185652,2,0,L|353:361,1,160,2|2,0:0|0:0,0:0:0:0:
240,328,186687,2,0,L|208:171,1,160,4|2,2:1|0:0,0:0:0:0:
84,192,187721,2,0,B|68:144|96:108|96:108|80:72|92:28,1,160,2|0,0:0|0:0,0:0:0:0:
152,244,188756,2,0,P|76:276|8:240,1,160,8|2,0:0|0:0,0:0:0:0:
196,168,189790,6,0,L|288:176,2,80,2|0|0,0:0|0:0|0:0,0:0:0:0:
96,156,190825,1,4,2:1:0:0:
164,80,191170,2,0,L|256:88,1,80
368,88,191859,2,0,P|368:132|440:216,1,160,2|2,0:0|0:0,0:0:0:0:
368,328,192894,2,0,B|280:328|280:328|228:328|204:280,1,160,8|2,0:0|0:0,0:0:0:0:
216,160,193928,5,0,0:0:0:0:
256,44,194273,1,0,0:0:0:0:
128,60,194618,1,0,0:0:0:0:
312,120,194963,1,4,2:1:0:0:
128,164,195308,2,0,P|140:208|176:240,1,80,0|2,0:0|0:0,0:0:0:0:
128,60,195997,2,0,P|56:88|24:176,1,160,2|2,0:0|0:0,0:0:0:0:
88,328,197032,2,0,P|160:304|204:220,1,160,8|2,0:0|0:0,0:0:0:0:
256,108,198066,6,0,L|336:68,1,80,2|0,0:0|0:0,0:0:0:0:
472,168,198756,2,0,L|384:160,1,80,2|4,0:0|2:1,0:0:0:0:
256,108,199446,1,0,0:0:0:0:
256,248,199790,1,0,0:0:0:0:
144,176,200135,2,0,P|116:100|156:28,1,160,2|2,0:0|0:0,0:0:0:0:
312,184,201170,2,0,P|340:260|300:332,1,160,8|2,0:0|0:0,0:0:0:0:
256,112,202204,6,0,L|408:48,1,160,2|2,0:0|0:0,0:0:0:0:
256,248,203239,2,0,L|108:310,1,160,4|2,2:1|0:0,0:0:0:0:
268,356,204273,2,0,P|348:360|408:276,1,160,2|2,0:0|0:0,0:0:0:0:
436,200,205308,1,8,0:0:0:0:
436,200,205652,2,0,L|508:264,1,80,0|2,0:0|0:0,0:0:0:0:
428,64,206342,2,0,B|384:64|384:64|340:24,1,80,2|4,0:0|3:0,0:0:0:0:
84,64,207032,2,0,B|128:64|128:64|172:24,1,80,2|4,0:0|2:1,0:0:0:0:
256,64,207721,2,0,L|256:152,1,80,4|4,3:0|3:0,0:0:0:0:
72,248,208411,6,0,P|152:232|220:280,1,160,4|2,0:0|0:0,0:0:0:0:
320,296,209446,2,0,P|386:336|463:319,1,160,8|0,0:0|0:0,0:0:0:0:
448,228,210480,1,2,0:0:0:0:
463,319,210826,1,0,0:0:0:0:
448,228,211170,2,0,L|472:140,1,80,2|4,0:0|2:1,0:0:0:0:
364,196,211859,2,0,L|364:112,1,80,2|0,0:0|0:0,0:0:0:0:
256,80,212549,6,0,P|180:88|128:168,1,160,2|2,0:0|0:0,0:0:0:0:
144,256,213583,1,8,0:0:0:0:
144,256,213928,2,0,B|188:256|188:256|232:280,1,80,2|0,0:0|0:0,0:0:0:0:
256,352,214618,2,0,L|256:176,1,160,2|2,0:0|0:0,0:0:0:0:
348,144,215652,2,0,L|348:232,1,80,4|2,2:1|0:0,0:0:0:0:
348,48,216342,1,2,0:0:0:0:
256,192,216687,6,0,P|212:192|160:96,1,160,2|2,0:0|0:0,0:0:0:0:
28,88,217721,2,0,L|50:246,1,160,10|0,0:0|0:0,0:0:0:0:
96,332,218755,1,2,0:0:0:0:
50,246,219101,1,0,0:0:0:0:
96,332,219446,2,0,B|136:332|136:332|180:360,1,80,2|4,0:0|2:1,0:0:0:0:
256,280,220135,2,0,L|256:192,1,80,2|2,0:0|0:0,0:0:0:0:
416,332,220825,6,0,B|376:332|376:332|342:353,2,80,4|2|2,3:0|0:0|0:0,0:0:0:0:
480,256,221859,1,8,0:0:0:0:
480,256,222204,2,0,P|488:204|476:160,1,80,2|2,0:0|0:0,0:0:0:0:
424,68,222894,2,0,L|386:138,1,80,2|4,0:0|3:0,0:0:0:0:
290,173,223583,2,0,L|328:244,1,80,2|4,0:0|2:1,0:0:0:0:
204,240,224273,2,0,L|166:169,1,80,2|4,0:0|2:1,0:0:0:0:
240,328,224963,6,0,P|176:332|112:260,1,160,4|2,0:0|0:0,0:0:0:0:
64,152,225997,1,8,0:0:0:0:
144,80,226342,2,0,P|104:60|60:60,1,80,2|2,0:0|0:0,0:0:0:0:
64,152,227032,2,0,L|228:100,1,160,2|2,0:0|0:0,0:0:0:0:
280,192,228066,1,4,2:1:0:0:
280,192,228411,2,0,L|360:160,1,80,2|0,0:0|0:0,0:0:0:0:
256,276,229101,6,0,B|256:320|256:320|224:360,1,80,2|2,0:0|0:0,0:0:0:0:
128,216,229790,2,0,B|128:172|128:172|151:144,1,80,2|8,0:0|0:0,0:0:0:0:
256,68,230480,2,0,P|232:32|192:12,1,80,2|2,0:0|0:0,0:0:0:0:
256,172,231170,2,0,B|256:246|256:246|256:282|292:322,1,160,2|2,0:0|0:0,0:0:0:0:
408,326,232204,2,0,B|444:286|444:250|444:250|444:176,1,160,2|2,0:0|0:0,0:0:0:0:
464,64,233239,6,0,P|388:76|336:160,1,160,2|2,0:0|0:0,0:0:0:0:
260,232,234273,1,2,0:0:0:0:
260,232,234618,2,0,P|236:200|228:152,1,80,2|2,0:0|0:0,0:0:0:0:
168,80,235308,2,0,L|80:80,2,80,2|2|2,0:0|0:0|0:0,0:0:0:0:
24,168,236342,2,0,L|120:168,1,80,2|2,0:0|0:0,0:0:0:0:
64,264,237032,2,0,L|152:264,1,80,2|2,0:0|0:0,0:0:0:0:
300,272,237721,5,0,0:0:0:0:
300,272,238066,2,0,B|300:232|300:232|328:184,1,80,2|8,0:0|0:0,0:0:0:0:
256,72,238756,1,2,0:0:0:0:
168,28,239101,1,2,0:0:0:0:
256,72,239446,2,0,L|256:160,1,80,2|0,0:0|0:0,0:0:0:0:
212,272,240135,2,0,B|212:232|212:232|191:197,1,80,2|2,0:0|0:0,0:0:0:0:
124,112,240825,1,2,0:0:0:0:
72,204,241170,1,2,0:0:0:0:
72,204,241514,6,0,P|64:256|132:356,1,160,2|2,0:0|0:0,0:0:0:0:
256,320,242549,1,2,0:0:0:0:
256,176,242894,1,2,0:0:0:0:
376,240,243239,1,2,0:0:0:0:
188,228,243583,6,0,P|172:191|172:136,1,80,2|0,0:0|0:0,0:0:0:0:
256,176,244273,2,0,L|256:96,1,80
324,228,244963,2,0,P|339:191|340:136,1,80,2|0,0:0|0:0,0:0:0:0:
256,288,245652,2,0,P|308:316|400:264,1,160,2|2,0:0|0:0,0:0:0:0:
252,184,246687,1,2,0:0:0:0:
160,252,247032,1,2,0:0:0:0:
184,124,247377,1,2,0:0:0:0:
160,252,247721,6,0,P|120:248|80:208,1,80,2|0,0:0|0:0,0:0:0:0:
32,88,248411,2,0,P|72:92|112:132,1,80,0|2,0:0|0:0,0:0:0:0:
256,176,249101,2,0,L|256:72,1,80,2|0,0:0|0:0,0:0:0:0:
360,152,249790,2,0,L|360:316,1,160,2|2,0:0|0:0,0:0:0:0:
252,328,250825,2,0,P|188:304|88:352,1,160,2|2,0:0|0:0,0:0:0:0:
60,244,251859,5,0,0:0:0:0:
60,244,252204,2,0,P|32:208|24:164,1,80
60,76,252894,1,8,0:0:0:0:
136,160,253239,2,0,L|200:92,1,80
376,160,253928,2,0,L|312:92,1,80,2|0,0:0|0:0,0:0:0:0:
256,192,254618,1,0,0:0:0:0:
256,328,254963,1,2,0:0:0:0:
164,192,255308,2,0,P|176:240|200:268,1,80,2|2,0:0|0:0,0:0:0:0:
204,108,255997,6,0,P|136:104|72:180,1,160,2|2,0:0|0:0,0:0:0:0:
64,268,257032,1,8,0:0:0:0:
164,192,257377,1,2,0:0:0:0:
256,304,257721,2,0,L|228:304,3,26.6666666666667
392,284,258411,5,0,1:0:0:0:
432,188,258756,2,0,P|388:180|352:188,1,80,4|4,3:0|2:1,0:0:0:0:
256,100,259446,1,2,0:0:0:0:
172,40,259790,1,2,0:0:0:0:
256,100,260135,2,0,L|208:184,1,80,4|0,0:0|0:0,0:0:0:0:
168,256,260825,1,0,0:0:0:0:
168,256,261170,1,8,0:0:0:0:
312,172,261514,2,0,L|351:102,1,80,2|0,0:0|0:0,0:0:0:0:
404,224,262204,6,0,P|388:284|300:316,1,160,2|2,0:0|0:0,0:0:0:0:
208,300,263239,1,2,0:0:0:0:
144,192,263583,1,2,0:0:0:0:
60,292,263928,1,2,0:0:0:0:
204,120,264273,2,0,P|160:104|112:104,1,80,2|0,0:0|0:0,0:0:0:0:
212,236,264963,2,0,P|256:252|304:252,1,80,2|8,0:0|0:0,0:0:0:0:
440,184,265652,2,0,P|396:168|348:168,1,80,2|2,0:0|0:0,0:0:0:0:
212,236,266342,6,0,P|212:308|140:368,1,160,2|2,0:0|0:0,0:0:0:0:
80,252,267377,2,0,P|80:180|152:120,1,160,2|2,0:0|0:0,0:0:0:0:
256,44,268411,2,0,L|256:136,2,80,2|2|2,0:0|0:0|0:0,0:0:0:0:
344,60,269446,1,2,0:0:0:0:
424,136,269790,1,2,0:0:0:0:
344,60,270135,1,2,0:0:0:0:
344,176,270480,6,0,L|344:260,1,80,2|2,0:0|0:0,0:0:0:0:
256,340,271170,2,0,L|256:260,2,80,2|2|2,0:0|0:0|0:0,0:0:0:0:
144,344,272204,1,2,0:0:0:0:
96,256,272549,2,0,P|64:192|104:104,1,160,2|2,0:0|0:0,0:0:0:0:
192,152,273583,2,0,L|296:152,1,80,8|2,0:0|0:0,0:0:0:0:
372,152,274273,1,2,0:0:0:0:
320,268,274618,2,0,B|320:308|320:308|348:356,2,80,0|4|2,0:0|3:0|0:0,0:0:0:0:
432,248,275652,1,4,2:1:0:0:
456,140,275997,2,0,P|436:104|384:72,1,80,2|4,0:0|0:0,0:0:0:0:
256,56,276687,5,4,0:0:0:0:
256,168,277032,2,0,P|256:204|232:248,1,80,0|2,0:0|0:0,0:0:0:0:
148,196,277721,1,8,0:0:0:0:
80,272,278066,2,0,L|120:356,1,80,2|2,0:0|0:0,0:0:0:0:
148,196,278756,2,0,P|76:172|-8:224,1,160,2|2,0:0|0:0,0:0:0:0:
196,96,279790,1,2,0:0:0:0:
260,192,280135,1,2,0:0:0:0:
332,88,280480,1,2,0:0:0:0:
260,192,280825,5,2,0:0:0:0:
400,152,281170,2,0,P|420:104|420:68,1,80,0|2,0:0|0:0,0:0:0:0:
256,44,281859,1,8,0:0:0:0:
348,216,282204,2,0,P|392:232|436:224,1,80,2|2,0:0|0:0,0:0:0:0:
260,192,282894,2,0,L|212:344,1,160,2|2,0:0|0:0,0:0:0:0:
132,256,283928,2,0,L|180:104,1,160,2|2,0:0|0:0,0:0:0:0:
352,36,284963,6,0,P|384:100|360:184,1,160,2|2,0:0|0:0,0:0:0:0:
412,296,285997,2,0,P|340:284|252:328,1,160,8|2,0:0|0:0,0:0:0:0:
168,364,287032,1,2,0:0:0:0:
168,364,287377,1,0,0:0:0:0:
180,264,287721,2,0,P|160:228|160:172,1,80,2|0,0:0|0:0,0:0:0:0:
256,132,288411,2,0,P|272:168|271:209,1,80,0|2,0:0|0:0,0:0:0:0:
228,48,289101,6,0,B|288:40|336:80|336:80|356:56|376:48,1,160,2|2,0:0|0:0,0:0:0:0:
404,148,290135,2,0,L|404:312,1,160,8|2,0:0|0:0,0:0:0:0:
300,316,291170,2,0,P|256:308|208:324,1,80,2|4,0:0|3:0,0:0:0:0:
88,324,291859,2,0,L|60:340,3,26.6666666666667,0|0|0|0,0:0|0:0|0:0|3:0,0:0:0:0:
164,256,292549,2,0,P|192:232|204:184,1,80
132,120,293239,6,0,P|200:92|296:136,1,160,2|2,0:0|0:0,0:0:0:0:
352,200,294273,1,0,0:0:0:0:
416,124,294618,2,0,L|416:32,1,80,2|2,0:0|0:0,0:0:0:0:
480,192,295308,2,0,P|480:272|404:320,1,160,2|2,0:0|0:0,0:0:0:0:
156,188,297115,5,2,0:0:0:0:
156,188,297487,2,0,P|132:148|132:104,1,68.0000012969971,2|2,0:0|0:0,0:0:0:0:
256,252,298146,2,0,P|220:288|160:304,1,80,2|2,0:0|0:0,0:0:0:0:
364,116,299206,1,2,0:0:0:0:
416,240,299628,1,2,0:0:0:0:
256,192,299961,12,2,301331,0:0:0:0:
256,192,301799,12,2,307115,0:0:0:0:
